#TITLE:Hello William;
#SUBTITLE:;
#ARTIST:BanYa Production;
#TITLETRANSLIT:;
#SUBTITLETRANSLIT:;
#ARTISTTRANSLIT:;
#CREDIT:;
#BANNER:Hello William-banner.png;
#BACKGROUND:Hello William-bg.png;
#LYRICSPATH:;
#CDTITLE:cdtitle.png;
#MUSIC:Hello William.mp3;
#OFFSET:-0.942;
#SAMPLESTART:54.557;
#SAMPLELENGTH:13.018;
#SELECTABLE:YES;
#BPMS:0.000=170.000;
#STOPS:;
#BGCHANGES:0.000=Hello William.avi=1.000=1=1=0,
99999=-nosongbg-=1.000=0=0=0 // don't automatically add -songbackground-
;

//---------------dance-single - ----------------
#NOTES:
     dance-single:
     :
     Beginner:
     2:
     0.137,0.166,0.021,0.000,0.000:
0000
0000
0000
0000
,
0000
0000
0000
0000
,
0000
0000
0000
0000
,
0000
0000
0000
0000
,
1000
0000
0000
0000
,
0001
0000
0000
0000
,
0100
0000
0100
0000
,
0100
0000
0000
0000
,
0001
0000
0000
0000
,
1000
0000
0000
0000
,
0110
0000
0000
0000
,
1000
0000
0000
0000
,
0001
0000
0000
0000
,
0010
0000
0010
0000
,
0010
0000
0000
0000
,
0001
0000
0000
0000
,
1000
0000
0000
0000
,
0100
0000
0100
0000
,
0100
0000
0000
0000
,
1000
0000
0000
0000
,
0010
0000
1000
0000
,
0001
0000
0001
0000
,
0100
0000
0000
0000
,
0001
0000
0000
0000
,
0010
0000
0010
0000
,
0001
0000
1000
0000
,
0100
0000
0000
0000
,
1000
1000
1000
0000
,
0010
0000
0000
0000
,
0100
0100
0100
0000
,
0001
0000
0000
0000
,
0010
0010
0010
0000
,
0100
0000
0000
0000
,
1000
1000
1000
0000
,
0010
0000
0000
0000
,
0000
0000
0000
0000
,
0100
0000
0000
0000
,
0000
0000
0000
0000
,
0001
0000
0001
0000
,
0001
0000
0001
0000
,
0001
0000
0001
0001
,
0001
0000
0000
0000
,
1000
0000
1000
0000
,
1000
0000
1000
0000
,
1000
0000
1000
1000
,
1000
0000
0000
0000
,
0010
0000
0000
0000
,
1000
0000
0000
0000
,
0100
0000
0100
0000
,
0100
0000
0100
0000
,
0100
0000
0000
0000
,
0010
0000
0000
0000
,
0001
0000
0001
0000
,
0001
0000
0001
0000
,
0100
0000
0000
0000
,
0001
0000
0000
0000
,
1000
0000
0000
0000
,
0100
0000
0100
0000
,
0010
0000
0010
0000
,
0001
0000
1000
0000
,
0010
0000
0100
0000
,
0001
0000
0000
0000
,
1000
0000
0000
0000
,
0110
0000
0000
0000
;

//---------------dance-single - ----------------
#NOTES:
     dance-single:
     :
     Medium:
     8:
     0.435,0.538,0.243,0.106,0.000:
0000
0000
0000
0000
,
0000
0000
0000
0000
,
0000
0000
0000
0000
,
0000
0000
0000
0000
,
1000
0000
0001
0000
,
0100
0010
0100
0100
,
0010
0000
1000
0001
,
1000
0000
0001
0000
,
0100
0100
0010
0010
,
1001
0000
0000
0000
,
1000
0000
0001
0000
0100
0010
0100
0000
,
0001
0000
1000
0000
0001
0010
0001
0000
,
0100
0000
0001
0000
1000
0100
1000
0000
,
0002
0000
1003
0010
,
0110
0101
1001
0000
,
1100
0110
0011
0000
,
1001
0101
1010
0000
,
0002
0000
0000
0000
0013
0100
0010
0000
,
0001
1000
0020
0000
,
1030
0000
0001
0000
0100
0010
0100
0000
,
0001
0100
0001
0000
1000
0100
1000
0000
,
0001
1000
0001
0000
0010
0000
0001
0000
,
1000
0010
0200
0000
,
0301
0000
1000
0000
0010
1000
0010
0000
,
1000
0001
1000
0000
0001
0010
0001
0000
,
1000
0001
1000
0000
0100
0000
0000
0000
,
1000
0000
0001
0000
0100
0010
0100
0000
,
0001
0100
0001
0000
1000
0001
1000
0000
,
0010
0000
1000
0000
0001
0010
0001
0000
,
1000
0001
1000
0000
0100
1000
0001
0000
,
1000
0000
0001
0000
0100
0010
0100
0000
,
0010
1000
0010
0000
1000
0001
1000
0000
,
0010
0000
1000
0000
0001
0010
0001
0000
,
1000
0100
1000
0000
0001
1000
0100
0000
,
0011
0000
1000
0000
0001
0100
0000
0000
,
0010
1000
0000
0000
0001
0100
0100
0000
,
0010
0000
1000
0000
0001
0010
0000
0000
,
0100
1000
0000
0000
0010
0100
0100
0000
,
0101
1100
0101
1000
,
1010
0011
1010
1000
,
1001
0110
1001
0100
,
0020
0000
0000
0000
1030
0100
1000
0000
,
0001
0100
0001
0100
0001
0000
0000
0000
,
1000
0100
1000
0100
1000
0000
0000
0000
,
0010
0100
0010
0100
0010
0000
0000
0000
,
2000
0000
0000
0000
3100
0010
0100
0000
,
1000
0001
0200
0000
,
0301
0000
1000
0000
0001
0100
0001
0000
,
1000
0100
1000
0010
1000
0000
0001
0000
,
0100
0010
0100
0000
0001
0000
0000
0000
,
1000
0100
0020
0000
,
0031
0000
1000
0000
0010
0100
0010
0000
,
0100
0001
0100
0010
0100
0000
0001
0000
,
1000
0000
0010
1000
0010
0000
0000
0000
,
1100
0000
0000
0000
0001
0010
0100
0000
,
0000
0000
0000
0000
1000
0010
0100
0000
,
0001
0000
1000
0000
,
0010
1000
0001
0100
,
0010
1000
0001
0010
,
0100
1000
0100
1000
0100
1000
0100
1000
,
0001
0100
0001
0100
0001
0100
0001
0100
,
0010
0000
1000
0000
,
0001
0000
0110
0000
,
2002
0000
0000
0000
0000
3003
0000
0000
;

//---------------dance-single - ----------------
#NOTES:
     dance-single:
     :
     Hard:
     12:
     0.616,0.571,0.201,0.158,0.000:
0000
0000
0000
0000
,
0000
0000
0000
0000
,
0000
0000
0000
0000
,
0000
0000
0000
0000
,
1000
0000
0001
0000
,
1000
0001
1000
0001
,
0100
0010
0100
0010
,
2000
0000
3002
0000
,
0203
0000
0320
0000
,
2000
0000
0000
3030
,
0001
0100
0001
0100
0001
1000
1000
0100
,
1000
0100
1000
0100
1000
0010
0010
0100
,
0001
0100
0001
0100
0001
1000
1000
0001
,
0200
0000
0000
0310
0100
0001
1000
0000
,
0001
0010
0001
0010
0001
1000
1000
0100
,
1000
0100
1000
0100
1000
0010
0010
0100
,
0001
0100
0001
0100
0001
1000
1000
0010
,
0200
0000
0000
0301
0010
0100
1000
0000
,
0001
1000
0010
1000
0002
0000
0000
0000
,
0103
0010
0100
0001
0010
0010
0100
0010
,
0001
0001
0100
0010
1000
1000
0100
1000
,
0001
0001
0100
0010
1000
1000
0001
0010
,
0001
1000
0100
0010
0002
0000
0000
0000
,
1003
0001
0100
0010
1000
1000
0001
0010
,
0100
0100
0010
0001
0100
0100
0010
0100
,
0001
0001
0010
0100
1000
0001
1000
0000
,
1010
0000
0101
0000
1010
0000
1000
0100
,
1000
0010
1000
0001
1000
0010
1000
0000
,
1010
0000
0101
0000
1010
0000
0001
0100
,
0001
0010
0001
1000
0001
0100
0001
0000
,
0101
0000
1010
0000
0101
0000
0010
1000
,
0010
0001
0010
0100
0010
1000
0010
0000
,
1010
0000
0101
0000
1010
0000
0100
0001
,
0100
0010
0100
1000
0100
0010
0100
0000
,
0001
1000
0010
0100
0001
1000
0000
1000
,
0100
0010
0000
0010
0001
0100
0000
0100
,
0010
0100
0001
0010
0100
1000
0000
1000
,
0001
0100
0000
0100
1000
0100
0010
0000
,
1000
0100
1000
0100
1000
0010
0010
0100
,
0001
0100
0001
0100
0001
0010
0010
0001
,
1000
0001
1000
0001
1000
0010
0010
0100
,
0002
0000
0000
0013
0100
0010
0001
0000
,
0100
1000
0100
0010
0100
0001
0001
0010
,
0100
0010
1000
0010
0100
0010
0010
0001
,
0100
0010
0100
0001
1000
0100
0100
0010
,
0002
0000
0000
1003
0010
0100
0001
0000
,
1000
0010
0100
0001
2000
0000
0000
0000
,
3001
0010
0001
1000
0010
0010
0100
0001
,
1000
1000
0010
0100
0001
0001
0010
0100
,
0010
0010
0001
1000
0010
1000
0001
0000
,
0100
0001
1000
0100
0020
0000
0000
0000
,
0031
0010
0100
1000
0010
0010
1000
0001
,
0100
0100
0010
0100
0001
0001
0010
0100
,
1000
1000
0010
1000
0001
1000
0010
0000
,
0101
0000
0000
0000
1000
0100
0001
0000
,
1100
0000
0000
0000
0001
0100
1000
0000
,
1000
0010
0001
0000
0001
0100
1000
0000
,
0010
1000
0010
0100
0010
0001
0010
0100
,
0010
1000
0010
0100
0010
0001
0010
0100
,
0100
0001
0100
1000
0100
0010
0100
0001
,
0100
0010
1000
0100
0010
0001
1000
0010
,
0101
0000
0000
0000
1000
0100
0010
0001
,
1000
0000
0000
0110
0101
0000
0000
1010
,
2200
0000
0000
0000
0000
3300
0000
0000
;

//---------------dance-single - ----------------
#NOTES:
     dance-single:
     :
     Challenge:
     16:
     0.875,0.907,0.253,0.169,0.628: // measure 1
0000
0000
0000
0000
,  // measure 2
0000
0000
0000
0000
,  // measure 3
0000
0000
0000
0000
,  // measure 4
0000
0000
0000
0000
,  // measure 5
2000
0000
0000
0000
0000
0000
3010
1000
0002
0000
0000
0000
0000
0003
0010
0001
,  // measure 6
1000
0010
0100
0001
0010
1000
0010
0001
,  // measure 7
1000
1000
0010
0001
0010
0100
0001
0010
,  // measure 8
0200
0000
0000
0000
0000
0000
1300
0001
0200
0000
0000
0000
0000
0000
0310
1000
,  // measure 9
0001
0000
0010
0001
1000
0000
0100
0000
1000
0000
0001
0100
0001
0000
1000
0000
,  // measure 10
0200
0000
0000
0000
0000
0000
0000
0000
0000
0000
0000
0000
0310
0001
0010
0001
,  // measure 11
1000
0000
0100
1000
0100
0000
1000
0100
1000
0000
0010
0000
0100
0000
0001
1000
,  // measure 12
0001
0000
1000
0001
1000
0000
0001
1000
0001
0000
0100
0000
0010
0000
1000
0010
,  // measure 13
1000
0000
0010
1000
0010
0000
1000
0010
1000
0000
0001
0000
1000
0000
0010
0100
,  // measure 14
0002
0000
0000
0000
0000
0000
0013
0100
0010
0000
0001
0000
1000
0000
0001
0010
,  // measure 15
0001
0000
0010
0001
0010
0000
0001
0010
0001
0000
0100
0000
0010
0000
1000
0001
,  // measure 16
1000
0000
0001
1000
0001
0000
1000
0001
1000
0000
0010
0000
0100
0000
0001
0100
,  // measure 17
0001
0000
0100
0001
0100
0000
0001
0100
0001
0000
1000
0000
0001
0000
0100
0010
,  // measure 18
2000
0000
0000
0000
0000
0000
3100
0010
0100
0000
1000
0000
0001
0000
1000
0100
,  // measure 19
0010
0000
0001
1000
0010
0000
1000
0000
0002
0000
0000
0000
0000
0000
0103
0000
,  // measure 20
0010
0000
0100
0000
0001
0000
0010
0000
0100
1000
0100
1000
0010
0000
1000
0000
,  // measure 21
0001
0100
0001
0100
0010
0000
1000
0000
0001
0010
0001
0010
0100
0000
1000
0000
,  // measure 22
0010
0100
0010
0100
0001
0000
0010
0000
0100
0010
0100
0010
0001
0000
1000
0100
,  // measure 23
1000
0000
0010
1000
0001
0000
1000
0000
0020
0000
0000
0000
0000
0000
0130
0000
,  // measure 24
0001
0000
0100
0000
0010
0000
1000
0000
0001
0010
0001
0010
0100
0000
1000
0000
,  // measure 25
0001
1000
0001
1000
0100
0000
0010
0000
0001
0100
0001
0100
0010
0000
1000
0000
,  // measure 26
0100
1000
0100
1000
0010
0000
0100
0000
0001
0000
1000
0000
0100
0000
0000
0000
,  // measure 27
0010
0000
0001
0100
0010
0000
1000
0100
0010
0000
0001
0000
1000
0000
0001
0000
,  // measure 28
1000
0000
1000
0000
0010
0000
0010
0000
0100
0000
0100
0000
0001
0000
1000
0001
,  // measure 29
0100
0000
0001
1000
0100
0000
1000
0001
0100
0000
0001
0000
1000
0000
0001
0000
,  // measure 30
1000
0000
1000
0000
0010
0000
0010
0000
0100
0000
0100
0000
0001
0000
0010
0100
,  // measure 31
1000
0000
0010
0100
0001
0000
0010
0100
1000
0000
0010
0000
0100
0000
0010
0000
,  // measure 32
1000
0000
1000
0000
0001
0000
0001
0000
0010
0000
0001
0000
1000
0000
0010
0100
,  // measure 33
0001
0000
0010
0100
1000
0000
0010
0100
0001
0000
0010
0000
0100
0000
0010
0000
,  // measure 34
0001
0000
0001
0000
1000
0000
1000
0000
0010
0000
1000
0000
0001
0000
0100
0010
,  // measure 35
0100
0001
1000
0100
0010
0001
0000
0001
,  // measure 36
1000
0000
0010
0000
0000
0000
0010
0000
0100
0000
1000
0000
0100
0000
0010
1000
,  // measure 37
0010
0000
1000
0100
1000
0000
0001
0000
1000
0000
0100
0000
0000
0000
0100
0000
,  // measure 38
0010
0000
0001
0000
0000
0000
0001
0000
0100
0000
0010
0000
0100
0001
0100
0001
,  // measure 39
1000
0000
0010
0100
1000
0000
0100
0010
1000
0000
0100
0000
0100
0000
1000
0100
,  // measure 40
0001
0000
0100
0010
0001
0000
1000
0010
0001
0000
0010
0000
0010
0000
1000
0100
,  // measure 41
0001
0000
0100
1000
0010
0000
0100
0001
1000
0000
1000
0000
0010
0000
0100
0001
,  // measure 42
0000
2000
0000
0000
0000
0000
0000
0000
0000
0000
0000
0000
0000
0000
0000
0000
0000
0000
0000
0000
0000
0000
0000
0000
0000
0000
0000
0000
0000
0000
0000
0000
0000
0000
0000
0000
0000
0000
0000
0000
0000
0000
0000
0000
0000
0000
0000
0000
0000
0000
0000
0000
0000
0000
0000
0000
0000
0000
0000
0000
0000
0000
0000
0000
0000
0000
0000
0000
0000
0000
0000
0000
3010
0000
0000
0000
0000
0000
0000
0000
0000
0000
0000
0000
0100
0000
0000
0000
0000
0000
0000
0000
0000
0000
0000
0000
0001
0000
0000
0000
0000
0000
0000
0000
0000
0000
0000
0000
0000
0000
0000
0000
0000
0000
0000
0000
0000
0000
0000
0000
1000
0000
0000
0000
0000
0000
0000
0000
0000
0000
0000
0000
0000
0000
0000
0000
0000
0000
0000
0000
0000
0000
0000
0000
0010
0000
0000
0000
0000
0000
0000
0000
0000
0000
0000
0000
0000
0000
0000
0000
0000
0000
0000
0000
0000
0000
0000
0000
0100
0000
0000
0000
0000
0000
0000
0000
0000
0000
0000
0000
0001
0000
0000
0000
0000
0000
0000
0000
0000
0000
0000
0000
,  // measure 43
0100
0000
0010
1000
0010
0000
1000
0001
0100
0000
0110
0000
0110
0000
0001
0010
,  // measure 44
0001
0000
1000
0100
1000
0000
0001
1000
0010
0000
1010
0000
1010
0000
0100
0001
,  // measure 45
0100
0000
0010
1000
0010
0000
0100
0001
1000
0000
1100
0000
1100
0000
0100
0010
,  // measure 46
0002
0000
0000
0000
0000
0000
0103
0010
0100
0000
0001
0000
1000
0000
0001
0100
,  // measure 47
0010
0000
1000
0100
0010
0000
0001
0000
2000
0000
0000
0000
0000
0000
3010
0000
,  // measure 48
1000
0000
0001
0000
0100
0000
0010
0000
1000
0100
0010
0001
1000
0000
0001
0000
,  // measure 49
0100
0010
1000
0001
0010
0000
0100
0000
0010
0001
0100
0010
1000
0000
0001
0000
,  // measure 50
1000
0100
0010
0001
1000
0000
0100
0000
0001
0000
0100
0010
0100
0000
1000
0010
,  // measure 51
0100
0000
0001
0010
0100
0000
1000
0000
0002
0000
0000
0000
0000
0000
0103
0000
,  // measure 52
0001
0000
1000
0000
0010
0000
0100
0000
0001
0010
0100
1000
0001
0000
1000
0000
,  // measure 53
0010
0100
0001
1000
0100
0000
0010
0000
0100
1000
0010
0100
0001
0000
1000
0000
,  // measure 54
0001
0010
0100
1000
0001
0000
0010
0000
1000
0000
0010
0000
0001
0000
0100
0000
,  // measure 55
0101
0000
0000
0000
1100
1001
0101
0000
,  // measure 56
0000
0000
0000
0000
0101
0110
1010
0000
,  // measure 57
1100
0110
0011
0000
0101
0110
1010
0000
,  // measure 58
0001
0000
1000
0100
1000
0000
0010
0000
0010
0000
0100
0001
0100
0000
0010
0000
,  // measure 59
0010
0000
1000
0001
1000
0000
0100
0000
0100
0000
0010
0001
0010
0000
0100
0000
,  // measure 60
0100
1000
0010
0100
0001
0010
1000
0010
,  // measure 61
0001
0100
0001
0000
1000
0100
1000
0000
0001
0010
0001
0000
1000
0010
1000
0000
,  // measure 62
0002
0000
0000
0000
0000
0000
1003
0100
1000
0000
0001
0000
0100
0000
0010
0000
,  // measure 63
1001
0000
0000
1100
0101
0000
0000
0011
,  // measure 64
2200
0000
0000
0000
0000
3300
0000
0000
;

//---------------dance-single - ----------------
#NOTES:
     dance-single:
     :
     Easy:
     4:
     0.256,0.302,0.011,0.063,0.000:
0000
0000
0000
0000
,
0000
0000
0000
0000
,
0000
0000
0000
0000
,
0000
0000
0000
0000
,
1000
0000
0001
0000
,
1000
0000
0010
0000
,
0100
0000
0001
0000
,
1000
0000
0001
0000
,
1000
0000
0001
0000
,
0100
0000
0000
0000
,
0010
1000
0010
0000
,
1000
0100
1000
0000
,
0001
1000
0001
0000
,
0200
0000
0310
0000
,
0100
0001
0100
0000
,
0001
1000
0001
0000
,
1000
0010
1000
0000
,
0200
0000
0310
0000
,
0001
0000
1000
0000
,
0010
0000
0100
0100
,
0001
0001
1000
1000
,
0010
0010
1000
0000
,
0001
0000
0010
0000
,
0001
0000
1000
1000
,
0010
0010
0100
0100
,
0010
0010
1000
0000
,
0100
0000
0100
0000
,
0010
0001
0010
0001
,
0100
0000
0100
0000
,
0010
1000
0010
1000
,
0001
0000
1000
0000
,
0010
0100
0010
0100
,
0001
0000
1000
0000
,
0100
0010
0100
0010
,
0001
0000
0000
0000
,
1000
0000
0010
0010
,
0010
0000
0000
0000
,
1000
0000
0001
0000
,
0100
0001
0100
0100
,
0001
0100
0001
0001
,
0100
0001
0100
0100
,
0002
0000
0103
0000
,
1000
0010
1000
1000
,
0010
1000
0010
0010
,
1000
0010
1000
1000
,
0020
0000
1030
0000
,
0001
0000
1000
0000
,
0100
0000
0010
0000
,
0001
1000
0001
1000
,
0001
1000
0001
0000
,
0100
0000
0001
0000
,
1000
0000
0010
0000
,
1000
0100
1000
0100
,
1000
0100
1000
0000
,
0001
0000
0000
0000
,
0100
0000
0000
0000
,
0010
0000
1000
0000
,
0100
0100
0010
0010
,
0001
0001
0100
0100
,
0010
1000
0010
1000
,
0001
0100
0001
0100
,
0010
0000
1000
0000
,
0001
0000
0010
0000
,
2002
0000
0000
0000
0000
3003
0000
0000
;
