#TITLE:Get Up!;
#SUBTITLE:;
#ARTIST:BanYa;
#TITLETRANSLIT:;
#SUBTITLETRANSLIT:;
#ARTISTTRANSLIT:;
#CREDIT:;
#BANNER:Get Up!-banner.png;
#BACKGROUND:Get Up!-bg.png;
#LYRICSPATH:;
#CDTITLE:cdtitle.png;
#MUSIC:Get Up!.mp3;
#OFFSET:-0.116;
#SAMPLESTART:37.435;
#SAMPLELENGTH:18.000;
#SELECTABLE:YES;
#BPMS:0.000=180.000;
#STOPS:;
#BGCHANGES:0.000=Get Up!.avi=1.000=1=0=0,
99999=-nosongbg-=1.000=0=0=0 // don't automatically add -songbackground-
;

//---------------dance-single - ----------------
#NOTES:
     dance-single:
     :
     Beginner:
     3:
     0.176,0.216,0.105,0.000,0.000:
0000
0000
0000
0000
,
0000
0000
0000
0000
,
0000
0000
0000
0000
,
0000
0000
0000
0000
,
1000
0000
0001
0000
,
0100
0000
0100
0000
,
0010
0000
1000
0000
,
0001
0000
0000
0000
,
0010
0000
0001
0000
,
1000
0000
1000
0000
,
0010
0000
0100
0000
,
0100
0000
0000
0000
,
0001
0000
1000
0000
,
0100
0000
0100
0000
,
1000
0000
0001
0000
,
0100
0100
0100
0100
,
0000
0001
0000
0001
,
0000
0000
0000
0000
,
1000
0000
0001
0000
,
0100
0000
0100
0000
,
1001
0000
0000
0000
,
0000
0000
0010
0000
,
1001
0000
0000
0000
,
0000
0000
0100
0000
,
1000
0000
1000
0000
,
0010
0000
0010
0000
,
0100
0000
0100
0000
,
0001
0000
0001
0000
,
0010
0000
0000
0000
,
0100
0100
0100
0000
,
0100
0000
1000
0000
,
0001
0000
0100
0000
,
0010
0000
0000
0000
,
0010
0010
0010
0000
,
1000
0000
0100
0000
,
0010
0000
0010
0000
,
0001
0000
1000
0000
,
0010
0000
0010
0000
,
1000
0000
0001
0000
,
0100
0100
0100
0100
,
0000
0001
0000
1000
,
0000
0000
0000
0000
,
0010
0000
1000
0000
,
0001
0000
0000
0000
,
1000
0000
0000
0000
,
0100
0000
0000
0000
,
0010
0000
0000
0000
,
1001
0000
0000
0000
,
0100
0000
0000
0000
,
1001
0000
0000
0000
,
0010
0000
0000
0000
,
1000
1000
1000
1000
,
1000
1000
1000
1000
,
0000
0000
0000
0000
,
0110
0000
0000
0000
,
0001
0000
0000
0000
,
1000
0000
0000
0000
,
0100
0100
0100
0100
,
0000
0010
0000
0001
,
0000
0000
0000
0000
,
0100
0000
0001
0000
,
1000
0000
0000
0000
,
0010
0000
0000
0000
,
1001
0000
0000
0000
,
0110
0000
0000
0000
,
1001
0000
0000
0000
,
1001
0000
0000
0000
,
0100
0000
0000
0000
,
0000
1001
0000
0000
;

//---------------dance-single - ----------------
#NOTES:
     dance-single:
     :
     Medium:
     9:
     0.527,0.612,0.401,0.232,0.000:
0000
0000
0000
0000
,
0000
0000
0000
0000
,
0000
0000
0000
0000
,
0000
0000
0000
0000
,
1000
1000
0001
0001
,
0200
0000
0000
0310
0100
0001
1000
0000
,
0010
0010
1000
1000
,
0002
0000
0000
0013
0200
0000
0000
0000
,
1300
1000
0001
0001
,
0200
0000
0000
0310
0100
0001
1000
0000
,
0001
0001
1000
1000
,
0020
0000
0000
0130
0002
0000
0000
0000
,
1003
1100
0001
0101
,
1000
0000
0001
1000
0010
0000
1010
0000
,
0001
1001
0010
0011
,
1000
0101
1100
2002
,
3003
0010
0000
1000
,
0000
0000
0001
0000
0010
0100
0010
0000
,
0001
0000
1000
0000
0010
1000
0001
0000
,
0200
0000
0000
0010
0020
0000
0330
0000
,
0101
1100
0001
0010
,
1000
0100
0011
1100
,
1010
0101
1000
0001
,
0100
1000
1010
0101
,
1000
0100
1000
0000
0001
0100
0001
0000
,
1000
0010
1000
0000
0001
0010
0001
0000
,
0100
0010
1000
0000
0100
0010
0001
0000
,
1000
0000
0001
0000
0100
0010
1000
0010
,
0200
0000
0001
0301
,
1000
0000
0001
0000
0100
0010
1000
0000
,
0001
0001
1000
1000
,
0020
0000
0000
0100
0200
0000
0330
0000
,
0001
0100
0001
0000
1000
0100
1000
0000
,
0002
0000
0000
0013
0010
0000
0001
0000
,
0011
1100
0101
1010
,
0200
0000
0000
0001
0002
0000
0303
0000
,
1000
0000
0001
0000
0100
0010
1000
0000
,
0001
0000
0010
0100
0010
0000
0001
0000
,
1000
1100
0011
1000
,
0001
0100
0010
1000
0001
0000
0220
0000
,
0330
1001
0000
1001
,
0000
0000
0010
0000
1000
0001
0100
0000
,
0010
1000
0001
0010
,
0100
1000
0100
1000
0100
1000
0100
0000
,
0001
1000
0001
1000
0001
1000
0001
0000
,
0100
0100
0010
0010
,
0100
0000
0001
0000
1000
0100
0010
0000
,
0001
1000
1001
1001
,
0010
0100
0110
0110
,
0001
0100
0001
0100
0001
0000
0001
0000
,
1000
0100
1000
0100
1000
0000
1000
0000
,
0001
0100
0001
0100
0010
1000
0010
1000
,
0001
0010
0001
0010
0100
1000
0100
1000
,
0000
0000
0000
0000
,
1001
0010
1000
0001
,
0010
0100
0010
0000
0001
0000
1000
0000
,
1010
0101
1000
0001
,
0011
1100
1001
0220
,
0330
1000
0000
0001
,
0000
0000
0010
0000
0001
1000
0100
0000
,
1000
0001
1000
0000
0010
0100
0010
0000
,
1000
0100
1000
0100
1000
0100
1000
0100
,
0010
0001
0010
0001
0010
0001
0010
0001
,
0100
0010
0100
0010
0100
0010
0100
0010
,
1000
0001
1000
0001
1000
0001
0100
0000
,
0200
0000
0000
0000
,
0320
0000
0000
0000
,
1030
0000
0001
0000
,
0110
1001
0000
0000
;

//---------------dance-single - ----------------
#NOTES:
     dance-single:
     :
     Hard:
     12:
     0.649,0.612,0.401,0.274,0.011:
0000
0000
0000
0000
,
0000
0000
0000
0000
,
0000
0000
0000
0000
,
0000
0000
0000
0000
,
0001
1000
0100
1000
0001
0100
0010
1000
,
0002
0000
0000
0013
0100
1000
0001
0000
,
1000
0010
1000
0001
0100
0010
1000
0000
,
0002
0000
0000
0013
0200
0000
0310
0000
,
0010
0001
1000
0001
0100
0010
1000
0100
,
0020
0000
0000
0031
0100
1000
0100
0001
,
1000
0100
0010
0001
1000
0010
0100
0001
,
2000
0000
0000
3001
0020
0000
0030
0000
,
0011
0000
1100
0000
0001
1000
0010
0000
,
1010
0000
0001
1000
0010
0000
0101
0000
,
1000
0001
0100
0010
0100
0001
1000
0000
,
0001
0100
1000
0000
0100
0000
2002
0000
,
3003
1010
1001
0011
,
0101
1100
0101
1001
,
0010
1000
0010
1000
0001
1000
0001
1000
,
0020
0000
0000
0130
0002
0000
0000
0000
,
1003
0000
0001
0000
0100
0000
0010
0100
,
0001
1000
1100
0101
,
1000
0000
0001
0000
0010
0000
0001
1000
,
0010
0100
0101
1100
,
0001
0100
0001
0100
0010
1000
0010
1000
,
0100
0010
0100
0010
0001
1000
0001
1000
,
0100
1000
0100
1000
0010
0100
0010
0100
,
0001
1000
0001
1000
0010
0100
0001
0010
,
0200
0000
1300
0001
,
1000
0010
1000
0001
0100
0010
1000
0000
,
0101
1100
0011
1010
,
0200
0000
0000
0001
0002
0000
0303
0000
,
2000
0010
3020
0100
,
0230
0000
0000
0301
0100
0010
1000
0000
,
1001
1100
1001
0101
,
2000
0000
0000
0010
0020
0000
3030
0000
,
0001
1000
0100
0010
0001
1000
0010
0000
,
0101
0000
1000
0100
0001
0000
1001
0000
,
0010
1000
0100
0010
0001
0000
1100
0000
,
0011
0000
1000
0001
0100
0000
2002
0000
,
3003
0000
0010
1000
0010
1000
0001
1000
,
0001
1000
0100
1000
0010
0100
0001
0000
,
1000
0001
0100
0000
0001
1000
0100
0000
,
0020
0100
0001
0001
,
0100
0000
0031
0000
0010
0001
1000
0000
,
1001
1100
1001
0101
,
2000
3001
0002
0103
,
0001
0100
0010
1000
0100
0010
0001
0000
,
1000
0010
0001
0010
0100
0001
1000
0000
,
0001
0010
1000
0010
0001
1000
0100
0000
,
1000
0100
0001
0100
1000
0010
0100
0000
,
0001
0100
1000
0010
0100
0001
0010
1000
,
0001
0010
1000
0100
0001
1000
0001
0010
,
0000
0000
0000
0000
,
1001
0000
0100
0010
0000
0010
1000
0000
,
0001
0010
0000
0100
0000
1000
0001
0000
,
1000
0010
1000
0001
1000
0001
0100
0000
,
0101
1100
0011
2002
,
3003
0000
0010
1000
0001
1000
0010
0100
,
0001
0000
0010
0000
0100
0010
0001
0000
,
1000
0001
0100
0000
0001
1000
0100
0000
,
0010
0001
0010
0001
0010
0001
0010
0001
,
1000
0001
0010
0001
0010
0001
0010
0001
,
0100
0001
0010
0001
0010
0001
0010
0001
,
1000
0001
0010
0001
0010
0001
0100
0010
,
0100
0010
1000
0100
0010
0001
0100
0010
,
1000
0001
0010
1000
0010
0001
1000
0010
,
0200
0000
0000
0000
,
0301
1000
0001
1000
0001
0000
0000
0000
0000
0000
0000
0000
0000
0000
0000
0000
;

//---------------dance-single - ----------------
#NOTES:
     dance-single:
     :
     Challenge:
     15:
     0.829,1.000,0.158,0.169,0.469:
0000
0000
0000
0000
,
0000
0000
0000
0000
,
0000
0000
0000
0000
,
0000
0000
0000
0000
0000
0000
0000
0000
0000
0000
0001
1000
0001
1000
0001
1000
,
0010
0100
0001
0100
0010
1000
0100
0010
,
0002
0000
0000
0000
0000
0000
0103
0000
0010
0000
0100
0001
1000
0000
0000
0000
,
0010
1000
0100
0010
0001
1000
0010
0100
,
0002
0000
0000
0000
0000
0000
1003
0000
0100
0000
0100
0000
0010
0001
0010
0001
,
1000
0010
0100
0001
0010
0100
0010
0001
,
2000
0000
0000
0000
0000
0000
3010
0000
1000
0000
0001
1000
0010
0000
0100
0000
,
0001
0010
0100
0010
0001
1000
0010
0100
,
0002
0000
0000
0000
0000
0000
1003
0000
0100
0000
0100
0000
0010
0001
0010
0001
,
1000
0010
0100
0001
0010
0100
1000
0000
,
0101
0000
1000
0001
0010
0000
1001
0000
,
0010
0000
0000
1000
0000
0000
0001
0000
1000
0000
0010
0100
0001
0000
0000
0000
,
1100
0101
0010
2002
,
3003
0000
0000
0000
0010
1000
0010
1000
0010
0000
0000
0000
0001
1000
0001
1000
,
0001
0000
0000
0000
0100
0000
0001
0000
1000
0000
0010
0100
0001
0000
0010
0000
,
0100
0010
0001
1000
0010
0100
0001
0010
,
0200
0000
0000
1000
2000
0000
3300
0000
,
0001
0010
0100
0000
1000
0000
0001
0000
0100
0000
0000
0010
0000
0000
1000
0000
,
0001
0000
0000
0010
0000
0000
0100
0000
1100
0000
0000
0000
0101
0000
0000
0000
,
1000
0001
0100
0000
0010
0000
1000
0000
0001
0000
0000
0010
0000
0000
0100
0000
,
0010
0000
0000
0001
0000
0000
1000
0000
1100
0000
0000
0000
0101
0000
0000
0000
,
1000
0000
0001
0000
0100
0010
0100
0000
0001
0000
1000
0000
0100
0010
0100
0000
,
1000
0000
0001
0000
0010
0001
0010
0000
0001
0000
1000
0000
0010
1000
0010
0000
,
0100
0000
0001
0000
1000
0100
1000
0000
0010
0000
0100
0000
0001
1000
0001
0000
,
0100
0000
0010
0000
1000
0001
1000
0000
0010
1000
0100
0010
0001
1000
0010
0100
,
0002
0000
0000
0000
1003
0010
1000
0001
,
0010
0000
0100
0000
0010
0000
0001
0000
1000
0000
0010
0100
0001
0000
0000
0000
,
1000
0100
1000
0100
0010
0001
0010
0001
,
2000
0000
0000
0000
0000
0000
3001
0000
0100
0000
0100
0000
0010
1000
0010
0100
,
0001
0010
0100
1000
0001
0100
0010
1000
,
0002
0000
0000
0000
0000
0000
0013
0000
0100
0000
0010
0001
0010
0000
0100
0000
,
1000
0001
0100
0010
1000
0001
0010
0100
,
2000
0000
0000
0000
0000
0000
3001
0000
0100
0000
0100
0000
0010
0100
0010
1000
,
0001
0010
1000
0010
0001
1000
0010
0000
,
0100
0000
0001
1000
0100
0000
0011
0000
,
1000
0000
0000
0001
0000
0000
1000
0000
0010
0000
0100
0001
1000
0000
0000
0000
,
1100
0101
0010
2002
,
3003
0000
0000
0000
1000
0100
0010
0001
1000
0000
0000
0000
0001
0100
0010
1000
,
0001
0000
0000
0000
0100
0000
0010
0000
0100
0000
0001
0010
0100
0000
0000
0000
,
0010
0001
1000
0010
0100
0001
0010
0100
,
1000
0010
1000
0010
1000
0010
1000
0010
,
0100
0001
0100
0001
0100
0001
0100
0001
,
1000
0100
0010
0001
1000
0010
0100
0001
,
0010
1000
0010
0001
1000
0010
0100
0001
,
1000
0000
1000
0000
0010
1000
0100
0010
0001
0000
1000
0010
0100
0000
0000
0000
,
0001
0000
0001
0000
0010
0100
0010
0001
1000
0010
0100
0001
1000
0000
0000
0000
,
0001
0000
0001
0000
0010
0100
0010
0001
1000
0000
0010
1000
0001
0000
0000
0000
,
0100
0000
0100
0000
0010
1000
0100
0010
0001
0010
0100
1000
0001
0000
0100
0000
,
0001
0010
0001
0010
0100
1000
0100
1000
0010
0100
0010
0100
0001
1000
0001
1000
,
0100
0010
0100
0010
0001
0100
0001
0100
0010
1000
0010
1000
0100
0010
0100
0010
,
0001
0000
0000
0000
0000
0000
0000
0000
0000
0000
0100
0001
1000
0000
0000
0000
,
0010
1000
0001
0010
1000
0010
0001
1000
,
0010
0100
0001
1000
0100
0010
0001
0000
,
1000
0000
0000
0001
0000
0000
1000
0000
0010
0000
0100
0000
0001
0000
0010
0000
,
0100
0010
0001
1000
0010
0000
2002
0000
,
3003
0000
0000
0000
1000
0010
0001
0010
1000
0000
0000
0000
0001
0100
1000
0100
,
0001
0000
0000
0000
1000
0000
0001
0000
0100
0000
0010
1000
0001
0000
0000
0000
,
0010
0001
1000
0010
0100
0001
0010
0100
,
1000
0001
0100
0001
0100
0001
0100
0001
,
1000
0010
0100
0010
0100
0010
0100
0010
,
1000
0100
0010
0001
1000
0010
0100
0001
,
0010
1000
0010
0001
1000
0010
0100
0000
,
1001
1000
0010
1000
0100
0010
0001
1000
,
0010
0100
0001
0010
0100
0010
0001
1000
,
0010
0000
0010
0000
0100
0010
0000
0100
0010
0000
0010
0000
0100
0010
0000
0100
,
0010
1000
0100
0010
0001
0000
0000
0000
0000
0000
0000
0000
0000
0000
0000
0000
;

//---------------dance-single - ----------------
#NOTES:
     dance-single:
     :
     Easy:
     6:
     0.255,0.324,0.116,0.105,0.000:
0000
0000
0000
0000
,
0000
0000
0000
0000
,
0000
0000
0000
0000
,
0000
0000
0000
0000
,
1000
0000
0001
0000
,
0100
0000
0010
0000
,
1000
1000
0001
0001
,
0010
0000
0001
0000
,
0110
0000
1000
0000
,
0001
0000
0010
0000
,
0100
0100
1000
1000
,
0001
0000
0100
0000
,
0010
0010
1000
1000
,
0010
0010
1000
1000
,
0001
0001
1000
1000
,
0100
0100
0100
0100
,
0000
1001
0000
1001
,
0000
0010
0000
1000
,
0001
0001
0100
0100
,
0010
0000
0100
0000
,
0001
0000
0000
0000
,
0000
0000
1000
1000
,
1000
0000
0000
0000
,
0000
0000
0010
0010
,
0010
0000
1000
0000
,
0001
0000
0010
0000
,
0001
0000
1000
0000
,
0010
0000
0100
0100
,
0100
0000
0000
0000
,
0001
0010
0100
0000
,
1000
0000
0001
0000
,
0100
0100
0100
0000
,
1001
0000
0000
0000
,
1000
0100
0010
0000
,
0001
0001
1000
1000
,
0010
0000
0100
0000
,
0001
0001
1000
1000
,
0010
0000
0100
0000
,
0010
0010
1000
0000
,
0001
0000
0100
0100
,
0000
1001
0000
1001
,
0000
0100
0100
0100
,
0100
0000
1000
0000
,
0002
0000
0000
0000
,
2003
0000
0000
0000
,
3020
0000
0000
0000
,
0230
0000
0000
0000
,
0301
0000
0000
0001
0000
0000
0000
0000
,
1000
0000
0000
1000
0000
0000
0000
0000
,
0100
0000
0010
0000
,
0001
0000
0000
1000
0000
0000
0000
0000
,
0010
1000
0001
0100
,
0010
1000
0001
0100
,
0000
0000
0000
0000
,
0001
0000
1000
0000
,
0100
0000
0010
0000
,
0001
0001
1000
1000
,
0010
0100
0010
1001
,
0000
1001
0000
1001
,
0000
0010
1000
0001
,
0100
0000
0001
0000
,
2000
0000
0000
0000
,
3002
0000
0000
0000
,
0203
0000
0000
0000
,
0320
0000
0000
1030
,
2000
0000
0000
0000
,
0002
0000
0000
3003
,
0110
0000
0000
0000
,
0010
1001
0000
0000
;
