#TITLE:Flamenco;
#SUBTITLE:;
#ARTIST:Oliver;
#TITLETRANSLIT:;
#SUBTITLETRANSLIT:;
#ARTISTTRANSLIT:;
#CREDIT:;
#BANNER:Flamenco-bn.png;
#BACKGROUND:Flamenco-bg.png;
#LYRICSPATH:;
#CDTITLE:cdtitle.png;
#MUSIC:Flamenco.mp3;
#OFFSET:-0.237;
#SAMPLESTART:36.800;
#SAMPLELENGTH:18.000;
#SELECTABLE:YES;
#BPMS:0.000=105.000;
#STOPS:;
#BGCHANGES:-0.450=Flamenco.avi=1.000=0=0=0,
180.000=Flamenco-bg.png=1.000=0=0=1,
99999=-nosongbg-=1.000=0=0=0 // don't automatically add -songbackground-
;

//---------------dance-single - ----------------
#NOTES:
     dance-single:
     :
     Beginner:
     1:
     0.102,0.150,0.057,0.000,0.000: // measure 1
0000
0000
0000
0000
,  // measure 2
0000
0000
0000
0000
,  // measure 3
0000
0000
0000
0000
,  // measure 4
0000
0000
0000
0000
,  // measure 5
1001
0000
0100
0000
,  // measure 6
1000
0000
1000
0000
,  // measure 7
0001
0000
0000
0000
,  // measure 8
0100
0000
0010
0000
,  // measure 9
0110
0000
0000
0000
,  // measure 10
1000
1000
0000
0000
,  // measure 11
0100
0000
0100
0000
,  // measure 12
1000
0000
0000
0000
,  // measure 13
0001
0001
0000
0000
,  // measure 14
0100
0100
0000
0000
,  // measure 15
0001
0000
0001
0000
,  // measure 16
0010
0010
0010
0010
,  // measure 17
0010
0000
0000
0001
,  // measure 18
0001
0000
0000
1000
,  // measure 19
1000
0000
0000
0100
,  // measure 20
0100
0000
1000
0000
,  // measure 21
0010
0000
0000
0010
,  // measure 22
0010
0000
0000
1000
,  // measure 23
1000
0000
0100
0000
,  // measure 24
1000
0000
0000
0000
,  // measure 25
1001
0000
0000
0000
,  // measure 26
0100
0000
0010
0010
,  // measure 27
0000
0000
0000
0000
,  // measure 28
1000
0000
1000
0000
,  // measure 29
1000
0000
0000
0000
,  // measure 30
1001
0000
0000
0000
,  // measure 31
1001
0000
0000
0000
,  // measure 32
0100
0000
0100
0000
,  // measure 33
0100
0000
0000
0000
,  // measure 34
0001
0000
0000
0001
,  // measure 35
0001
0000
0000
1000
,  // measure 36
1000
0000
0000
0000
,  // measure 37
0010
0000
1000
0000
,  // measure 38
0110
0000
0000
0010
,  // measure 39
0010
0000
0000
0001
,  // measure 40
0001
0000
0000
0000
,  // measure 41
0100
0000
0000
0000
,  // measure 42
0010
0000
0000
0000
,  // measure 43
1000
0000
0000
0000
,  // measure 44
0100
0000
0000
0000
,  // measure 45
0010
0000
0010
0000
,  // measure 46
0010
0000
0000
0000
;

//---------------dance-single - ----------------
#NOTES:
     dance-single:
     :
     Medium:
     5:
     0.264,0.301,0.153,0.172,0.000: // measure 1
0000
0000
0000
0000
,  // measure 2
0000
0000
0000
0000
,  // measure 3
0000
0000
0000
0000
,  // measure 4
0000
0000
0000
1002
,  // measure 5
0103
0000
0010
0000
1000
0000
0001
0100
,  // measure 6
0001
0000
0010
0000
0001
0000
1000
0100
,  // measure 7
1000
0000
0001
0000
0100
0000
0010
1000
,  // measure 8
0002
0000
0100
1003
,  // measure 9
0110
1000
0001
0000
,  // measure 10
1000
0001
0200
0300
,  // measure 11
0010
1000
0001
0000
,  // measure 12
0010
0001
1000
0110
,  // measure 13
0001
1000
0010
0000
,  // measure 14
0100
0001
2000
3000
,  // measure 15
0100
1000
0001
0000
,  // measure 16
0200
0320
0230
0301
,  // measure 17
1001
0000
0000
0000
0100
1000
0010
0000
,  // measure 18
0110
0000
0000
0000
1000
0001
0100
0000
,  // measure 19
0101
0000
0000
0000
0010
0001
1000
0000
,  // measure 20
0200
0310
0020
0031
,  // measure 21
1100
0000
0000
0000
0010
1000
0001
0000
,  // measure 22
0110
0000
0000
0000
1000
0100
0010
0000
,  // measure 23
2000
0000
3100
0000
1000
0001
0100
0000
,  // measure 24
0020
0000
0000
0130
,  // measure 25
0001
0000
0010
0000
0100
1000
0100
0000
,  // measure 26
1000
0000
0001
0000
0100
0000
0000
1001
,  // measure 27
0000
0000
0010
0000
1000
0100
0001
0000
,  // measure 28
0100
0010
0010
0000
0100
0000
0001
0000
,  // measure 29
2000
0000
0000
3001
,  // measure 30
0110
0000
0000
0000
1000
0100
0010
0000
,  // measure 31
0011
0000
0000
0000
0100
0001
1000
0000
,  // measure 32
0200
0310
1000
0001
,  // measure 33
2000
0000
0000
3001
,  // measure 34
0020
0000
0130
0000
1000
0100
0010
0000
,  // measure 35
0002
0000
0103
0000
0010
0100
0001
0000
,  // measure 36
0020
0130
1000
0001
,  // measure 37
0100
0000
0010
0000
0100
0001
1000
0000
,  // measure 38
0110
0110
1001
0110
,  // measure 39
1000
0000
0001
0000
0100
0100
0100
0000
,  // measure 40
0001
0000
1000
0000
0100
0010
0001
0000
,  // measure 41
0200
0000
0000
0310
,  // measure 42
1000
0001
0100
0000
,  // measure 43
0010
1000
0001
0000
,  // measure 44
0010
1100
0001
0000
,  // measure 45
0100
0000
0000
0000
0001
0100
0100
0100
,  // measure 46
0010
0000
0000
0000
;

//---------------dance-single - ----------------
#NOTES:
     dance-single:
     :
     Hard:
     8:
     0.365,0.367,0.267,0.134,0.062:
0000
0000
0000
0000
,
0000
0000
0000
0000
,
0000
0000
0000
0000
,
0000
0000
0000
0000
0000
0000
1001
0100
,
0101
0000
1000
0100
0001
0100
1000
0000
,
0010
0000
0100
0001
1000
0000
0110
0000
,
0011
1000
1000
0000
0001
1000
0100
0000
,
0010
0001
1000
0000
0000
0010
0010
0010
,
1001
0000
0100
0001
0001
0000
0010
0000
,
0100
0000
1000
0010
0010
0000
0000
0000
,
0001
0000
1000
0100
0100
0000
1000
0000
,
0001
0000
0100
0010
0010
0000
1100
0000
,
0010
0001
1000
1000
0001
0000
0100
0000
,
0010
1000
1000
0001
0100
0000
0000
0000
,
0001
0010
0010
0001
1000
0000
0110
0000
,
2000
3200
0320
0032
,
1003
0000
0010
1000
0100
0010
0001
1000
,
1001
0000
0100
0001
1000
0100
0001
0000
,
1100
0000
0010
0001
1000
1000
0010
0000
,
0201
0000
0310
0000
1001
0100
1000
0000
,
0101
0000
1000
0100
0001
1000
0010
0000
,
0110
0000
1000
0001
0100
0010
0010
0000
,
2100
0000
3010
1000
0100
0001
1001
0000
,
0100
0000
0000
0001
0000
0000
0011
0000
0000
0000
0100
0000
0100
0000
0000
0000
,
0001
0000
1000
0000
0100
0001
1000
0000
,
0010
0100
0001
1000
1000
0100
0001
1100
,
0101
0000
1000
0000
0010
0100
0001
0000
,
0010
0001
1000
0100
0100
1000
0010
0100
,
0002
0000
0000
1003
,
0110
0000
0001
0010
0001
1000
1000
0100
,
1100
0000
0010
1000
0001
0001
0100
0000
,
0012
0000
0103
0001
1000
1000
0100
0000
,
1100
0000
0000
0001
0000
0000
0202
0000
0000
0000
0000
0000
0303
0000
0000
0000
,
1000
0000
0000
0100
0000
0000
0001
0000
0000
0100
0000
0000
1000
0000
0000
0000
,
0001
0000
0000
0010
0000
0000
1000
0000
0000
0010
0000
0000
0001
0000
0000
0000
,
1000
0000
0000
0001
0000
0000
0100
0000
0000
0001
0000
0000
1000
0000
0000
0000
,
0010
1000
0100
0010
0001
1000
0001
0000
,
0100
0000
0000
0001
0000
0000
1000
0000
0000
0010
0000
0000
0110
0000
0000
0000
,
1000
0000
0000
0001
0000
0000
0010
0000
0000
0001
0000
0000
1001
0000
0000
0000
,
0100
0010
1000
0100
0100
1000
0001
0000
,
0010
0000
0000
0100
0000
0000
1002
0000
0000
0000
0000
0000
0103
0000
0000
0000
,
1010
0000
0001
0000
0100
0001
1000
0000
,
0100
0100
1000
0100
0001
0000
1000
0000
,
0010
0100
0001
0000
0010
0001
1000
0000
,
0002
0000
0000
0000
0000
0000
0103
0010
,
2200
3300
0000
0000
;

//---------------dance-single - ----------------
#NOTES:
     dance-single:
     :
     Easy:
     3:
     0.183,0.215,0.114,0.134,0.000: // measure 1
0000
0000
0000
0000
,  // measure 2
0000
0000
0000
0000
,  // measure 3
0000
0000
0000
0000
,  // measure 4
0000
0000
0000
1000
,  // measure 5
0010
0100
0001
0000
,  // measure 6
0010
0001
1000
0000
,  // measure 7
0100
1000
0010
0000
,  // measure 8
0100
0000
0010
1000
,  // measure 9
1001
0000
0100
0000
,  // measure 10
1000
0000
0001
0000
,  // measure 11
0100
0001
1000
1000
,  // measure 12
0100
0010
0001
0000
,  // measure 13
1000
0000
0010
0000
,  // measure 14
1000
0000
0001
0000
,  // measure 15
0010
0010
0100
0000
,  // measure 16
1000
1000
0001
0001
,  // measure 17
0110
0000
1000
0100
,  // measure 18
1100
0000
0010
1000
,  // measure 19
1010
0000
0001
1000
,  // measure 20
0200
0000
0310
0000
,  // measure 21
1001
0000
0100
0001
,  // measure 22
0101
0000
1000
0001
,  // measure 23
0200
0000
0310
0000
,  // measure 24
1000
0001
0100
0000
,  // measure 25
2002
3003
0000
0000
,  // measure 26
0100
1000
0010
0010
,  // measure 27
0220
0330
0000
0000
,  // measure 28
1000
0001
0001
0000
,  // measure 29
0020
0000
0000
0130
,  // measure 30
0110
0000
0001
0100
,  // measure 31
0101
0000
1000
0001
,  // measure 32
0020
0000
0130
0000
,  // measure 33
1000
0001
0001
0000
,  // measure 34
0200
0000
0320
0000
,  // measure 35
2030
0000
3002
0000
,  // measure 36
0023
0000
0230
0000
,  // measure 37
1300
1000
1000
0000
,  // measure 38
0110
0000
0001
0001
,  // measure 39
0100
0000
0010
0000
,  // measure 40
1000
0000
0100
0100
,  // measure 41
0100
0000
0000
0000
,  // measure 42
1000
0000
0010
0000
,  // measure 43
0100
0000
0001
0000
,  // measure 44
0010
0000
0001
0000
,  // measure 45
1000
0001
0100
0010
,  // measure 46
1001
0000
0000
0000
;

//---------------dance-single - ----------------
#NOTES:
     dance-single:
     :
     Challenge:
     13:
     0.566,0.558,0.305,0.086,0.601:
0000
0000
0000
0000
,
0000
0000
0000
0000
,
0000
0000
0000
0000
,
0000
0000
0000
0000
0000
0000
1001
0100
,
0110
0000
0010
1000
0000
0100
0000
0001
0000
0000
0100
0000
1000
0000
0001
0000
,
0100
0000
0010
1000
0000
0001
0000
0010
0000
0000
0001
0000
1000
0000
0100
0000
,
1000
0000
0001
0100
0000
0010
0000
0100
0000
0000
0001
0000
0100
0000
0010
0000
,
1000
0000
0100
1000
0000
0001
0000
1000
0000
0000
0010
0000
0010
0000
0010
0100
,
0101
0000
1000
0100
0000
1000
0000
0001
0000
0000
0000
0000
0110
0000
0001
0000
,
0100
0000
0010
1000
0000
0100
0000
0001
0000
0000
0010
0001
0020
0000
0000
0000
,
0031
0000
0100
0010
0000
0100
0000
0001
0000
0000
0000
0000
1100
0000
0000
0000
,
0010
0000
1000
0100
0000
0010
0000
0001
0000
0000
0000
0000
0110
0000
0000
0000
,
0001
0000
0100
0010
0000
1000
0000
0100
0000
0000
1000
0000
1100
0000
0000
0000
,
0010
0000
1000
0100
0000
0010
0000
0001
0000
0000
0100
0010
2000
0000
0000
0000
,
3100
0000
1000
0001
0000
0100
0000
0010
0000
0000
0100
0000
0001
0000
1000
0000
,
1100
0010
0101
1000
1100
0001
0011
1000
,
0110
0000
0001
0000
1000
0100
0010
0000
0001
0000
1000
0000
0010
0100
0001
0000
,
0110
0000
1000
0000
0001
0010
1000
0000
0010
0000
0001
0000
1000
0100
0010
0000
,
1100
0000
0010
0000
1000
0001
0100
0000
0010
0000
1000
0000
0001
0010
0001
0000
,
1000
0000
0100
1000
0000
0010
0000
0100
0001
0000
0000
1000
0100
0010
0001
0000
,
1100
0000
0010
0000
1000
0100
0010
0000
0001
0000
1000
0000
0010
0100
0001
0000
,
0110
0000
1000
0000
0001
0010
1000
0000
0010
0000
0001
0000
1000
0100
1000
0000
,
0101
0000
0010
1000
0000
0100
0000
0010
0000
0010
0001
0000
1000
0000
0010
0000
,
0101
0000
0000
1100
0000
0000
0101
0000
1000
0000
0100
0000
1000
0002
0000
0000
,
0103
0000
0010
1000
0100
0000
1000
0000
0001
0100
0001
0100
0001
0000
1000
0000
,
0001
0000
0010
0100
0010
0000
0001
0000
1000
0100
0010
0001
1000
0000
0110
0000
,
0001
0000
1000
0100
1000
0000
0001
0000
0100
0010
0100
0001
1000
0000
0100
0000
,
0011
0000
1000
0100
0010
0000
0001
0000
1000
0010
0100
0001
0100
0010
1000
0100
,
0020
0000
0000
0000
0001
0000
0000
0100
0000
0000
0100
0000
0031
1000
0000
0000
,
0110
0000
0010
0000
0001
1000
0100
0000
0010
0000
0001
0000
1000
0010
0100
0000
,
1001
0000
0010
0000
0100
1000
0001
0000
0100
0000
0001
0000
0010
0100
0010
0000
,
1100
0000
0010
0000
1000
0001
0100
0000
0010
0000
1000
0000
0001
0010
0100
0000
,
1100
0000
0000
0011
0000
0000
1020
0000
0100
0000
0100
0000
0130
0001
0000
0001
,
1000
0000
0100
0010
0000
0001
1000
0000
0010
0100
0000
0001
0020
0000
0100
0000
,
0130
0000
1000
0100
0000
0010
0001
0000
1000
0010
0000
1000
0002
0000
0100
0000
,
0103
0000
0010
1000
0100
1000
0001
0000
0010
0000
0001
1000
0001
0000
0100
0000
,
0010
1000
0100
0000
1000
0001
0100
0000
0010
0000
0100
0000
0001
1000
0001
0000
,
0010
0000
0010
0100
0000
0100
1000
0000
1000
0010
0000
0010
0100
0001
1000
0000
,
0100
0000
0100
0010
0000
0010
0001
0000
0001
1000
0000
1000
0010
1000
0001
0000
,
0100
0000
0100
0010
0000
1000
0000
0001
0000
0010
0100
0000
0010
0000
0001
0000
,
0011
0000
0000
1100
0000
0000
0102
0000
0000
0000
0000
0000
1003
0200
0000
0000
,
0310
0000
0001
1000
0000
0001
0000
0100
0010
0000
0100
0000
0001
0000
0001
0000
,
0010
0000
0100
1000
0000
0100
0000
0010
0100
0000
1000
0000
0010
0000
0010
0000
,
1000
0000
0001
0100
0000
0010
0000
1000
0100
0000
0010
0000
0001
0000
1000
0000
,
0010
0000
0000
0100
0000
0001
0000
1000
0000
0000
0010
0000
0010
1000
0100
0010
,
1100
0000
0000
0000
;
