#TITLE:FINAL AUDITION;
#SUBTITLE:EPISODE 2-X;
#ARTIST:YAHPP;
#TITLETRANSLIT:;
#SUBTITLETRANSLIT:;
#ARTISTTRANSLIT:;
#CREDIT:;
#BANNER:Final Audition Episode 2-X-bn.png;
#BACKGROUND:Final Audition Episode 2-X-bg.png;
#LYRICSPATH:;
#CDTITLE:cdtitle.png;
#MUSIC:Final Audition Episode 2-X.mp3;
#OFFSET:-1.330;
#SAMPLESTART:37.984;
#SAMPLELENGTH:11.940;
#SELECTABLE:YES;
#DISPLAYBPM:170.000;
#BPMS:0.000=170.000,259.000=340.000,261.000=170.000,262.000=340.000,264.000=170.000,265.000=340.000,267.000=170.000,268.000=340.000,270.000=170.000,271.000=340.000,273.000=170.000,274.000=340.000,276.000=170.000;
#STOPS:248.000=1.059
,253.000=1.059
;
#BGCHANGES:0.000=Final Audition Episode 2-X.avi=1.000=1=0=0,
286.000=Final Audition Episode 2-X-bg.png=1.000=0=0=1,
99999=-nosongbg-=1.000=0=0=0 // don't automatically add -songbackground-
;

//---------------dance-single - ----------------
#NOTES:
     dance-single:
     :
     Beginner:
     6:
     0.258,0.412,0.058,0.374,0.010:
0000
0000
0000
0000
,
0000
0000
0000
0000
,
0000
0000
0000
0000
,
0000
0000
0000
0000
,
0000
0000
0000
0000
,
0000
0000
0000
0000
,
0000
0000
0000
0200
0000
0000
0000
0000
0000
0000
0000
0000
0000
0000
0000
0300
,
0000
1001
0000
0000
0000
0000
0000
0000
0000
0000
0000
0000
,
0000
1000
2000
0000
,
0000
3001
0002
0000
,
0000
0103
0200
0310
,
0020
1030
2000
0000
,
0000
3100
0200
0310
,
0020
0031
0002
0103
,
0200
0310
2002
0000
,
0000
0000
0000
0000
,
0000
0000
0000
0000
,
0000
0000
3003
0100
,
0100
0000
0000
0000
,
0000
0000
0000
0001
,
0001
0000
0000
0000
,
0000
0000
0000
0000
,
0020
0000
0000
0000
,
0230
0000
0000
0300
,
1001
0000
0000
0000
,
0000
0000
0000
0000
,
1000
0001
0000
0100
,
0010
1000
0000
0001
,
0010
0001
0000
0100
,
0010
1000
1000
0000
,
0100
0010
0100
1000
,
0010
0000
1000
0000
,
1001
0000
0000
0000
,
0000
0000
0000
0000
,
0100
0010
0100
0100
,
0010
0010
0100
0001
,
0010
0100
0010
0010
,
0002
0003
2000
3000
,
0010
1000
0001
0010
,
0001
1000
0010
1000
,
0200
0000
0000
0000
,
0000
0000
0020
0330
,
0001
0010
0000
0001
,
1000
0010
0000
1000
,
0001
0100
0000
0010
,
1000
0000
0001
0000
,
2000
0000
0000
0000
,
0000
0000
3020
0000
,
0230
0000
0000
0000
,
0302
0000
0000
0000
,
0013
0000
0001
0000
,
1000
0001
0100
0000
,
0010
0010
0100
0000
,
0001
0001
0010
0000
,
0002
0000
0000
0000
,
0000
0000
0203
0000
,
0320
0000
0000
0000
,
2030
0000
0000
0000
,
3100
1000
0100
0100
,
0010
0001
0010
0010
,
0002
0000
2003
0000
,
3010
0100
0010
0010
,
1001
0010
0001
1000
,
0100
0010
0001
0100
,
0010
1000
0002
0103
,
0000
0200
0310
0000
,
0020
1030
0000
2000
,
3100
0000
0200
0310
,
0000
0020
0031
0000
,
0002
0203
0320
1030
,
0202
0000
0000
0000
,
0000
0000
0303
0000
;

//---------------dance-single - ----------------
#NOTES:
     dance-single:
     :
     Medium:
     13:
     0.665,0.755,0.125,0.144,0.542:
0000
0000
0000
0000
,
0000
0000
0000
0000
,
0000
0000
0000
0000
,
0000
0000
0000
0000
,
0000
0000
0000
0000
,
0000
0000
0000
0000
,
0000
0000
0000
0200
0000
0000
0000
0000
0000
0000
0000
0000
0000
0000
0000
0300
,
0000
1001
0000
0000
0000
0000
0000
0000
0000
0000
0000
0000
,
0000
0000
0000
1000
0100
1000
0010
0000
0000
0000
0000
0000
,
0000
0000
0000
0001
1000
0001
0100
0000
0000
0000
0000
0000
,
0000
0000
0000
0010
0100
0010
1000
0000
0000
0010
1000
0010
,
0100
0000
0000
0001
0100
0001
1000
0000
0000
0000
0000
0000
,
0000
0000
0000
1000
0100
1000
0001
0000
0000
0100
0010
0100
,
0001
0000
0000
0010
0100
0010
0001
0000
0000
1000
0010
1000
,
0001
0000
0000
0100
0001
0100
0010
0000
1000
0000
0100
0000
,
0010
0000
0000
0000
0001
0000
0000
0000
1000
0000
0000
0000
0010
0000
0000
0100
0000
0000
0001
0000
0000
0000
0000
0000
,
1000
0000
0001
0000
0010
0100
0010
0001
,
1000
0010
0100
0010
1000
0001
0010
0000
,
1001
0000
1000
0010
0000
0010
0100
0000
0100
0001
0000
0001
,
0010
0000
0000
0000
0000
0000
0000
0000
0010
0000
0000
0000
0100
0000
0000
0000
0000
0000
0000
0000
0100
0000
0000
0000
1000
0000
0000
0010
0000
0000
1000
0000
0000
0010
0000
0000
1000
0000
0000
0000
0000
0000
0000
0000
0000
0000
0000
0000
,
0010
0000
0010
1000
0000
1000
0001
0000
0001
0010
0000
0010
,
0100
0000
0000
0000
0000
0000
0000
0000
0100
0000
0000
0000
0010
0000
0000
0000
0000
0000
0000
0000
0010
0000
0000
0000
0001
0000
0000
0100
0000
0000
0001
0000
0000
0100
0000
0000
0001
0000
0000
0000
0000
0000
0000
0000
0000
0000
0000
0000
,
2000
0000
0000
0000
,
0020
0000
0000
3030
,
0001
0000
0001
1000
0000
1000
0010
0000
0010
0100
0000
0100
,
0001
1000
0100
0000
1000
0010
0100
0001
,
1000
0010
1000
0001
0100
0010
1000
0001
,
0010
0100
0010
0001
1000
0010
0100
0000
,
0001
0010
0100
0010
0001
1000
0010
0100
,
0001
0000
0001
0000
1000
0000
1000
0000
0010
0100
0010
0100
0000
0010
0100
0000
,
0001
0001
0010
0100
0010
0001
1000
0010
,
0100
0100
1000
0100
0010
1000
0001
0000
,
1000
0100
1000
0000
0001
0100
0001
0000
1000
0010
1000
0000
0001
0010
0001
0000
,
1000
0001
1000
0000
0001
0100
0001
0000
2000
0000
0000
0000
3010
0000
0000
0000
,
0100
0000
0001
0000
1000
0000
0010
0000
0100
0000
0001
0010
0000
0010
0100
0000
,
0010
0001
1000
0010
0100
0001
0010
0100
,
1000
0000
0001
1000
0000
1000
0010
0000
0010
0100
0000
0100
0001
0000
1000
0000
,
0010
0100
1001
0000
0010
0100
1001
0000
,
0010
1000
0001
0001
0010
0001
1000
1000
,
0001
0100
0010
0000
0100
0000
0100
0000
0001
0010
0100
0000
0010
0000
0010
0000
,
0001
0000
1000
0000
0010
0000
0100
0000
0010
0000
1000
0000
,
0100
0000
0000
0000
0010
0000
0000
0000
0001
0000
0000
0000
2002
0000
0000
0000
0000
0000
0000
0000
0000
3003
0000
0000
,
0010
0100
1000
0100
0010
1000
0100
0010
,
0001
0100
1000
0100
0001
0010
0100
0000
,
0010
0001
1000
0010
0100
0001
0010
0100
,
1000
0001
1000
0000
0010
0000
0000
0000
0100
0001
0100
0000
0000
0000
0000
0000
,
0020
0000
1030
0000
1010
0000
1000
0010
,
0100
0001
1000
0000
1001
0000
0010
0000
,
1200
0310
0011
1000
,
0001
0100
0000
0000
0010
1000
0000
0000
0001
1000
0001
1000
0001
1000
0001
1000
,
0010
0100
0001
0010
0100
0010
0001
1000
,
0010
0100
1000
0100
0010
1000
0001
0000
,
0010
0001
1000
0010
0100
0001
0010
0100
,
1000
0100
1000
0000
0010
0000
0000
0000
0100
0001
0100
0000
0000
0000
0000
0000
,
0002
0000
0013
0000
1001
0000
0100
0010
,
1000
0001
0010
0000
1100
0000
0010
0000
,
1002
0103
1010
0001
,
0100
1000
0000
0000
0001
0100
0000
0000
0010
1000
0010
1000
0010
1000
0010
1000
,
0001
0000
0010
0000
0100
0010
0100
0000
0010
0000
0001
0000
1000
0010
1000
0000
,
0001
0000
1000
0000
0010
0100
0010
0000
0100
0000
0001
0000
0010
0100
0010
0000
,
0002
2003
3020
0230
,
0301
0000
0100
0000
0010
0000
1000
0000
0100
0000
0010
0000
0001
1000
0001
1000
,
0001
0000
1000
0010
0100
0001
0010
0100
,
1000
0001
1000
0001
1000
0000
0000
0000
0001
0000
0100
0000
0010
0000
1000
0000
,
0100
0000
0010
0000
0001
0000
1000
0000
0010
0100
0010
0100
0010
0000
0000
0000
,
0000
0000
0000
0000
1000
0100
1000
0100
1000
0000
0000
0000
0000
0000
0000
0000
,
0001
0100
0001
0100
0001
0000
0000
0000
0000
0000
0000
0000
1000
0010
1000
0010
,
1000
0000
0000
0000
0000
0000
0000
0000
0001
0010
0001
0010
0001
0000
0000
0000
,
0000
0000
0000
0000
1000
0010
1000
0010
1000
0000
0000
0000
0000
0000
0000
0000
,
0010
0100
0010
0100
0010
0100
0010
0100
0010
0100
0010
0100
0010
0100
0010
0100
,
0002
0000
0000
0000
,
0000
0000
1003
0000
;

//---------------dance-single - ----------------
#NOTES:
     dance-single:
     :
     Hard:
     17:
     0.860,1.000,0.067,0.125,1.000: // measure 1
0000
0000
0000
0000
,  // measure 2
0000
0000
0000
0000
,  // measure 3
0000
0000
0000
0000
,  // measure 4
0000
0000
0000
0000
,  // measure 5
0000
0000
0000
0000
,  // measure 6
0000
0000
0000
0000
,  // measure 7
0000
0000
0000
0200
0000
0000
0000
0000
0000
0000
0000
0000
0000
0000
0000
0300
,  // measure 8
0000
1001
0000
0000
0000
0000
0000
0000
0000
0000
0000
0000
,  // measure 9
0000
0000
0000
1000
0010
1000
0001
0000
0000
0000
0000
0000
,  // measure 10
0000
0000
0000
0100
0001
0100
0010
0000
0000
0000
0000
0000
,  // measure 11
0000
0000
0000
0100
0001
1000
0010
0000
0000
1000
0100
0010
,  // measure 12
0001
0000
0000
0100
0001
1000
0010
0000
0000
0000
0000
0000
,  // measure 13
0000
0000
0000
1000
0100
0010
0001
0000
0000
0100
0001
0010
,  // measure 14
0100
0000
0000
0010
0001
0100
0010
0000
0000
1000
0010
0100
,  // measure 15
0001
0000
0000
1000
0100
0010
0001
0000
1000
0000
0010
0000
,  // measure 16
0100
0000
0000
0000
0000
0000
0000
0000
0001
0000
0000
0000
0000
0000
0000
0000
0010
0000
0000
0000
0000
0000
0000
0000
0100
0000
0000
1000
0000
0000
0100
0000
0000
1000
0000
0000
0100
0000
0000
0000
0000
0000
0000
0000
0000
0000
0000
0000
,  // measure 17
1000
0000
0000
0001
0100
0001
1000
0000
0001
0010
0100
0000
1000
0000
0001
0100
,  // measure 18
0010
1000
0100
0010
0001
0100
0001
1000
0100
0010
0100
1000
0002
0000
0000
0000
,  // measure 19
1003
0100
1000
0001
0100
0001
1000
0010
1000
0001
0010
0001
,  // measure 20
1000
0000
0000
0000
0010
0000
0000
0000
1000
0000
0000
0000
0001
0000
0000
0000
0100
0000
0000
0000
0001
0000
0000
0000
1000
0000
0000
0100
0000
0000
0010
0000
0000
0001
0000
0000
2000
0000
0000
0000
0000
0000
0000
0000
0000
0000
0000
0000
,  // measure 21
3001
0010
0001
1000
0010
1000
0001
0100
0001
1000
0100
1000
,  // measure 22
0001
0000
0000
0000
0100
0000
0000
0000
0001
0000
0000
0000
1000
0000
0000
0000
0010
0000
0000
0000
1000
0000
0000
0000
0001
0000
0000
0010
0000
0000
0100
0000
0000
1000
0000
0000
0002
0000
0000
0000
0000
0000
0000
0000
0000
0000
0000
0000
,  // measure 23
0103
0010
1000
0100
1000
0010
0100
0001
0010
0100
1000
0001
0100
0010
1000
0001
,  // measure 24
0020
0000
0000
0130
,  // measure 25
1000
0100
1000
0001
0100
0001
1000
0010
1000
0001
0010
0001
,  // measure 26
1000
0000
0100
0000
0100
0000
0000
1000
0010
0100
0001
0000
0000
0000
1000
0100
,  // measure 27
0010
0000
0010
0000
0001
1000
0010
0000
0100
0000
0100
0000
0010
1000
0100
0000
,  // measure 28
1000
0000
1000
0000
0010
0100
1000
0000
0100
0000
0100
0000
0001
0010
0100
0000
,  // measure 29
0010
0000
0010
0000
0001
0100
0010
0000
1000
0000
1000
0000
0001
0010
1000
0000
,  // measure 30
0010
0000
0010
0000
0001
0000
1000
0000
0100
1000
0010
0100
0000
0001
1000
0000
,  // measure 31
0100
0000
0100
0000
0010
0001
0100
0000
0100
0000
0010
1000
0100
1000
0010
0100
,  // measure 32
0001
0000
1000
0100
1000
0001
1000
0000
0010
0100
0000
0100
0001
0000
1000
0000
,  // measure 33
0010
1000
0010
1000
0001
0010
0001
0010
0100
1000
0100
1000
0001
1000
0001
1000
,  // measure 34
0010
0100
0010
0100
0001
0010
0001
0010
0200
0000
0000
0000
1300
0000
0000
0000
,  // measure 35
0101
0000
0000
0000
1100
0000
0000
0000
0001
0000
1000
0100
0000
1000
0010
0000
,  // measure 36
1000
0001
0010
0100
1000
0001
0100
0010
,  // measure 37
1000
0000
0001
0010
0000
0010
0100
0000
0100
1000
0000
1000
0010
0000
0100
0000
,  // measure 38
0001
1000
0100
0000
1001
0000
0000
0000
1000
0001
0100
0000
1001
0000
0000
0000
,  // measure 39
0010
1000
0010
0000
1000
0100
1000
0000
0001
0010
0001
0000
1000
0001
1000
0000
,  // measure 40
0001
0010
0100
1000
0010
0100
0001
0010
0100
1000
0010
0100
0001
0010
0100
1000
,  // measure 41
0001
0000
0100
0000
0010
0000
1000
0000
0100
0000
0010
0000
,  // measure 42
0001
0000
1000
0000
0010
0000
0101
0000
0000
0000
0000
0000
,  // measure 43
1001
0000
0100
0000
0010
0000
1000
0000
0100
0000
0010
0000
0001
1000
0010
1000
,  // measure 44
0001
0100
0010
1000
0100
0010
0001
0000
,  // measure 45
1000
0001
0100
0010
1000
0001
0010
0100
,  // measure 46
1000
0001
1000
0000
0010
0000
1000
0100
0010
0001
1000
0000
0000
0000
0010
0000
,  // measure 47
0100
0001
1000
0100
0010
0001
1000
0010
0100
0001
0010
1000
0010
0001
1000
0010
,  // measure 48
0100
0001
0010
0100
0010
0001
1000
0010
0100
0001
0010
0100
1000
0001
1000
0010
,  // measure 49
1000
0001
0010
0100
0010
0001
1000
0010
0100
0001
0010
0100
1000
0001
0100
0010
,  // measure 50
2000
0000
0000
0000
,  // measure 51
3001
0000
0100
0000
1000
0000
0100
0000
0010
0000
1000
0000
0100
0010
0001
0010
,  // measure 52
0100
1000
0010
0100
0001
1000
0010
0000
,  // measure 53
1000
0001
0100
0010
1000
0001
0010
0100
,  // measure 54
1000
0001
1000
0000
0010
0000
1000
0100
0010
0001
1000
0000
0000
0000
0010
0000
,  // measure 55
0100
0001
1000
0100
1000
0010
0100
0001
0010
1000
0010
0001
0100
0010
1000
0100
,  // measure 56
1000
0010
0100
0010
1000
0100
0010
0001
0100
0010
1000
0100
0001
0100
1000
0010
,  // measure 57
0100
0001
1000
0100
1000
0010
0100
0001
0010
0100
1000
0001
0100
0010
1000
0001
,  // measure 58
0200
0000
0000
0000
,  // measure 59
0310
0000
0010
0000
1000
0001
0100
0000
0010
0000
0010
0000
1000
0100
0010
0000
,  // measure 60
0001
0000
0001
0000
0010
0100
1000
0000
0001
0000
0001
0000
1000
0100
0010
0000
,  // measure 61
0002
2003
3020
0230
,  // measure 62
0301
0000
1000
0000
0100
0000
0010
0000
0001
1000
0010
1000
0100
0010
0001
1000
,  // measure 63
0010
0000
0000
0000
1000
0100
1000
0100
0010
0001
0010
0001
0100
0010
0100
0010
,  // measure 64
1000
0001
1000
0001
0100
0000
0000
0000
0001
0010
0001
0010
0100
1000
0100
1000
,  // measure 65
0010
0100
0010
0100
0001
1000
0001
1000
0010
0100
0001
1000
0010
0000
0000
0000
,  // measure 66
0000
0000
0000
0000
1000
0100
0010
0001
1000
0000
0000
0000
0000
0000
0000
0000
,  // measure 67
0001
0100
0010
1000
0001
0000
0000
0000
0000
0000
0000
0000
0010
0100
1000
0001
,  // measure 68
0100
0000
0000
0000
0000
0000
0000
0000
0010
0100
0001
1000
0100
0000
0000
0000
,  // measure 69
0000
0000
0000
0000
0010
0001
1000
0010
0100
0000
0000
0000
0000
0000
0000
0000
,  // measure 70
0001
1000
0100
1000
0010
0100
0001
0010
0100
0010
0001
1000
0010
0100
0001
0010
,  // measure 71
0200
0000
0000
0000
,  // measure 72
0000
0000
0310
0000
;

//---------------dance-single - ----------------
#NOTES:
     dance-single:
     :
     Challenge:
     20:
     1.000,1.000,0.173,0.202,1.000:
0000
0000
0000
0000
,
0000
0000
0000
0000
,
0000
0000
0000
0000
,
0000
0000
0000
0000
,
0000
0000
0000
0000
,
0000
0000
0000
0000
,
0000
0000
0000
0200
0000
0000
0000
0000
0000
0000
0000
0000
0000
0000
0000
0300
,
0000
1001
0000
0000
0000
0000
0000
0000
0000
0000
0000
0000
,
0000
0000
0000
1000
0010
1000
0002
0000
0000
0000
0000
0000
,
0000
0000
0003
0010
0001
0100
0020
0000
0000
0000
0000
0000
,
0000
0000
0030
0100
0001
0010
2000
0000
0000
3010
0001
1000
,
0020
0000
0000
0130
1000
0100
0002
0000
0000
0000
0000
0000
,
0000
0000
0000
0103
0010
1000
2000
0000
0000
3100
1000
0001
,
0002
0000
0000
0103
0010
1000
2000
0000
0000
3010
0001
0010
,
0020
0000
0000
0130
0001
1000
1000
0000
0010
0000
0001
0000
,
0100
0000
0000
0000
0000
0000
0000
0000
1000
0000
0000
0000
0000
0000
0000
0000
0010
0000
0000
0000
0000
0000
0000
0000
0001
0000
0000
0100
0000
0000
0010
0000
0000
1000
0000
0000
0001
0000
0000
0000
0000
0000
0000
0000
0000
0000
0000
0000
,
1000
0000
0000
0001
0100
0010
1000
0000
0001
0010
0100
0000
1000
0000
0001
0100
,
0010
1000
0100
0010
0001
0100
1000
0100
0010
1000
0100
0010
0002
0000
0000
0000
,
1003
0100
0001
1000
0010
0001
1000
0100
0001
1000
0010
0001
,
1000
0000
0000
0000
0100
0000
0000
0000
0001
0000
0000
0000
1000
0000
0000
0000
0010
0000
0000
0000
0001
0000
0000
0000
1000
0000
0000
0010
0000
0000
0100
0000
0000
0001
0000
0000
2000
0000
0000
0000
0000
0000
0000
0000
0000
0000
0000
0000
,
3001
0010
1000
0001
0100
1000
0001
0010
1000
0001
0100
1000
,
0001
0000
0000
0000
0010
0000
0000
0000
1000
0000
0000
0000
0001
0000
0000
0000
0100
0000
0000
0000
1000
0000
0000
0000
0001
0000
0000
0100
0000
0000
0010
0000
0000
1000
0000
0000
0002
0000
0000
0000
0000
0000
0000
0000
0000
0000
0000
0000
,
0103
0010
0100
0001
1000
0100
1000
0010
0100
0001
0010
0001
0100
0001
1000
0100
1000
0010
0100
0001
0010
0001
0100
0010
,
2000
0000
0000
3001
,
0100
0010
0010
1000
0100
0100
0010
0001
0001
0100
0010
0010
,
0100
0000
0001
0000
1000
0000
0100
0010
0001
0010
0100
0000
1000
0001
0100
0010
,
1000
0000
1000
0000
1001
0100
1000
0000
0010
0000
0010
0000
0110
1000
0001
0000
,
0010
0000
0010
0000
0011
1000
0100
0000
1000
0000
1000
0000
1010
0100
0001
0000
,
0010
0000
0010
0000
0110
0001
1000
0000
0010
0000
0010
0000
1010
0100
0001
0000
,
1000
0000
1000
0000
0001
0010
0100
1000
0001
0100
0010
1000
0000
0001
0100
0000
,
1010
0000
1100
0000
1000
0010
0100
0001
0010
0100
0010
0001
1000
0100
1000
0000
,
0101
0000
1000
0010
0100
0010
1000
0000
0001
0100
0010
0100
0001
0000
1000
0000
,
0001
1000
0001
1000
0001
1000
0010
0100
0010
0100
0010
0100
0001
1000
0001
1000
0001
1000
0010
0100
0010
0100
0010
0100
,
0001
0010
0001
0010
0001
0010
0100
1000
0100
1000
0100
1000
0001
0000
0000
0000
0000
0000
0110
0000
0000
0000
0000
0000
,
1000
0000
0001
0000
0100
0000
0010
0000
1000
0000
0001
0010
0000
0100
0010
0000
,
0001
1000
0010
0100
0001
0010
0100
1000
,
0001
0000
1000
0100
0000
0010
0001
0000
1000
0010
0000
0100
0001
0000
1000
0000
,
0001
0010
0100
1000
0002
0000
0000
0000
1003
0100
0010
0001
2000
0000
0000
0000
,
3001
0100
0010
1000
0100
1000
0010
0100
0001
0010
0100
1000
0010
0100
0010
1000
,
0001
0100
1000
0100
0001
0010
0001
0010
0100
1000
0010
0001
0010
1000
0100
0010
,
0001
0000
1000
0000
0101
0000
1100
0000
0101
0000
1010
0000
,
0001
0000
1000
0000
0010
0000
0202
0000
0000
0000
0000
0303
,
1000
0000
0001
0000
0100
0000
0010
0000
1000
0000
0001
0000
0010
1000
0010
0001
,
1000
0010
0100
0001
0010
0100
1000
0001
,
0100
0000
1000
0000
0100
0000
0010
0000
1000
0000
0100
0000
0010
0000
0001
1000
,
0010
0100
0001
0000
1000
0000
0010
1000
0100
0010
0001
0000
0000
0000
1000
0000
,
0010
0100
0010
1000
0100
1000
0001
0010
0001
0100
0010
1000
0100
1000
0100
0010
0001
0010
0001
0100
0010
1000
0100
1000
,
0010
0100
0001
0010
0001
0100
0010
0100
0001
1000
0100
0010
0001
0100
0010
0100
0001
0010
0100
1000
0010
1000
0010
0100
,
0001
0010
0100
1000
0010
0100
0001
0010
0001
0010
0100
1000
0100
1000
0010
0100
0001
1000
0100
0010
0001
1000
0010
0100
,
0002
0000
0000
0000
,
0103
0000
0010
0000
0100
0000
0001
0000
1000
0010
0001
0010
1000
0000
0001
0000
,
0010
0000
0100
0000
1000
0000
0001
0000
0100
0010
1000
0100
0010
0000
0000
0000
,
0001
0000
1000
0000
0010
0000
0100
0000
0001
0010
0100
0000
1000
0000
0001
0000
,
1000
0100
0010
0000
0001
0000
1000
0010
1000
0001
0100
0000
0000
0000
0010
0000
,
1000
0100
0010
0001
1000
0010
1000
0001
0010
0001
0100
0010
1000
0100
0010
0001
0100
0010
1000
0001
1000
0100
0010
0001
,
0100
0010
1000
0100
1000
0001
0010
0001
0100
0010
1000
0100
0010
0100
0010
0001
0010
0001
0010
0100
1000
0010
0100
0001
,
1000
0010
1000
0010
0100
0010
0100
0010
1000
0100
0010
0001
0100
0010
1000
0100
1000
0010
0100
0001
1000
0010
0100
0010
,
2000
0000
0000
0000
,
3001
0010
0001
0010
0100
0010
0001
0010
0001
0010
0001
0010
0100
0010
0001
0010
,
0100
1000
0100
1000
0010
1000
0100
1000
0100
1000
0100
1000
0010
1000
0100
0010
,
0001
1000
0001
1000
0010
0100
0010
0100
0001
0010
0001
0010
0100
1000
0100
1000
,
0010
0100
0001
0010
0100
0010
0001
1000
0010
0100
0001
0010
0100
1000
0001
0100
,
1001
0000
0000
0000
0001
0010
0100
1000
0001
0010
0100
1000
0001
0010
0100
1000
,
0001
0010
0100
1000
1001
0000
0000
0000
1000
0010
0100
0001
1000
0010
0100
0001
,
1000
0000
0000
0010
0000
0000
0100
0000
0000
0001
0000
0000
1000
0000
0000
0010
0000
0000
0100
0000
0000
0001
0000
0000
1000
0000
0010
0000
0100
0000
0010
0000
1000
0000
0001
0000
0100
0000
0000
0000
0000
0000
0000
0000
0000
0000
0000
0000
,
0000
0000
0000
0000
0000
0000
0001
0010
0001
1000
0100
1000
0010
0000
0000
0000
0000
0000
0000
0000
0000
0000
0000
0000
,
0100
0010
0100
0001
0010
0100
1000
0000
0000
0000
0000
0000
0000
0000
0000
0000
0000
0000
1000
0010
1000
0010
0100
0001
,
0010
0000
0000
0000
0000
0000
0000
0000
0000
0000
0000
0000
0100
1000
0001
0100
0010
0100
0001
0000
0000
0000
0000
0000
,
0000
0000
0000
0000
0000
0000
1000
0100
0010
0001
0100
0010
1000
0000
0000
0000
0000
0000
0000
0000
0000
0000
0000
0000
,
0001
0100
0010
1000
0100
1000
0010
0100
0001
0010
0100
1000
0010
1000
0010
0100
0001
0100
0001
0010
0100
1000
0001
0100
,
0020
0000
0000
0000
,
0000
0000
1030
0000
;

//---------------dance-single - ----------------
#NOTES:
     dance-single:
     :
     Easy:
     8:
     0.414,0.549,0.384,0.298,0.010:
0000
0000
0000
0000
,
0000
0000
0000
0000
,
0000
0000
0000
0000
,
0000
0000
0000
0000
,
0000
0000
0000
0000
,
0000
0000
0000
0000
,
0000
0000
0000
0200
0000
0000
0000
0000
0000
0000
0000
0000
0000
0000
0000
0300
,
0000
1001
0000
0000
0000
0000
0000
0000
0000
0000
0000
0000
,
0000
0001
2200
0000
,
3300
0010
2002
0000
,
3003
0100
1010
0001
,
0011
0100
2002
0000
,
3003
0100
1001
0010
,
1010
0100
0011
1000
,
1100
0001
2002
0000
,
0000
0000
0000
0000
,
0000
0000
0000
0000
,
0000
0000
3003
0100
,
0012
0000
1000
0000
,
0010
0000
0103
0001
,
2010
0000
0100
0000
,
0010
0000
3001
0010
,
0220
0000
0000
0330
,
2002
0000
3003
0100
,
1020
0000
0001
0000
,
1000
0100
0100
1030
,
0001
0000
1100
0000
0010
1000
0001
0000
,
0100
0000
1001
0000
0100
0020
0000
0000
,
1030
0000
1100
0000
0001
0010
0001
2000
,
0000
0000
3001
0000
0100
0010
0000
0000
,
0101
0000
1100
0000
0001
1000
0100
0000
,
0010
0000
0000
0001
0000
0000
1000
0000
,
0220
0000
0000
0000
,
0000
0000
0330
1001
,
0100
0000
0100
0000
1000
0100
1000
0001
,
0100
0001
1000
0000
0010
0000
0100
0000
,
0001
0010
0001
0000
1000
0010
1000
0000
,
0001
1100
1000
0101
,
1000
0100
1000
0000
0001
0100
0001
0000
,
1000
0010
1000
0000
0001
0010
0001
0000
,
2002
0000
0000
0000
,
0000
0003
0020
3030
,
0100
0001
1000
0100
,
0010
0000
0010
0000
0001
1000
0000
0000
,
0010
0000
0010
0000
1000
0001
0000
0000
,
0100
0000
0100
0000
0010
1000
0000
0000
,
1001
0000
0100
0000
1000
0000
0001
0001
,
0100
0010
1010
0100
,
1001
0010
1100
0001
,
0100
0001
0100
0001
1000
0100
1000
0000
,
0002
0000
0000
0000
0000
0000
1003
0020
,
0000
0000
0130
0000
0001
2000
0000
0000
,
3100
0000
1000
0000
0010
0200
0000
0000
,
0301
0000
0001
0000
1000
0200
0000
0000
,
0310
0000
0001
0000
1100
0000
0010
1000
,
0100
0010
0001
0000
1001
0000
0000
0000
,
1010
0000
0101
0000
,
1000
0100
1000
0001
0100
0001
0000
0000
,
1000
1010
0001
0011
,
0100
0101
1000
1100
,
0001
0100
0001
1000
0001
0010
0001
1000
,
0002
0000
0103
0000
0010
0100
0001
0000
,
1100
0001
1000
0010
,
0100
0001
1000
0000
0010
0000
1000
0000
,
0001
0000
0010
0000
0100
1000
0001
0000
,
0000
0000
0100
0001
1000
0000
0000
0000
,
0010
1000
0001
0000
0000
0000
0010
0001
,
1000
0000
0000
0000
0100
1000
0001
0000
,
0000
0000
0100
0010
1000
0000
0000
0000
,
0001
0100
0010
1000
0100
0010
0001
0000
,
0202
0000
0000
0000
,
0000
0300
1003
0000
;
