#TITLE:Funky Tonight;
#SUBTITLE:;
#ARTIST:Clon;
#TITLETRANSLIT:;
#SUBTITLETRANSLIT:;
#ARTISTTRANSLIT:;
#CREDIT:;
#BANNER:Funky Tonight-banner.png;
#BACKGROUND:Funky Tonight-bg.png;
#LYRICSPATH:;
#CDTITLE:cdtitle.png;
#MUSIC:Funky Tonight.mp3;
#OFFSET:-0.081;
#SAMPLESTART:48.065;
#SAMPLELENGTH:17.920;
#SELECTABLE:YES;
#BPMS:0.000=105.050;
#STOPS:;
#BGCHANGES:-0.900=Funky Tonight.avi=1.000=1=1=0,
180.000=Funky Tonight-bg.png=1.000=0=0=1,
99999=-nosongbg-=1.000=0=0=0 // don't automatically add -songbackground-
;

//---------------dance-single - ----------------
#NOTES:
     dance-single:
     :
     Beginner:
     1:
     0.105,0.129,0.067,0.000,0.000: // measure 1
0000
0000
0000
0000
,  // measure 2
0000
0000
0000
0000
,  // measure 3
0000
0000
0000
0000
,  // measure 4
1000
0000
0000
0000
,  // measure 5
0001
0000
0000
0000
,  // measure 6
0100
0000
0100
0000
,  // measure 7
0100
0000
0100
0000
,  // measure 8
0010
0000
0010
0000
,  // measure 9
1000
0000
0001
0000
,  // measure 10
1001
0000
0100
0000
,  // measure 11
1000
0000
0001
0000
,  // measure 12
0100
0000
0001
0000
,  // measure 13
0010
0000
0000
0000
,  // measure 14
0110
0000
0000
0000
,  // measure 15
1000
0000
0000
0000
,  // measure 16
0001
0000
0000
0000
,  // measure 17
0100
0000
0010
0000
,  // measure 18
1000
1000
0000
0001
,  // measure 19
0000
0000
0000
0000
,  // measure 20
0010
0000
0010
0000
,  // measure 21
0100
0000
0000
0000
,  // measure 22
0110
0000
1000
1000
,  // measure 23
0000
0000
0001
0001
,  // measure 24
0000
0000
1000
1000
,  // measure 25
0000
0000
0001
0000
,  // measure 26
0110
0000
0010
0010
,  // measure 27
0000
0000
0100
0100
,  // measure 28
0000
0000
0010
0010
,  // measure 29
0000
0000
0100
0000
,  // measure 30
0001
0000
1000
0000
,  // measure 31
0100
0000
0100
0000
,  // measure 32
1000
0000
0000
0000
,  // measure 33
0001
0000
1000
0000
,  // measure 34
0010
0000
0000
0000
,  // measure 35
0100
0000
0000
0000
,  // measure 36
0001
0000
0000
0000
,  // measure 37
1000
0000
0001
0000
,  // measure 38
0110
0000
0000
0000
,  // measure 39
1000
0000
0000
0000
,  // measure 40
1001
0000
0000
0000
,  // measure 41
0001
0000
1000
0000
,  // measure 42
0100
0000
1000
1000
,  // measure 43
1000
0000
0001
0000
,  // measure 44
1001
0000
0000
0000
,  // measure 45
0100
0000
0100
0000
,  // measure 46
0010
0000
0000
0000
;

//---------------dance-single - ----------------
#NOTES:
     dance-single:
     :
     Medium:
     5:
     0.276,0.300,0.181,0.086,0.000: // measure 1
0000
0000
0000
0000
,  // measure 2
0000
0000
0000
0000
,  // measure 3
0000
0000
0000
0000
,  // measure 4
1000
0000
0000
0000
,  // measure 5
0001
0000
0000
0000
,  // measure 6
0100
0010
1000
0000
,  // measure 7
0100
0010
0001
0000
,  // measure 8
1000
0001
1001
1001
,  // measure 9
0100
0001
1000
0000
,  // measure 10
1010
0000
0100
0000
0001
0001
0001
0000
,  // measure 11
0100
0000
0001
0000
1000
1000
1000
0000
,  // measure 12
0100
1000
0010
0100
,  // measure 13
1001
0000
0000
0000
,  // measure 14
0100
0000
1000
0000
0100
0010
0001
0000
,  // measure 15
0010
0000
0001
0000
1000
0001
0100
0000
,  // measure 16
0010
0000
0100
0000
0010
1000
0100
0000
,  // measure 17
1000
0000
0000
0000
0001
0010
0100
1000
,  // measure 18
0010
0110
1000
0101
,  // measure 19
1000
0000
0001
0000
0010
0100
1000
0000
,  // measure 20
0010
1000
0010
0000
0100
0000
0001
0000
,  // measure 21
1000
0001
1000
0100
0010
0001
1000
0000
,  // measure 22
0110
0000
0000
0000
0001
0100
0010
0000
,  // measure 23
0110
0000
0000
0000
0010
1000
0100
0000
,  // measure 24
1100
0000
0000
0000
0100
0010
0001
0000
,  // measure 25
1000
0000
0001
0000
0100
0010
0100
0010
,  // measure 26
1000
0001
1100
0101
,  // measure 27
1000
0001
1010
0011
,  // measure 28
1000
0001
0010
0000
0001
0000
0100
0000
,  // measure 29
0010
0000
1000
0000
0100
1000
0100
1000
,  // measure 30
0002
0003
2000
3000
,  // measure 31
0020
0030
0200
0300
,  // measure 32
0002
0003
2000
3000
,  // measure 33
0200
0000
0300
0000
0010
0100
0010
0100
,  // measure 34
2000
3100
0001
1000
,  // measure 35
0010
1000
0100
0000
0010
1000
0100
0000
,  // measure 36
0002
0103
1000
0001
,  // measure 37
0010
0100
1000
0000
0100
0010
0001
0000
,  // measure 38
1001
0000
0000
0000
0100
0001
0100
0000
,  // measure 39
1001
0000
0000
0000
0100
1000
0100
0000
,  // measure 40
1001
0000
0000
0000
0010
0001
0010
0000
,  // measure 41
1001
0000
0000
0000
0010
1000
0010
0000
,  // measure 42
0100
0000
0001
0000
1000
0100
0010
0000
,  // measure 43
0001
1000
0010
0110
,  // measure 44
1001
0100
0001
0000
,  // measure 45
0000
1000
0100
0010
0001
0100
0010
1000
,  // measure 46
0001
0000
0000
0000
;

//---------------dance-single - ----------------
#NOTES:
     dance-single:
     :
     Challenge:
     13:
     0.613,0.579,0.467,0.095,0.457: // measure 1
0000
0000
0000
0000
,  // measure 2
0000
0000
0000
0000
,  // measure 3
0000
0000
0000
0000
,  // measure 4
1000
0000
1000
0100
0010
0000
0001
0000
2000
0000
0000
0000
3001
0000
0000
0000
,  // measure 5
0100
0001
0100
0001
1000
0000
0001
0000
0200
0000
0000
0000
0310
0000
1000
0000
,  // measure 6
0002
0000
0013
0100
1000
0000
0010
0100
,  // measure 7
0001
0000
1000
0100
0010
0000
0001
0100
,  // measure 8
0010
0000
0010
1000
0100
0000
0010
0000
0002
0000
0000
0000
1003
0000
0000
0000
,  // measure 9
0100
0000
1100
0000
0001
0000
0101
0000
1000
0000
0001
0100
0010
0000
0000
0000
,  // measure 10
1000
0100
0010
0001
1000
0100
0010
0001
0100
0000
0010
0000
1000
0000
0001
0000
,  // measure 11
0100
0001
1000
0010
0100
0001
1000
0010
0100
0000
0001
0000
1000
0000
0100
0000
,  // measure 12
0010
0001
1000
0100
0010
0001
1000
0100
0010
0000
0001
0000
1000
0000
0010
0000
,  // measure 13
0100
0000
0001
0000
1000
0000
0010
0000
0200
0000
0000
0000
0301
1000
0001
0000
,  // measure 14
0100
0000
0010
0000
1000
0000
0100
0000
0010
0001
0010
0100
0010
0000
0001
0100
,  // measure 15
0001
0000
0100
0000
0010
0000
1000
0000
0100
1000
0100
1000
0001
0000
0100
0010
,  // measure 16
0100
0002
0000
1003
0000
0000
0100
0010
0100
2000
0000
3001
0000
0000
0100
0001
,  // measure 17
1000
1000
0001
0001
0100
0010
0101
1000
,  // measure 18
0010
1000
0100
1000
0101
0000
0000
0000
1000
0001
0100
0001
1100
0000
0000
0000
,  // measure 19
0010
0100
0000
0100
0001
0100
0010
1000
0100
0010
0001
0000
1000
0000
0001
0000
,  // measure 20
0100
0010
1100
1000
0010
0100
0101
0100
,  // measure 21
0010
1000
0100
1000
0001
0100
0010
0100
0010
1000
0100
0010
0001
0000
0000
0000
,  // measure 22
0110
0000
0100
0001
1000
0000
0010
0000
0100
0000
0000
0100
0001
0000
1000
0000
,  // measure 23
1100
0000
0100
1000
0010
0000
0100
0000
0001
0000
0000
0001
0010
0000
0001
0000
,  // measure 24
1001
0000
0100
0010
1000
0000
0100
0000
0010
0000
0000
0010
0100
0000
1000
0000
,  // measure 25
0010
1010
0100
0101
1001
1100
1001
0110
,  // measure 26
1001
0000
0100
1000
0001
0000
0100
0000
0010
0000
0000
0010
0100
0000
0001
0000
,  // measure 27
1100
0000
1000
0010
0100
0000
0001
0000
1000
0000
0000
1000
0010
0000
0100
0000
,  // measure 28
1001
0000
0100
0010
1000
0000
0001
0000
0010
0000
0000
0010
0100
0000
1000
0000
,  // measure 29
0001
0011
1000
1010
1001
0110
0101
1100
,  // measure 30
0011
0000
1000
0000
0001
0000
0100
0000
0010
1000
0010
1000
0100
0000
1000
0000
,  // measure 31
1001
0000
1000
0000
0010
0000
0100
0000
0001
1000
0001
1000
0001
0000
1000
0000
,  // measure 32
1100
0000
0010
0000
0001
0000
1000
0000
0010
0100
0010
0100
0001
0000
0100
0000
,  // measure 33
0020
0000
0000
0000
1000
0000
0000
0000
0001
0030
0010
1000
0100
0000
0000
0000
,  // measure 34
0010
0001
0010
0001
1000
0100
1000
0100
0010
0001
1000
0010
0100
0000
0001
0000
,  // measure 35
1000
0100
1000
0100
0010
0001
0010
0001
1000
0010
0100
0001
1000
0000
0001
0000
,  // measure 36
0010
1000
0010
0001
0010
0000
1000
0000
0010
0000
0001
0000
0100
0000
0010
0000
,  // measure 37
1000
0100
0001
0100
1000
0001
0100
1000
0100
0001
1000
0100
0010
0000
0001
0000
,  // measure 38
1001
0000
0000
0000
0101
1100
0011
0000
,  // measure 39
2010
0000
3100
0010
0011
1001
1100
0000
,  // measure 40
1001
0000
0000
0000
0101
0110
1001
0000
,  // measure 41
0201
0000
0310
1000
1100
0110
1001
0100
,  // measure 42
0101
0000
0010
1000
0100
0000
0010
0000
0001
0000
0000
0001
1000
0000
0010
0000
,  // measure 43
0110
0000
0100
0010
1000
0000
0001
0000
0010
0000
0000
0010
0100
0000
1000
0000
,  // measure 44
1100
0000
0010
1000
0100
0000
0010
0000
0001
0000
0000
0001
1000
0000
0010
0000
,  // measure 45
0100
0000
0001
0100
0010
1000
0100
0010
0001
1000
0010
0100
0011
0000
0100
0001
,  // measure 46
1010
0000
0000
0000
;

//---------------dance-single - ----------------
#NOTES:
     dance-single:
     :
     Hard:
     10:
     0.422,0.429,0.257,0.067,0.043: // measure 1
0000
0000
0000
0000
,  // measure 2
0000
0000
0000
0000
,  // measure 3
0000
0000
0000
0000
,  // measure 4
1000
0000
0001
0000
,  // measure 5
0100
0000
0001
0000
,  // measure 6
1010
0100
0001
1000
,  // measure 7
0011
0100
1000
0001
,  // measure 8
0110
1000
0001
0010
,  // measure 9
1000
0001
1000
0001
0100
0010
1000
0000
,  // measure 10
0101
0000
0100
0001
1000
0001
0100
0000
,  // measure 11
0010
0000
1000
0100
0010
0100
1000
0000
,  // measure 12
1001
0000
0100
0001
1000
0010
0100
0000
,  // measure 13
0011
0100
1000
0001
0200
0000
0310
0000
,  // measure 14
1000
0100
0010
0001
1000
0100
0010
0001
,  // measure 15
0100
0010
0100
0010
1000
0001
1000
0001
,  // measure 16
0100
0010
1000
0001
0100
0010
1000
0001
,  // measure 17
0010
0100
0010
0100
1000
0001
1000
0001
,  // measure 18
0100
0100
1001
0000
0010
0010
1001
0000
,  // measure 19
0100
0001
1000
0010
0100
0001
1000
0010
,  // measure 20
0100
0001
0100
0001
1000
0100
1000
0100
,  // measure 21
0010
0001
0010
0001
1000
0010
1000
0000
,  // measure 22
0101
0000
1000
0000
0100
0000
0010
0000
0001
0000
0000
0001
1000
0000
0010
0000
,  // measure 23
0100
0000
0001
0000
1000
0000
0100
0000
0010
0000
0000
0010
0100
0000
1000
0000
,  // measure 24
0010
0000
0100
0000
0001
0000
0100
0000
0010
0000
0000
0010
1000
0000
0100
0000
,  // measure 25
0000
1000
1000
0001
0001
0100
0010
1001
,  // measure 26
0000
0000
0100
0000
0001
0000
1000
0000
0010
0000
0000
0010
1000
0000
0100
0000
,  // measure 27
0010
0000
0001
0000
1000
0000
0010
0000
0100
0000
0000
0100
0001
0000
0010
0000
,  // measure 28
0001
0000
1000
0000
0010
0000
0100
0000
0001
0000
0000
0001
0010
0000
0100
0000
,  // measure 29
0000
1000
1000
0001
0001
0100
0010
1001
,  // measure 30
0200
0310
2000
3100
,  // measure 31
0010
0001
0010
0001
1000
0100
1000
0000
,  // measure 32
0002
0103
2000
3010
,  // measure 33
0001
1000
0001
0100
0010
0100
1001
0000
,  // measure 34
0010
1000
0100
0010
0001
0100
0010
1000
,  // measure 35
0100
1000
0001
1000
0010
1000
0100
0010
,  // measure 36
0001
0100
0001
1000
0001
0010
0100
1000
,  // measure 37
0010
0100
0010
1000
0100
0010
0001
0000
,  // measure 38
2100
0000
3010
0000
1010
1001
0101
0000
,  // measure 39
0102
0000
1003
0000
0101
0110
1010
0000
,  // measure 40
0001
1000
0100
1000
0001
0100
0010
0000
,  // measure 41
1100
0000
1001
0000
0110
1001
0110
0000
,  // measure 42
1001
0000
0100
0000
1000
0000
0010
0000
0100
0000
0000
0100
0001
0000
0010
0000
,  // measure 43
0001
0000
1000
0000
0010
0000
0100
0000
0010
0000
0000
0010
1000
0000
0100
0000
,  // measure 44
1000
0000
0010
0000
0100
0000
0001
0000
1000
0000
0000
1000
0100
0000
0010
0000
,  // measure 45
0000
0001
0001
1000
1000
0010
0100
0010
,  // measure 46
1100
0000
0000
0000
;

//---------------dance-single - ----------------
#NOTES:
     dance-single:
     :
     Easy:
     3:
     0.169,0.214,0.143,0.133,0.000: // measure 1
0000
0000
0000
0000
,  // measure 2
0000
0000
0000
0000
,  // measure 3
0000
0000
0000
0000
,  // measure 4
0100
0000
0000
0000
,  // measure 5
0100
0000
0000
0000
,  // measure 6
1001
0000
0100
0000
,  // measure 7
1000
0000
0001
0000
,  // measure 8
0100
0000
0010
0000
,  // measure 9
0110
0000
1000
0000
,  // measure 10
1001
0000
0100
0000
,  // measure 11
0010
0001
0010
0001
,  // measure 12
1000
0000
0010
0000
,  // measure 13
0100
0000
0000
0000
,  // measure 14
1001
0000
0100
0000
,  // measure 15
1000
0100
0010
0000
,  // measure 16
0001
0000
1000
0000
,  // measure 17
0010
0000
0100
0001
,  // measure 18
0010
1001
0010
1001
,  // measure 19
0100
0000
0001
0000
,  // measure 20
1000
0000
0010
0000
,  // measure 21
0100
0100
0100
0000
,  // measure 22
1001
0000
0020
1030
,  // measure 23
0000
0000
0200
0301
,  // measure 24
0000
0000
0002
0013
,  // measure 25
0000
1000
0001
1000
,  // measure 26
0110
0000
2000
3100
,  // measure 27
0000
0000
0002
1003
,  // measure 28
0000
0000
0020
0130
,  // measure 29
0001
1000
0001
0100
,  // measure 30
0110
0000
1000
0000
,  // measure 31
0100
0000
0010
0000
,  // measure 32
0002
0000
0000
0003
,  // measure 33
2000
0000
0000
3000
,  // measure 34
0010
0010
0010
0000
,  // measure 35
2000
3000
0200
0300
,  // measure 36
0020
0000
0000
0030
,  // measure 37
0001
0000
1000
0000
,  // measure 38
0110
0000
1000
1000
,  // measure 39
0000
0000
0001
0001
,  // measure 40
0000
0000
0100
0100
,  // measure 41
0000
0000
0010
0010
,  // measure 42
0110
0000
2000
3100
,  // measure 43
0000
0000
0002
1003
,  // measure 44
0000
0000
0200
0310
,  // measure 45
0000
0110
1001
0110
,  // measure 46
0110
0000
0000
0000
;
