#TITLE:Fly;
#SUBTITLE:;
#ARTIST:Epik High;
#TITLETRANSLIT:;
#SUBTITLETRANSLIT:;
#ARTISTTRANSLIT:;
#CREDIT:;
#BANNER:Fly-banner.png;
#BACKGROUND:Fly-bg.png;
#LYRICSPATH:;
#CDTITLE:cdtitle.png;
#MUSIC:Fly.mp3;
#OFFSET:-0.090;
#SAMPLESTART:46.926;
#SAMPLELENGTH:18.000;
#SELECTABLE:YES;
#BPMS:0.000=128.000;
#STOPS:;
#BGCHANGES:-0.500=Fly.avi=1.000=0=0=0,
99999=-nosongbg-=1.000=0=0=0 // don't automatically add -songbackground-
;

//---------------dance-single - ----------------
#NOTES:
     dance-single:
     :
     Beginner:
     3:
     0.136,0.157,0.040,0.000,0.000:
0000
0000
0000
0000
,
1001
0000
0000
0000
,
0100
0000
0010
0000
,
0010
0000
0000
0000
,
1000
0000
0001
0001
,
0001
0000
0000
0000
,
1000
0000
0100
0000
,
0100
0000
0000
0000
,
1000
0000
0010
0000
,
0100
0100
0000
0000
,
0001
0000
1000
0000
,
0010
0000
0000
0000
,
1000
0000
0001
0001
,
0001
0000
0000
0000
,
0100
0000
0000
0000
,
0001
0000
1000
0000
,
0100
0000
1000
0000
,
0010
0010
0010
0000
,
0100
0100
0100
0000
,
0001
0000
0000
0000
,
1000
0000
0100
0000
,
1001
0000
0000
0000
,
0010
0000
0000
0000
,
1000
0000
0001
0000
,
0100
0000
0001
0000
,
1001
0000
0000
0000
,
0010
0000
0000
0000
,
1000
1000
1000
1000
,
1000
0000
0000
0000
,
0110
0000
0000
0000
,
1000
0000
0000
0000
,
0001
0000
0000
0000
,
0100
0000
0000
0000
,
0010
0000
0000
0000
,
1000
0000
0000
0000
,
0001
0000
0000
0000
,
0010
0000
0000
0000
,
0100
0000
1000
0000
,
0010
0010
0000
0000
,
1000
0000
0001
0000
,
0100
0100
0100
0100
,
0100
0000
0000
0000
,
0001
0001
0000
0000
,
1000
0000
0001
0000
,
0010
0010
0010
0010
,
0000
0001
0000
0001
,
0000
1000
0000
1000
,
0000
0000
0100
0100
,
0000
0000
1000
0000
,
0000
0010
0000
0010
,
0000
0010
0000
0000
,
1000
0000
0001
0000
,
0100
0100
0100
1000
;

//---------------dance-single - ----------------
#NOTES:
     dance-single:
     :
     Medium:
     7:
     0.369,0.340,0.248,0.347,0.000:
0000
0000
0000
0000
,
1000
0100
0000
0001
,
0100
0000
0000
0000
0001
1000
0100
0000
,
1000
0010
0000
0001
,
0010
0000
0000
0000
1000
0001
0010
0000
,
1100
0010
1000
0001
,
0100
0000
0100
0000
0010
0100
0001
0000
,
1000
1100
0010
0101
,
1000
0001
0110
1001
,
0110
0000
1000
0000
0100
1000
0001
0000
,
0100
0000
0010
0000
0100
0001
0100
0001
,
1000
0010
1000
0001
,
0010
0000
0010
0100
1000
0000
0001
0000
,
0220
0000
0330
0000
1000
0001
1000
0000
,
0010
0000
0100
0000
0001
0100
0010
0000
,
1000
0000
0001
1000
0100
0000
1000
0000
,
0010
0100
0002
1003
,
0010
0000
1000
0100
0010
0000
0001
0000
,
0100
0100
0100
0100
0100
0000
0000
0000
,
1001
1001
0010
1000
,
0001
1000
0100
0000
0010
0000
0001
0000
,
2200
0000
3300
0000
0000
0000
0010
1000
,
0010
1000
0001
0000
,
0200
0302
2003
3020
,
0230
0000
0300
0000
0001
1000
0010
0000
,
2002
0000
3003
0000
0000
0000
0100
0001
,
0100
0010
1000
0001
,
0020
0230
2300
3002
,
0203
0000
0300
0000
0010
0100
0001
0000
,
2000
0000
0000
3100
,
0002
0000
0000
0103
,
2000
0000
0000
3010
,
0002
0000
0000
0013
,
1000
1100
0000
1100
,
0001
0101
0000
0101
,
0010
0110
0000
0110
,
1000
2000
0000
3000
,
0100
0100
0010
0010
,
0001
1000
0001
0000
0100
0000
0020
0000
,
2030
0000
0100
3100
,
2000
3200
0320
0032
,
1003
0010
0100
0001
,
1000
0100
1000
0000
0010
0000
2000
0000
,
3002
0000
0000
0003
0100
0000
0010
0000
,
0200
0302
2003
3200
,
0310
0001
1000
0010
,
0100
0001
1000
1000
,
1100
0101
1100
0011
,
1000
0000
0001
0000
0100
0010
1000
0000
,
0002
0000
1003
0010
,
0100
0001
1000
0100
,
0011
0011
1100
0011
,
0100
1000
0010
0001
;

//---------------dance-single - ----------------
#NOTES:
     dance-single:
     :
     Challenge:
     13:
     0.664,0.654,0.407,0.199,0.313: // measure 1
0000
0000
0000
0000
,  // measure 2
1000
0000
0001
0000
1000
0000
0010
0000
0100
0001
0100
0000
0010
0000
1000
0000
,  // measure 3
0002
0000
0000
0000
1003
0000
0100
0010
0000
0010
0100
0000
1000
0000
0000
0000
,  // measure 4
0001
0000
1000
0000
0010
0000
0100
0000
0001
1000
0001
0000
0100
0000
0010
0000
,  // measure 5
1000
0100
0010
0001
2000
0000
3001
0000
,  // measure 6
0110
0000
1000
0000
0001
0000
0100
0000
0000
0000
0010
1000
0010
0000
1000
0100
,  // measure 7
1000
0000
0001
0000
0100
0010
0100
0010
0100
0000
0001
0000
1000
0000
0000
0000
,  // measure 8
0010
0000
1000
0000
0001
1000
0100
1000
0010
0000
0100
0000
0001
0000
1000
0000
,  // measure 9
0010
1000
0100
1000
0010
0100
0001
0010
,  // measure 10
0010
0000
0100
0010
0100
0000
1000
0001
1000
0001
1000
0000
0110
0000
0000
0000
,  // measure 11
1000
0000
0010
1000
0000
0100
1000
0000
0010
0000
0100
0000
0001
0000
1000
0000
,  // measure 12
1001
0000
0100
1000
0100
1000
0010
0000
0100
0001
1000
0000
0011
0000
0000
0000
,  // measure 13
0100
0000
0100
0010
1000
0000
1000
0001
0020
0000
0000
0000
0130
0000
0000
0000
,  // measure 14
1001
0000
0000
0000
0100
0001
0100
0001
1000
0000
0100
1000
0100
0000
1000
0000
,  // measure 15
0010
0000
0100
0001
0100
0001
0100
0000
0001
1000
0001
1000
0100
0000
0010
0000
,  // measure 16
0001
0000
0000
0000
1000
0000
1000
0100
0010
0000
0010
0001
0100
0000
0100
0000
,  // measure 17
0010
1000
0100
1000
0001
0000
0100
0000
0010
0000
1000
0000
0100
0000
0010
0000
,  // measure 18
0011
0000
0101
1001
1010
0000
0100
0000
,  // measure 19
0101
0110
1100
0110
0102
0000
1003
0000
,  // measure 20
0100
1000
0100
1000
0010
0000
0100
0001
1000
0000
0100
1000
0001
0000
0100
0000
,  // measure 21
0010
1000
0100
1000
0002
0000
1003
0000
,  // measure 22
0220
0000
0000
0000
0330
0000
1000
0100
1000
0001
0100
0000
0010
0000
1000
0000
,  // measure 23
0001
0000
1000
0000
0010
0000
0100
0001
0000
0001
1000
0000
0100
0000
0000
0000
,  // measure 24
1100
0100
0110
0010
0011
0001
1001
1000
,  // measure 25
1010
0000
0100
0001
1000
0010
0100
0000
,  // measure 26
0022
0000
0000
0000
0033
0000
0001
0010
0001
1000
0010
0000
0100
0000
0001
0000
,  // measure 27
1000
0000
0001
0000
0100
0000
0010
1000
0000
1000
0001
0000
0010
0000
0000
0000
,  // measure 28
0011
0010
0110
0100
1100
1000
1001
0001
,  // measure 29
0101
0000
0010
1000
0001
0100
0010
0000
,  // measure 30
0100
1000
0100
0010
0100
0001
0100
0010
,  // measure 31
1000
0100
1000
0010
1000
0001
1000
0100
,  // measure 32
0010
1000
0010
0100
0010
0001
0010
0100
,  // measure 33
1000
0001
0100
1000
0001
0010
1000
0000
,  // measure 34
0001
1000
0100
0010
1000
0010
0100
1000
,  // measure 35
0010
0100
0001
0010
1000
0001
0100
0001
,  // measure 36
1000
0010
0001
0100
0010
1000
0001
0100
,  // measure 37
1000
0100
0010
1000
0100
1000
0001
0000
,  // measure 38
0220
0000
0000
0000
0330
0000
0000
0000
0000
0000
1000
0100
1000
0010
1000
0001
,  // measure 39
1000
0010
0200
0000
0301
1000
1100
0000
,  // measure 40
0011
0000
0100
1001
0100
1001
0100
1001
,  // measure 41
0010
0000
0000
0010
0100
0000
0000
0100
1000
0000
0000
1000
0010
0000
0000
0000
,  // measure 42
2002
0000
0000
0000
3003
0000
0000
0000
0000
0000
0001
0100
0001
0010
0001
1000
,  // measure 43
0001
0100
0010
0000
1000
0100
0011
0000
,  // measure 44
1100
1001
0000
0101
0000
1001
0000
1010
,  // measure 45
0100
0000
0000
0100
0001
0000
0000
0001
1000
0000
0000
1000
0100
0000
0000
0000
,  // measure 46
1001
0000
0100
0010
0100
0000
0001
0000
1000
0000
0100
0010
0100
0000
1000
0000
,  // measure 47
0001
0000
0100
0010
0100
0000
0001
0000
1000
0000
0100
0000
0020
0000
0000
0000
,  // measure 48
0032
0000
1000
0000
0100
1000
0013
0000
,  // measure 49
0100
0000
0010
0000
0100
0000
0001
1000
0001
1000
0001
0000
0010
0000
0000
0000
,  // measure 50
0110
0000
1000
0001
1000
0000
0001
0000
0100
0000
0001
1000
0001
0000
1000
0000
,  // measure 51
0100
0000
1000
0001
1000
0000
0010
0000
0100
0000
0001
0000
2000
0000
0000
0000
,  // measure 52
3020
0000
0100
0000
0001
0100
2030
0000
,  // measure 53
0100
0001
3020
0031
;

//---------------dance-single - ----------------
#NOTES:
     dance-single:
     :
     Hard:
     9:
     0.464,0.445,0.447,0.367,0.000:
0000
0000
0000
0000
,
1000
0100
1000
0010
0100
0000
0001
0000
,
2000
0000
3000
0000
0001
0010
0100
0000
,
1100
0101
2000
3001
,
0010
1000
0001
0100
0020
0000
2030
0000
,
3001
0010
0010
0001
0000
0100
0010
0100
,
0001
0000
1000
0000
0100
1000
0010
0000
,
0000
0100
0100
0001
1000
0100
1000
0000
,
0001
1000
0100
0000
1000
0001
0100
0000
,
1001
1001
1001
0000
0010
1000
0001
1000
,
0010
0100
0001
0100
0020
0000
2030
0000
,
3200
0000
0310
1001
,
0010
0000
0100
0000
0001
1000
0100
0000
,
2002
0000
3003
0000
0010
1000
0001
0000
,
0100
0010
0100
0100
0001
0100
0010
0000
,
2000
0000
3000
0000
0001
0010
0100
0000
,
1000
0001
0100
0000
1010
0000
1001
0000
,
0120
0000
1030
0100
0002
0000
1003
0000
,
0010
1000
0100
1000
0002
0000
0013
0000
,
1100
0101
0010
1001
,
0010
1000
0100
0010
0002
0000
1003
0000
,
0220
0000
0330
0000
1000
0100
0010
0001
,
0100
0000
0010
0000
0100
0001
1000
0000
,
0020
1030
0200
0310
,
0002
0000
1003
0000
0010
1000
0001
0000
,
0220
0000
0330
0000
0001
0010
0100
1000
,
0001
0000
0100
0000
0010
0100
0001
0000
,
1100
0101
0011
1010
,
0200
0000
0000
0000
0301
1000
0010
0100
,
0001
0000
0000
1000
0000
0000
0110
0000
,
1000
0000
0000
0001
0000
0000
0110
0000
,
0001
0000
1000
0100
0000
0001
0100
0000
,
1000
0000
0001
0010
0000
1000
0010
0000
,
0200
0000
0001
0000
0000
0000
0301
2000
,
0000
0100
0000
3100
,
0020
0000
0100
0000
0000
0000
0130
0002
,
0000
1000
0000
1003
,
0220
0000
0330
0000
0000
1000
0100
1000
,
0001
0010
0001
0000
1000
0010
1000
0000
,
0101
1100
0101
0011
,
1010
0011
1010
0101
,
2002
0000
3003
0000
0000
0010
1000
0100
,
0010
0001
1000
0000
0010
1000
0001
0000
,
1100
0011
0101
1001
,
1010
1001
0110
1001
,
0100
0001
1000
0010
0000
1000
0100
1000
,
0000
0002
0000
2003
0000
3200
0000
0300
,
0011
0000
1100
0000
0010
0001
1100
0000
,
0020
0030
1000
0001
,
1000
0010
0100
0010
0000
1000
0001
0100
,
0000
0020
0000
2030
0000
3002
0000
0003
,
1100
0000
0011
0000
1000
0100
0011
0000
,
1000
0100
0001
0010
;

//---------------dance-single - ----------------
#NOTES:
     dance-single:
     :
     Easy:
     4:
     0.230,0.314,0.089,0.189,0.000:
0000
0000
0000
0000
,
1000
0000
0001
0010
,
0001
0000
0100
0010
,
1000
0000
0100
1000
,
0100
0000
2000
0000
,
3001
0000
0100
0000
,
0010
1000
0001
0000
,
0010
0000
0100
0000
,
1000
1000
0001
0001
,
0100
0000
0010
0000
,
0100
0001
1000
0000
,
0010
0000
1000
0000
,
0100
0000
0110
0110
,
2002
0000
0000
3003
,
0100
0001
1000
1000
,
0010
0000
1000
0000
,
0001
0001
1000
0000
,
0010
1000
0001
0000
,
0100
0100
0100
0000
,
0001
0000
1000
0000
,
0100
0100
0010
0000
,
2002
0000
0000
3003
,
0010
1000
0001
0000
,
1000
0010
0100
0010
,
1000
0000
0100
0000
,
2002
0000
0000
3003
,
0100
0001
1000
0000
,
0010
1000
0010
0100
,
0010
0000
0000
0000
,
1000
0000
0001
0000
,
0100
0000
0010
0000
,
1000
0000
0100
0000
,
0010
0000
0001
0000
,
0200
0000
0000
0300
,
0002
0000
0000
0003
,
2000
0000
0000
3000
,
0020
0000
0000
0030
,
1000
0100
1000
0010
,
0100
0100
0000
0001
,
0001
0000
0000
0000
,
0100
0010
0100
0010
,
1000
0000
0001
0001
,
0010
0010
0100
1000
,
0010
0000
0100
0001
,
1000
1000
1000
1000
,
0000
0110
0000
0110
,
0000
1000
0001
0100
,
0020
2030
3020
2030
,
3000
0000
0100
0100
,
0000
0110
0000
1001
,
0000
0100
0001
1000
,
0020
0230
0320
0230
,
0301
0100
1000
0010
;
