#TITLE:FFF;
#SUBTITLE:(Flew Far Faster);
#ARTIST:DOIN;
#TITLETRANSLIT:;
#SUBTITLETRANSLIT:;
#ARTISTTRANSLIT:;
#CREDIT:;
#BANNER:FFF-bn.png;
#BACKGROUND:FFF-bg.png;
#LYRICSPATH:;
#CDTITLE:cdtitle.png;
#MUSIC:FFF.mp3;
#OFFSET:-0.170;
#SAMPLESTART:9.724;
#SAMPLELENGTH:11.920;
#SELECTABLE:YES;
#DISPLAYBPM:100.000:200.000;
#BPMS:0.000=200.000,64.000=100.000,98.000=200.000,158.000=100.000,178.000=200.000,274.000=100.000,288.000=50.000;
#STOPS:;
#BGCHANGES:-0.500=FFF.avi=1.000=1=1=0,
99999=-nosongbg-=1.000=0=0=0 // don't automatically add -songbackground-
;

//---------------dance-single - ----------------
#NOTES:
     dance-single:
     :
     Beginner:
     3:
     0.194,0.229,0.018,0.000,0.000:
0000
0000
0000
0000
,
0000
0000
0000
0000
,
0000
0000
0000
0000
,
0000
0000
0000
0000
,
0010
0000
0000
0000
,
0000
0000
0000
0000
,
0100
0000
0000
0000
,
0000
0000
0000
0000
,
0001
0001
0000
0000
,
1000
1000
0000
0000
,
0010
0010
0000
0000
,
1000
1000
0000
0000
,
0100
0100
0000
0000
,
0010
0010
0000
0000
,
0001
0001
0000
0000
,
0100
0100
0000
0000
,
1001
0000
0000
0000
,
0010
0000
0010
0000
,
1000
0000
1000
0000
,
0001
0001
0001
0000
,
0100
0000
0100
0000
,
0001
0000
0001
0000
,
1000
0000
1000
0000
,
0010
0010
0010
0010
,
0010
0000
1000
0000
,
0000
0000
0100
0000
,
0100
0000
0010
0000
,
0010
0000
0001
0000
,
1000
0000
0010
0000
,
0010
0000
0100
0000
,
0001
0000
1000
0000
,
1000
0000
0100
0100
,
0000
0000
0010
0010
,
0000
0000
0001
0001
,
0000
0000
1000
1000
,
0000
0000
0010
0010
,
0000
0000
1000
1000
,
0000
0000
0001
0001
,
0000
0000
0100
0100
,
0000
0000
1001
0000
,
0000
0000
0010
0000
,
0000
0000
1000
0000
,
0000
0000
0001
0000
,
0000
0000
0000
0000
,
0000
0000
0010
0010
,
0010
0000
0001
0001
,
0001
0000
1000
1000
,
1000
0000
0010
0010
,
0010
0000
1000
1000
,
1000
0000
0001
0001
,
0001
0000
0010
0010
,
0010
0000
0100
0100
,
0100
0000
1000
1000
,
1000
0000
0001
0001
,
0001
0000
0100
0100
,
0100
0000
0010
0010
,
0010
0000
1000
1000
,
1000
0000
0001
0001
,
0001
0000
1000
1000
,
1000
0000
0100
0100
,
0100
0000
0010
0010
,
0000
0010
0000
0001
,
0000
0001
0000
1000
,
0000
1000
0000
0010
,
0000
0010
0010
0010
,
0000
1000
0000
0001
,
0000
0100
0100
0100
,
0000
0001
0000
1000
,
0000
0100
0100
0000
,
0010
0000
0001
0001
,
1000
1000
0010
0000
,
0100
0000
0001
0000
,
1000
0000
0000
0000
;

//---------------dance-single - ----------------
#NOTES:
     dance-single:
     :
     Medium:
     13:
     0.620,0.756,0.228,0.082,0.073: // measure 1
0000
0000
0000
0000
,  // measure 2
0000
0000
0000
0000
,  // measure 3
0000
0000
0000
0000
,  // measure 4
0000
0000
0000
0000
,  // measure 5
1000
0000
0000
0001
0000
0000
0100
0000
,  // measure 6
0000
0010
0000
0000
0100
0000
0100
0000
,  // measure 7
0100
0000
0000
0001
0000
0000
0010
0000
,  // measure 8
0000
0100
0000
0000
1000
0000
1000
0000
,  // measure 9
0010
1000
0001
0000
0200
0000
0310
0000
,  // measure 10
0100
0001
0010
0000
0200
0000
1300
0000
,  // measure 11
0010
1000
0001
0000
0200
0000
0301
0000
,  // measure 12
0010
0001
1000
0000
0020
0000
1030
0000
,  // measure 13
0001
0010
0100
0000
1000
0010
0100
0001
,  // measure 14
1000
0100
1000
0000
0010
1000
0100
0010
,  // measure 15
0001
0100
0001
0000
0010
0001
0100
0010
,  // measure 16
1000
0001
0010
0200
0000
0000
0000
0000
,  // measure 17
0310
0000
0000
0000
1001
0000
0000
0010
1000
0000
0100
0000
1000
0000
0000
0000
,  // measure 18
0010
0000
0000
0000
1001
0000
0000
0100
0001
0000
0010
0000
0001
0000
0000
0000
,  // measure 19
0100
0010
1000
1000
0001
0010
0100
0100
,  // measure 20
1000
0010
1000
0001
0100
0001
1000
0000
,  // measure 21
0001
0010
0100
0000
1000
0000
0000
0000
0100
0000
0100
0000
0110
0000
0000
0000
,  // measure 22
1000
0100
0010
0000
0001
0000
0000
0000
0100
0000
0100
0000
0110
0000
0000
0000
,  // measure 23
0001
1000
0010
0010
1000
0001
0010
0000
,  // measure 24
0100
1000
0100
0000
1000
0000
1000
0000
0001
0000
0001
0000
0100
0010
0100
0000
,  // measure 25
0001
0010
0100
1000
0001
0100
0010
1000
,  // measure 26
0100
0010
0001
0000
1100
0000
0101
0000
,  // measure 27
1000
0001
0100
0000
1010
0000
0011
0000
,  // measure 28
1000
0001
0010
0000
0100
0010
0100
0010
,  // measure 29
0001
0010
0100
0000
1000
0100
1000
0100
,  // measure 30
0010
0100
1000
0000
0001
1000
0010
0000
,  // measure 31
0100
0000
0001
0000
1000
0010
0100
0001
,  // measure 32
1000
0000
1100
0000
0010
1000
0100
0010
,  // measure 33
0001
1000
0101
0000
1000
0001
0100
0010
,  // measure 34
1000
0001
1100
0000
0010
0001
1000
0010
,  // measure 35
0100
0001
0110
0000
0001
0010
0100
1000
,  // measure 36
0010
0100
1001
0000
0010
1000
0100
0010
,  // measure 37
0001
0100
0001
0100
0010
0100
0001
0010
,  // measure 38
0100
1000
0100
1000
0010
0100
0001
0010
,  // measure 39
0100
1000
0100
1000
0010
1000
0001
0200
,  // measure 40
0000
0000
0310
0010
,  // measure 41
0010
0010
1000
1000
,  // measure 42
1000
1000
0001
0001
,  // measure 43
0001
0001
0100
0000
,  // measure 44
0000
0000
0000
0000
,  // measure 45
0000
0000
0000
0000
0001
0010
0001
0100
,  // measure 46
0010
1000
0001
0010
0100
1000
0100
0010
,  // measure 47
0001
0100
0010
1000
0001
0010
0001
0100
,  // measure 48
0010
1000
0001
0010
0100
0010
0100
0010
,  // measure 49
0001
0100
0010
1000
0001
0010
0001
0100
,  // measure 50
0010
1000
0100
0010
0001
1000
0001
0100
,  // measure 51
0010
1000
0100
0010
0100
1000
0100
0010
,  // measure 52
0001
0100
0010
1000
0001
0010
0001
0100
,  // measure 53
0010
1000
0001
0010
0100
0100
1000
0010
,  // measure 54
0100
0001
0010
0100
1000
1000
0010
1000
,  // measure 55
0001
0010
0100
1000
0001
0001
0100
0010
,  // measure 56
0100
0001
0010
0100
0010
0010
0001
0100
,  // measure 57
0010
1000
0001
0010
0100
0100
1000
0010
,  // measure 58
0100
0001
0010
0100
1000
1000
0010
1000
,  // measure 59
0001
0010
0100
1000
0010
0010
1000
0001
,  // measure 60
0010
0100
1000
0001
0100
0100
0001
0010
,  // measure 61
0100
1000
0010
0100
0001
1000
0101
0000
,  // measure 62
1000
0001
0100
0010
1000
0001
1100
0000
,  // measure 63
0010
0001
1000
0010
0100
0001
0110
0000
,  // measure 64
0001
0010
0100
1000
0001
0100
1010
0000
,  // measure 65
0100
0001
0010
0100
1000
0010
0101
0000
,  // measure 66
1000
0001
0100
0010
1000
0001
0110
0000
,  // measure 67
1000
0001
0100
0010
1000
0100
0011
0000
,  // measure 68
1000
0001
0100
0010
1000
0001
0110
0000
,  // measure 69
1000
0010
0100
0001
2000
0000
3100
0000
,  // measure 70
0001
0010
1100
1010
0002
0000
0013
0000
,  // measure 71
0001
0000
0100
0000
1010
0000
0011
0000
0100
1000
0100
1000
0000
1000
0000
0000
,  // measure 72
0001
0100
0001
0100
0000
0100
0000
0000
0010
1000
0010
1000
0000
1000
0000
0001
,  // measure 73
0200
0300
0000
0000
;

//---------------dance-single - ----------------
#NOTES:
     dance-single:
     :
     Hard:
     17:
     0.867,0.921,0.109,0.410,0.851: // measure 1
0000
0000
0000
0000
,  // measure 2
0000
0000
0000
0000
,  // measure 3
0000
0000
0000
0000
,  // measure 4
0000
0000
0000
0000
,  // measure 5
1200
0000
0000
0010
0000
0000
0001
0000
,  // measure 6
0000
0010
0000
0000
1000
0000
1300
0000
,  // measure 7
0102
0000
0000
1000
0000
0000
0010
0000
,  // measure 8
0000
0100
0000
0000
1000
0000
1003
0000
,  // measure 9
0010
0000
1000
0000
0100
0000
0000
0000
0010
0001
0010
0001
0010
0000
0000
0000
,  // measure 10
0001
0000
0100
0000
0010
0000
0000
0000
1000
0100
1000
0100
1000
0000
0000
0000
,  // measure 11
0001
0000
1000
0000
0010
0000
0000
0000
0100
0001
0100
0001
0100
0000
0000
0000
,  // measure 12
0010
0000
1000
0000
0001
0000
0000
0000
0010
0100
0010
0100
0010
0000
0000
0000
,  // measure 13
0001
0000
0010
0000
0100
0000
0000
0000
1000
0100
1000
0100
1000
0000
0000
0000
,  // measure 14
0010
0000
1000
0000
0001
0000
0000
0000
0100
0001
0100
0001
0100
0000
0000
0000
,  // measure 15
0010
0000
0100
0000
0001
0000
0000
0000
0010
0100
0010
0100
0010
0000
0000
0000
,  // measure 16
0001
0010
0100
2000
0000
0000
0000
0000
,  // measure 17
3001
0000
0000
0000
0110
0000
0000
1000
0100
0000
1000
0000
0001
0100
0010
0000
,  // measure 18
1000
0000
0000
0000
0101
0000
0000
1000
0100
0000
0010
0000
0001
1000
0010
0000
,  // measure 19
0100
0001
0100
0001
2000
0000
0000
0000
0010
0000
0100
0000
3001
0000
0000
0000
,  // measure 20
1000
0100
1000
0100
0010
0000
0000
0000
0002
0000
0100
0000
1003
0000
0000
0000
,  // measure 21
0010
0000
1000
0000
0001
0100
0010
1000
0100
0000
0010
0000
1001
0000
0000
0000
,  // measure 22
0010
0000
1000
0000
0001
0010
0100
0010
0001
1000
0010
0000
0101
0000
0000
0000
,  // measure 23
1000
0100
1000
0001
0100
0001
1000
0010
1000
0001
0010
0001
1000
0000
0000
0000
,  // measure 24
0001
0100
0001
1000
0100
1000
0001
0010
0001
1000
0010
1000
0002
0000
0000
0000
,  // measure 25
1003
0100
1000
0001
0100
0001
1000
0010
0100
0000
0001
0000
0010
0000
1000
0000
,  // measure 26
0010
0001
1000
0100
0010
0001
0100
1000
,  // measure 27
0100
0010
1000
0100
0010
0001
1000
0010
,  // measure 28
0100
0001
0010
1000
0001
0100
1000
0010
,  // measure 29
0100
0001
1000
0010
0100
1000
0100
0010
,  // measure 30
1000
0100
0010
0001
1000
1000
0100
0010
,  // measure 31
0001
0100
1000
0100
0001
0001
0010
1000
,  // measure 32
0010
0001
0010
0001
1000
0100
1000
0100
0010
0000
0001
0000
0100
0000
0010
1000
,  // measure 33
0010
0100
0010
1000
0010
0000
0100
0000
0001
0000
0010
0000
0100
0000
1000
0100
,  // measure 34
1000
0010
1000
0001
1000
0000
0010
0000
0100
0000
0001
0000
1000
0000
0001
0010
,  // measure 35
0001
0100
0001
1000
0001
0000
0100
0000
0001
0000
0010
0000
0100
0000
0010
0001
,  // measure 36
0010
0100
0010
0001
0010
0000
0001
0000
1000
0000
0100
0000
0010
0000
0001
0100
,  // measure 37
0001
1000
0100
1000
0001
0000
0100
0000
0010
0000
1000
0000
0100
0000
1000
0010
,  // measure 38
1000
0001
0100
0001
1000
0000
0010
0000
0100
0000
0001
0000
0010
0000
0100
1000
,  // measure 39
0100
0010
0001
0010
0100
0000
1000
0000
0001
0000
0100
0000
0010
0000
2000
0000
,  // measure 40
0000
0000
0000
0000
0000
0000
0000
0000
3001
0001
0000
1000
1000
0000
0000
0010
,  // measure 41
0010
0000
0000
0000
0000
0000
1000
1000
0100
0100
0000
0010
0010
0000
0001
0001
,  // measure 42
0000
0000
0200
0000
0300
0000
0010
0010
1000
1000
0000
0001
0001
0000
0000
0010
,  // measure 43
0010
0000
0000
0000
0000
0000
0001
0001
1000
1000
0000
0100
0100
0000
0010
0010
,  // measure 44
0000
0000
0002
0000
0000
0003
0000
0000
0000
0000
0000
0000
0000
0000
0000
0000
,  // measure 45
0000
0000
0000
0000
0000
0000
0000
0000
0200
0020
0000
0000
0000
0000
0330
0000
,  // measure 46
0100
0001
0010
0100
1000
0010
0100
0010
2000
0200
0000
0000
0000
0000
3300
0000
,  // measure 47
0010
0001
1000
0010
0100
0010
1000
0100
0020
0002
0000
0000
0000
0000
0033
0000
,  // measure 48
0100
0010
1000
0001
0010
0100
1000
0010
0200
0002
0000
0000
0000
0000
0303
0000
,  // measure 49
1000
0100
0010
0001
0100
0010
1000
0001
2000
0200
0000
0000
0000
0000
3300
0000
,  // measure 50
1000
0100
0010
0001
0100
0010
1000
0100
2000
0002
0000
0000
0000
0000
3003
0000
,  // measure 51
0010
0001
0100
0010
1000
0001
1000
0100
0020
0002
0000
0000
0000
0000
0033
0000
,  // measure 52
0100
0010
1000
0001
0010
0100
1000
0010
0200
0002
0000
0000
0000
0000
0303
0000
,  // measure 53
1000
0010
0100
0010
1000
0001
0010
0100
1000
0000
1000
0000
0001
0000
0001
0000
,  // measure 54
0100
0010
0100
0001
0100
0010
0100
0001
1000
0000
1000
0000
0001
0000
0001
0000
,  // measure 55
0010
0100
0010
0001
0010
0100
0010
0001
1000
0000
1000
0000
0010
0000
0010
0000
,  // measure 56
0100
0001
0100
0010
0100
0001
0100
0010
1000
0000
1000
0000
0001
0000
0001
0000
,  // measure 57
0010
0100
0010
0001
0010
0100
0010
0001
1000
0000
0010
0000
0100
0000
0010
0000
,  // measure 58
1000
0100
0010
0001
1000
0100
0010
0001
0100
0000
0010
0000
1000
0000
0001
0000
,  // measure 59
0100
0010
1000
0001
0100
0010
1000
0001
0100
0000
0010
0000
1000
0000
0001
0000
,  // measure 60
0010
0100
1000
0001
0010
0100
1000
0001
0010
0000
0100
0000
1000
0000
0001
0000
,  // measure 61
0100
0010
1000
0100
0010
0001
1000
0010
0200
0000
0000
0000
0301
0000
0100
0010
,  // measure 62
0100
0001
1000
0001
0010
0000
0100
0000
2000
0000
0000
0000
3010
0000
0100
0010
,  // measure 63
0100
0001
1000
0001
0010
0000
0100
0000
0020
0000
0000
0000
0031
0000
0100
0001
,  // measure 64
0100
0010
1000
0010
0100
0000
0001
0000
2000
0000
0000
0000
3010
0000
0100
0010
,  // measure 65
0100
0001
1000
0001
0010
0000
0100
0000
1200
0000
0000
0000
0301
0000
0100
1000
,  // measure 66
0100
1000
0010
1000
0001
0000
0100
0000
0120
0000
0000
0000
0031
0000
1000
0010
,  // measure 67
1000
0010
0100
0010
1000
0000
0001
0000
0021
0000
0000
0000
1030
0000
0010
0001
,  // measure 68
0010
0001
1000
0001
1000
0000
0100
0000
1200
0000
0000
0000
0301
0000
1000
0100
,  // measure 69
1000
0100
0010
0100
1000
0000
0001
0000
2001
0000
0000
0000
3010
0000
0000
1000
,  // measure 70
0100
0000
1000
0000
0001
0000
0100
0000
1002
0000
0000
0000
0103
0000
0000
0001
,  // measure 71
0010
0000
0001
0000
1000
0000
0010
0000
0200
0000
0000
0020
0030
0020
0030
0000
,  // measure 72
0020
0030
0000
0020
0030
0020
0030
0000
0302
0000
0000
2000
3000
2000
3000
0000
,  // measure 73
2003
3000
0000
0000
;

//---------------dance-single - ----------------
#NOTES:
     dance-single:
     :
     Challenge:
     20:
     1.000,1.000,0.073,0.319,1.000: // measure 1
0000
0000
0000
0000
,  // measure 2
0000
0000
0000
0000
,  // measure 3
0000
0000
0000
0000
,  // measure 4
0000
0000
0000
0000
,  // measure 5
1000
0010
1000
0001
0100
0010
1000
0100
,  // measure 6
0010
0001
0010
0100
1000
0010
0100
0001
,  // measure 7
1000
0100
1000
0010
0100
0001
0010
0100
,  // measure 8
1000
0010
1000
0001
0100
0010
1000
0001
,  // measure 9
0200
0000
0010
0000
0310
0000
1000
0100
0010
0001
0100
0010
1000
0000
0001
0000
,  // measure 10
0020
0000
0100
0000
0130
0000
1000
0100
0010
0001
0100
0010
1000
0000
0001
0000
,  // measure 11
2000
0000
0010
0000
3010
0000
0100
0001
1000
0010
0100
0010
1000
0000
0100
0000
,  // measure 12
0020
0000
0001
0000
0031
0000
0100
0010
0100
0001
0010
0100
1000
0000
0010
0000
,  // measure 13
2000
0000
0001
0000
3100
0000
0010
0001
0100
0010
1000
0001
0100
0000
0010
0000
,  // measure 14
0200
0000
0001
0000
0310
0000
1000
0001
0010
0001
0100
0010
1000
0000
0001
0000
,  // measure 15
2000
0000
0100
0000
3010
0000
0100
0001
1000
0100
0010
0001
1000
0000
0010
0000
,  // measure 16
0100
0001
0010
2200
0000
0000
0000
3300
,  // measure 17
0001
0010
0001
0000
1000
0000
0010
0100
0010
0000
1000
0000
0100
1000
0100
0000
0010
0001
0100
0010
1000
0001
0100
0010
0200
0000
0000
0000
0301
0000
0000
0000
,  // measure 18
1000
0100
1000
0000
0010
0000
0100
0001
0100
0000
0001
0000
1000
0100
1000
0000
0001
0010
0100
1000
0010
0100
0010
1000
0200
0000
0000
0000
0310
0000
0000
0000
,  // measure 19
0001
0100
0010
0000
1000
0000
0100
0010
0001
0000
1000
0000
0010
1000
0001
0000
0100
0010
1000
0001
0100
0010
1000
0100
0020
0000
0001
0000
0031
0000
0000
0000
,  // measure 20
1000
0001
0010
0000
0001
0000
0100
0010
1000
0000
0100
0000
0010
0001
1000
0000
0100
0010
0100
1000
0001
0010
0100
1000
0002
0000
0010
0000
0013
0000
0000
0000
,  // measure 21
1000
0100
1000
0100
0000
0000
1000
0001
1000
0001
0000
0000
0010
0001
0010
0001
0100
0000
0001
0100
0010
1000
0001
0010
0100
0000
1000
0000
1100
0000
0000
0000
,  // measure 22
0001
0010
0001
0010
0000
0000
0001
1000
0001
1000
0000
0000
0100
1000
0100
1000
0010
0000
1000
0010
0100
0001
1000
0100
0010
0000
0001
0000
0011
0000
0000
0000
,  // measure 23
0100
0010
0100
0010
0000
0000
1000
0001
1000
0001
0000
0000
0010
0100
0010
0100
1000
0000
0001
0100
0010
1000
0100
0010
0001
0000
0100
0000
1001
0000
0000
0000
,  // measure 24
0010
0100
0010
0100
0000
0000
0001
1000
0001
1000
0000
0000
0100
0010
0100
0010
0001
0000
1000
0010
0100
0001
0010
0100
1000
0000
0010
0000
1001
0000
0000
0000
,  // measure 25
2000
3200
0320
0032
0203
0320
2030
3002
0103
0000
0010
0000
1000
0000
0100
0010
,  // measure 26
0100
0010
0100
0000
1000
0000
0001
0000
0100
0000
0010
0000
1000
0000
0001
0100
,  // measure 27
0001
0100
0001
0000
0010
0000
0100
0000
1000
0000
0010
0000
0100
0000
0001
0010
,  // measure 28
0001
0010
0001
0000
0100
0000
0010
0000
1000
0000
0001
0000
0010
0000
0100
1000
,  // measure 29
0100
1000
0100
0000
1000
0000
0010
0000
0100
0000
0001
0000
1000
0000
0010
0100
,  // measure 30
0010
0100
0010
0000
1000
0000
0001
0000
0010
0000
0100
0000
1000
0000
0001
0100
,  // measure 31
0001
0100
0001
0000
0010
0000
0100
0000
1000
0000
0001
0000
0100
0000
0001
1000
,  // measure 32
0001
0010
0100
1000
0001
0100
0010
1000
0001
0000
0001
0000
0001
0000
1000
0100
,  // measure 33
0010
0001
0010
0100
1000
0000
0001
0000
1000
0000
1000
0000
1000
0000
0001
0010
,  // measure 34
0100
1000
0100
0010
0001
0000
1000
0000
0010
0000
0010
0000
0010
0000
1000
0100
,  // measure 35
0010
0001
0010
0100
1000
0000
0010
0000
0100
0000
0100
0000
0100
0000
0001
0010
,  // measure 36
0100
1000
0100
0010
0001
0000
0100
0000
0002
0000
0010
0000
0013
0000
0001
0010
,  // measure 37
0100
1000
0010
0100
0001
0000
1000
0000
0200
0000
0010
0000
0310
0000
0001
1000
,  // measure 38
0010
0100
0010
1000
0100
0000
0010
0000
0002
0000
1000
0000
1003
0000
0010
0100
,  // measure 39
0010
1000
0100
0010
0001
0000
0100
0000
0010
0000
1000
0000
0010
0000
0202
0000
,  // measure 40
0000
0000
0000
0000
0000
0000
0000
0000
0000
0000
0000
0000
0303
0000
0000
0000
1000
0100
1000
0000
0000
0000
0001
0010
0001
0000
0000
0000
0000
0000
0100
0010
,  // measure 41
0100
0000
0000
0000
0000
0000
0000
0000
0000
0000
0000
0000
0001
0010
0001
0000
0010
0100
0010
0000
0000
0000
0100
1000
0100
0000
0000
0000
1000
0100
1000
0000
,  // measure 42
0000
0000
0000
0000
0220
0000
0000
0000
0330
0000
0000
0000
0100
0010
0100
0000
0001
0010
0001
0000
0000
0000
1000
0100
1000
0000
0000
0000
0000
0000
0100
0010
,  // measure 43
0100
0000
0000
0000
0000
0000
0000
0000
0000
0000
0000
0000
1000
0100
1000
0000
0001
1000
0001
0000
0000
0000
0010
0001
0010
0000
0000
0000
0100
0010
0100
0000
,  // measure 44
0000
0000
2002
0000
0000
3003
0000
0000
0020
0000
0000
0000
0000
0000
0000
0000
,  // measure 45
0000
0000
0000
0000
0000
0000
0030
0000
1000
0100
1000
0100
1000
0100
1000
0100
,  // measure 46
0010
0001
0100
0010
1000
0001
0010
0100
1000
0001
1000
0001
1000
0001
1000
0001
,  // measure 47
0100
0010
1000
0100
0010
0001
1000
0010
0100
0001
0100
0001
0100
0001
0100
0001
,  // measure 48
1000
0100
0010
0001
0100
0010
1000
0001
0010
0100
0010
0100
0010
0100
0010
0100
,  // measure 49
1000
0010
0100
0001
0010
0100
1000
0010
0100
0001
0100
0001
0100
0001
0100
0001
,  // measure 50
1000
0100
0010
0001
0100
0010
1000
0001
0010
0100
0010
0100
0010
0100
0010
0100
,  // measure 51
1000
0001
1000
0100
0010
0001
0100
0010
1000
0100
1000
0100
1000
0100
1000
0100
,  // measure 52
0010
0001
0100
0010
0100
0001
1000
0001
0100
0010
0100
0010
0100
0010
0100
0010
,  // measure 53
1000
0100
0010
0001
0010
0100
1000
0010
0100
0001
0010
0100
1000
0010
0100
0010
,  // measure 54
1000
0100
0010
0001
0100
0001
0100
0010
1000
0100
0010
0001
0100
0010
0100
0001
,  // measure 55
0010
0100
1000
0010
0100
0001
1000
0100
0010
0001
1000
0100
0010
0001
0100
0010
,  // measure 56
1000
0100
1000
0010
0100
0001
0010
0001
0100
0010
1000
0100
0010
0001
0100
0010
,  // measure 57
0100
0001
0010
0100
1000
0010
0100
0001
0100
0010
1000
0001
0100
0010
1000
0100
,  // measure 58
1000
0001
0010
0100
1000
0010
0100
0001
0010
0001
1000
0100
0010
0001
0100
0010
,  // measure 59
1000
0001
0100
0010
1000
0100
0010
0001
0100
0010
1000
0100
1000
0010
0100
0010
,  // measure 60
0100
0001
0010
0100
1000
0001
0100
0010
0100
0001
1000
0100
0010
0001
0100
0001
,  // measure 61
1000
0100
0010
0001
1000
0010
1000
0001
0100
0010
0100
0001
0100
0010
0100
0001
,  // measure 62
1000
0010
0100
0001
0010
0100
1000
0001
0010
0100
0010
0001
0010
0100
0010
0001
,  // measure 63
1000
0010
0100
0001
0010
0100
1000
0010
0100
0001
0100
0010
0100
0001
0100
0010
,  // measure 64
1000
0100
0010
0001
0100
0010
0100
0001
1000
0100
1000
0010
1000
0001
1000
0010
,  // measure 65
0100
0001
1000
0100
0010
0001
0100
0001
0010
0100
0010
0001
0010
0100
0010
0001
,  // measure 66
1000
0010
0100
0001
0010
0100
0010
0001
1000
0100
1000
0001
1000
0010
1000
0100
,  // measure 67
0010
0001
0100
0010
1000
0100
0010
0001
0100
0010
0100
0001
0100
0010
0100
0001
,  // measure 68
1000
0100
0010
0001
0100
0010
1000
0001
0010
0100
0010
0001
0010
0100
0010
0001
,  // measure 69
0100
0000
0010
0000
1000
0000
0100
0000
0010
0000
0001
0000
0100
0000
0010
0000
1000
0000
0001
0000
0100
0010
0100
0010
0100
0000
0001
0000
0010
0000
0100
1000
,  // measure 70
0100
0000
1000
0010
0100
0001
0010
0100
1000
0000
0001
0000
0100
0000
0100
0000
0001
0000
1000
0000
0010
0100
0010
0100
0010
0000
1000
0000
0100
0000
0010
0001
,  // measure 71
0010
0000
0001
0100
0010
1000
0100
0010
0001
0000
1000
0000
0010
0000
0010
0000
0100
0000
0001
0000
2000
0000
0100
0000
0000
0000
0100
0000
0000
0000
3100
0000
,  // measure 72
1000
0010
0200
0001
0000
0001
0000
0301
0010
0100
2000
0001
0000
0001
0000
3001
,  // measure 73
0200
0300
0000
0000
;

//---------------dance-single - ----------------
#NOTES:
     dance-single:
     :
     Easy:
     7:
     0.299,0.460,0.036,0.055,0.000:
0000
0000
0000
0000
,
0000
0000
0000
0000
,
0000
0000
0000
0000
,
0000
0000
0000
0000
,
1000
0000
0000
0000
,
0001
0000
0000
0000
,
0010
0000
0000
0000
,
0010
0000
0000
0000
,
0001
1000
0010
0010
,
0100
0001
1000
1000
,
0100
1000
0001
0001
,
0010
0001
0100
0100
,
0010
1000
0001
0001
,
0010
0001
1000
1000
,
0100
1000
0010
0010
,
0100
0001
1000
0000
,
0110
0000
0001
0000
1000
1000
1000
0000
,
0110
0000
1000
0000
0001
0001
0001
0000
,
0110
0000
0001
0000
1000
1000
1000
0000
,
0020
0000
0100
0130
,
0001
0000
1000
0000
0100
0010
0001
0000
,
0100
0000
0001
0000
1000
1000
1000
0000
,
0010
0000
1000
0000
0100
0010
0001
0000
,
0100
0000
0100
0000
0010
0010
0010
0000
,
2000
0000
3100
0010
,
0001
0000
1000
0001
,
0100
0100
0010
1000
,
0001
0001
0010
0001
,
1000
1000
0010
1000
,
0100
0100
0010
0001
,
1000
1000
0010
0100
,
0001
0000
0001
0000
1000
0100
1000
0000
,
0000
0000
0000
0000
0001
0100
0001
0000
,
0000
0000
0000
0000
1000
0010
1000
0000
,
0000
0000
0000
0000
0001
0010
0001
0000
,
0000
0000
0000
0000
1000
0001
1000
0000
,
0000
0000
0000
0000
0100
0010
0100
0000
,
0000
0000
0000
0000
0010
0001
0010
0000
,
0000
0000
0000
0000
0001
1000
0001
1000
,
0000
0000
0010
0000
,
1000
0000
0001
0000
,
0010
0100
0000
0000
0010
0000
0000
0000
,
0001
0000
1000
0000
,
0000
0000
0000
0000
,
0000
0000
0000
0000
0010
0100
0001
0000
,
0000
0000
0000
0000
1000
0100
0010
0000
,
0000
0000
0000
0000
0001
1000
0010
0000
,
0000
0000
0000
0000
0100
0001
1000
0000
,
0000
0000
0000
0000
0100
0010
0001
0000
,
0000
0000
0000
0000
0100
0001
1000
0000
,
0000
0000
0000
0000
0010
1000
0100
0000
,
0000
0000
0000
0000
0010
0001
0100
0000
,
0000
0000
0000
0000
0010
1000
0010
0000
,
0000
0000
0000
0000
1000
0100
1000
0000
,
0000
0000
0000
0000
0100
0001
0100
0000
,
0000
0000
0000
0000
0001
0010
0001
0000
,
0000
0000
0000
0000
0010
1000
0010
0000
,
0000
0000
0000
0000
1000
0100
1000
0000
,
0000
0000
0000
0000
0100
0001
0100
0000
,
0000
0000
0000
0000
0001
0010
0001
0000
,
0000
0000
0000
0000
0010
1000
0001
0000
,
0000
0000
0000
0000
0010
0001
1000
0000
,
0000
0000
0000
0000
0100
1000
0010
0000
,
0000
0000
0000
0000
0100
0001
1000
0000
,
0000
0000
0000
0000
0100
0010
0001
0000
,
0000
0000
0000
0000
0100
0001
1000
0000
,
0000
0000
0000
0000
0010
1000
0001
0000
,
0000
0000
0000
0000
0010
0100
1000
0000
,
0000
0000
1001
0000
,
0010
1000
0001
0001
0010
0000
0000
0000
,
0001
1000
0100
0100
0020
0000
0030
0000
,
0002
0003
2000
3000
,
0002
0003
0000
0000
;
