#TITLE:Deja Vu;
#SUBTITLE:;
#ARTIST:Som2;
#TITLETRANSLIT:;
#SUBTITLETRANSLIT:;
#ARTISTTRANSLIT:;
#CREDIT:;
#BANNER:Deja Vu-bn.png;
#BACKGROUND:Deja Vu-bg.png;
#LYRICSPATH:;
#CDTITLE:cdtitle.png;
#MUSIC:Deja Vu.mp3;
#OFFSET:-0.565;
#SAMPLESTART:66.468;
#SAMPLELENGTH:11.940;
#SELECTABLE:YES;
#BPMS:0.000=115.000;
#STOPS:;
#BGCHANGES:-0.200=Deja Vu.avi=1.000=1=1=0,
99999=-nosongbg-=1.000=0=0=0 // don't automatically add -songbackground-
;

//---------------dance-single - ----------------
#NOTES:
     dance-single:
     :
     Beginner:
     1:
     0.119,0.164,0.068,0.000,0.000:
0000
0000
0000
0000
,
0000
0000
0000
0000
,
0000
0000
0000
0000
,
0000
0000
0000
0000
,
1001
0000
0000
0000
,
0100
0000
0100
0000
,
1001
0000
0000
0000
,
1001
0000
0000
0000
,
0100
0000
0000
0001
,
0001
0000
0000
1000
,
1000
0000
0100
0000
,
0100
0000
0000
0000
,
1000
0000
0000
0010
,
0010
0000
0000
0100
,
0100
0000
0001
0000
,
1000
0000
0000
0000
,
0110
0000
0000
0100
,
0100
0000
0000
1000
,
1000
0000
0001
0000
,
0100
0000
0000
0010
,
0010
0000
0000
1000
,
1000
0000
0000
0000
,
0001
0000
1000
0000
,
0100
0000
0010
0010
,
0010
0000
0000
0000
,
0001
0000
0100
0100
,
0100
0000
0000
0000
,
0010
0000
1000
1000
,
1000
0000
0000
0000
,
0001
0000
0000
0000
,
0100
0000
0100
0000
,
0010
0000
0000
0000
,
1000
0000
1000
0000
,
0010
0000
0010
0000
,
0100
0000
0100
0000
,
0010
0000
0000
0000
,
1000
0000
1000
0000
,
0001
0000
0001
0000
,
0010
0000
0010
0000
,
0100
0000
0000
0000
,
1001
0000
0100
0000
,
0010
0010
0010
0000
,
1000
0000
0000
0000
,
0001
0001
0000
0000
,
0110
0000
1000
0000
,
0100
0100
0100
0000
,
0100
0000
0000
0000
,
1000
0000
0000
0000
,
1001
0000
0000
0000
;

//---------------dance-single - ----------------
#NOTES:
     dance-single:
     :
     Medium:
     6:
     0.326,0.329,0.274,0.147,0.005:
0000
0000
0000
0000
,
0000
0000
0000
0000
,
0000
0000
0000
0000
,
1001
0000
0000
1001
0000
0000
0000
0000
,
1001
0100
1000
0001
,
1000
0000
0010
0100
0001
0000
1000
0000
,
0110
0000
0001
0000
1000
0100
0010
0000
,
1001
0000
0000
0000
,
1000
0000
0001
0000
0100
0001
1000
0000
,
0010
0000
1000
0000
0001
0010
0100
0000
,
2000
3100
0002
0103
,
1000
0010
1001
0110
,
2000
0000
3000
0000
0100
1000
0001
0000
,
0200
0000
0300
0000
0001
0100
0010
0000
,
0002
0103
2000
3010
,
2002
0000
0000
3003
,
0010
1000
0100
1000
0000
0000
0010
0000
,
1000
0100
0010
0001
0000
0000
1000
0000
,
0001
0100
0010
0000
1000
0100
0010
0000
,
0001
1000
0110
0000
,
0001
1000
0010
0100
0000
0000
0001
0000
,
1000
0100
0010
0001
0000
0000
1000
0000
,
0010
0100
0001
1000
,
0100
0010
0011
0110
,
2200
0000
3300
0000
0010
0000
1000
0100
,
0010
0000
0011
0101
,
2002
0000
3003
0000
0010
1000
0001
0000
,
0010
0100
2000
3100
,
0220
0000
0330
0000
0001
0010
0100
0000
,
1000
0001
0100
0000
,
1010
0110
0101
0011
,
1100
0000
0000
0000
,
0001
0100
0010
0100
0000
0001
0010
0001
,
0000
1000
0010
1000
0000
0000
0100
0100
,
0100
1000
0010
0100
,
0001
1000
0110
0000
,
1000
0100
1000
0010
0000
0100
0001
0100
,
0000
0010
1000
0010
0000
0000
0100
0100
,
0100
0001
1000
0100
,
1001
0000
0000
0000
0000
0010
1000
0010
,
0000
1000
0001
1000
0000
0001
0100
0001
,
0000
1000
0100
1000
0000
0000
0001
0001
,
0001
1000
0110
0011
,
0100
0000
0001
0100
1000
0000
0000
0000
,
0010
1000
0001
1000
0000
0100
0100
0100
,
0000
0010
0010
0010
0000
0000
0001
1000
,
0001
0110
1000
0110
,
0001
0000
0000
1000
0000
0000
0100
0000
0000
0000
0000
0000
0000
0000
0000
0000
,
0011
0000
0000
0000
;

//---------------dance-single - ----------------
#NOTES:
     dance-single:
     :
     Hard:
     10:
     0.430,0.470,0.362,0.078,0.073:
0000
0000
0000
0000
,
0000
0000
0000
0000
,
0000
0000
0000
0000
,
0001
1000
0000
0000
0000
0000
0001
1000
0000
0000
0000
0000
0000
0000
0000
0000
,
0110
0000
0001
0010
0100
1000
0001
0000
,
1000
0010
1000
0001
0100
0010
1000
0000
,
0101
0000
1000
0100
0001
0100
1000
0000
,
0110
0000
0000
1000
,
0101
0000
0000
0000
1000
0000
0000
0000
0001
0000
0010
0000
0000
0001
0000
0000
,
1000
0000
0000
0000
0100
0000
0000
0000
1000
0000
0010
0000
0000
0100
0000
0000
,
0001
0000
0000
0000
1000
0000
0000
0000
0001
0000
0010
0000
0000
0100
0000
0000
,
1000
0000
0000
0000
0010
0000
0000
0000
0100
0000
0001
0000
0000
1000
0000
0000
,
0110
0000
0000
0000
1000
0000
0000
0000
0001
0000
1000
0000
0000
0010
0000
0000
,
0100
0000
0000
0000
0001
0000
0000
0000
1000
0000
0100
0000
0000
0001
0000
0000
,
0100
0000
0000
0000
1000
0000
0000
0000
0010
0000
0001
0000
0000
0010
0000
0000
,
1100
0000
0010
1000
0002
0000
0103
0000
,
1010
0000
0100
1000
0010
1000
0001
0000
,
0101
0000
1000
0001
0010
0001
1000
0000
,
0100
0010
0001
0100
0010
1000
0100
1000
,
0001
0000
0000
1000
0000
0000
0100
0000
0000
0000
1000
0000
0010
0000
0100
0000
,
0001
0010
0001
1000
0100
1000
0010
0000
,
1000
0001
0100
0010
0100
0001
0010
0100
,
2000
0000
3001
0000
0100
0001
1000
0100
,
0010
0001
1100
0101
,
2002
0000
3003
0000
0010
1000
0100
0010
,
0001
1000
0101
1100
,
2002
0000
3003
0000
0001
0010
1000
0010
,
0001
0000
1000
0000
0100
1000
0010
0000
,
2002
0000
3003
0000
0100
0001
0010
0100
,
0010
0001
1000
0010
0100
0000
0001
1000
,
0100
0000
1000
0000
0010
1000
0001
0010
,
1100
0000
0010
0000
,
1001
0100
0001
1000
0010
1000
0001
0010
,
0001
0100
0010
0100
0001
0000
1100
1100
,
1100
0000
0010
1000
0100
1000
0001
0010
,
0001
1000
0010
0100
0001
0000
1000
0000
,
0101
0010
0001
1000
0010
1000
0001
0010
,
0100
1000
0010
0100
0001
0000
0011
0011
,
0011
0000
0000
1000
0000
0000
0001
0000
0100
0000
0000
0010
0000
0000
0100
0000
,
1001
0000
0100
0000
1000
0001
0100
0010
,
1100
0010
1000
0001
1000
0010
0100
0001
,
0010
0100
0010
0001
1000
0000
0110
1001
,
0110
0000
1000
0100
0001
0100
1000
0010
,
0001
0010
0100
0001
1000
0000
0100
0000
,
1001
0100
0010
0100
0001
0010
0100
0010
,
0001
1000
0010
0100
0001
0000
1100
0011
,
1100
0000
0000
0010
0000
0000
1000
0000
0001
0000
0000
0100
0000
0000
0010
0000
,
0110
0000
0000
0101
0000
0000
1100
0000
0000
0000
0000
0000
0000
0000
0000
0000
,
1010
0000
0000
0000
;

//---------------dance-single - ----------------
#NOTES:
     dance-single:
     :
     Easy:
     3:
     0.194,0.258,0.127,0.000,0.000:
0000
0000
0000
0000
,
0000
0000
0000
0000
,
0000
0000
0000
0000
,
0100
0000
0000
0100
0000
0000
0000
0000
,
1001
0000
0100
0000
,
1000
0001
0100
0000
,
1001
0000
0100
0000
,
0010
0000
0000
0000
,
1000
0100
1000
0000
,
0010
1000
0001
0000
,
0100
0000
0001
0000
,
0010
0001
1000
0000
,
0010
0100
0010
0000
,
1000
0001
1000
0000
,
0100
0000
1000
0000
,
0001
0000
0000
0000
,
0010
1000
0010
0000
,
1000
0001
1000
0000
,
0100
0000
0100
0000
,
1000
0100
0010
0000
,
0001
0000
1000
0000
,
0010
0010
0010
0000
,
1000
0000
0001
0000
,
0100
0000
1001
1001
,
1001
0000
0100
1000
,
0010
0000
0110
0110
,
0110
0000
0100
0001
,
1000
0000
1001
1001
,
1001
0000
0100
1000
,
0001
0000
1000
0000
,
0010
0010
1000
1000
,
0001
0000
0000
0000
,
1000
0100
1000
0010
,
1000
0001
1000
0010
,
1000
0100
1000
0010
,
1000
0000
0000
0000
,
0001
0010
0001
0100
,
0001
1000
0001
0100
,
0001
0010
0001
0100
,
0001
0000
0000
0000
,
0100
0100
0100
0100
,
0100
0100
0100
0100
,
0100
0100
0100
0100
,
0100
0000
0000
0000
,
0010
0010
0010
0010
,
0010
0010
0010
0010
,
0010
0010
0010
0010
,
0110
0000
0000
0000
,
1001
0000
0000
0000
;

//---------------dance-single - ----------------
#NOTES:
     dance-single:
     :
     Challenge:
     14:
     0.612,0.775,0.245,0.147,0.558: // measure 1
0000
0000
0000
0000
,  // measure 2
0000
0000
0000
0000
,  // measure 3
0000
0000
0000
0000
,  // measure 4
0001
1000
0000
0000
0000
0000
0001
1000
0000
0000
0000
0000
0000
0000
0000
0000
,  // measure 5
0110
0000
0000
0000
0001
0000
1000
0000
0100
0010
0001
0000
1000
0000
0000
0000
,  // measure 6
0001
0000
1000
0000
0010
0000
0100
0000
0001
0010
0100
0000
1000
0000
0000
0000
,  // measure 7
1010
0000
0100
0000
0001
0000
1000
0000
0010
1000
0001
0000
0010
0000
0000
0000
,  // measure 8
2002
0000
3003
0110
,  // measure 9
1100
0000
0000
0000
0010
1000
0100
1000
0001
1000
0010
0000
0000
0100
0000
0000
,  // measure 10
0001
0000
0000
0000
0100
0001
0100
0010
1000
0001
0010
0000
0000
0100
0000
0000
,  // measure 11
1000
0010
0100
0001
0010
0001
1000
0010
,  // measure 12
0100
0000
0000
0010
0000
0000
1000
0000
0001
0000
0000
0000
0110
0000
0000
0000
,  // measure 13
1001
0000
0000
0000
0100
1000
0010
1000
0001
0100
0010
0000
0000
0100
0000
0000
,  // measure 14
0001
0000
0000
0000
0010
0001
1000
0010
1000
0001
0100
0000
0000
0010
0000
0000
,  // measure 15
1000
0000
0100
1000
0010
0100
0001
0010
,  // measure 16
0100
0010
0001
1000
0020
0000
0130
0000
,  // measure 17
1001
0000
0100
0000
0010
1000
0100
1000
0010
0100
0001
0010
0100
0000
0010
0000
,  // measure 18
0011
0000
0010
0000
0100
1000
0010
1000
0001
1000
0010
0100
0001
0000
1000
0000
,  // measure 19
0010
0010
1000
1000
0001
0100
1000
0100
,  // measure 20
0001
1000
0100
0010
0001
1000
0010
0000
,  // measure 21
0101
0000
0100
0000
0010
1000
0100
1000
0010
0100
0001
0010
0100
0000
0010
0000
,  // measure 22
0011
0000
0010
0000
0001
1000
0100
1000
0010
0100
0001
1000
0002
0000
0000
0000
,  // measure 23
2003
0000
0000
0000
3010
0100
0001
0100
0010
1000
0001
0000
0010
0000
0100
0000
,  // measure 24
1100
0000
0000
0001
0000
0000
1000
0000
0020
0000
0000
0000
0230
0000
0000
0000
,  // measure 25
0302
0000
1003
0000
0100
1000
0010
1000
,  // measure 26
0001
0010
0001
0100
0020
0000
2030
0000
,  // measure 27
3200
0000
1300
0010
1000
0001
0100
0010
,  // measure 28
0100
0001
0010
0100
1000
0000
0101
0000
,  // measure 29
2002
0000
3003
0000
0010
1000
0100
0010
,  // measure 30
0001
0100
1000
0100
0001
0000
1000
0100
,  // measure 31
0010
0000
0000
0010
0000
0000
0001
0000
1000
0000
0010
0000
0100
0000
0001
0000
,  // measure 32
1100
0000
0000
0000
,  // measure 33
1001
0000
0000
0000
0010
0100
0001
0000
0001
0010
0100
0000
0100
1000
0010
0000
,  // measure 34
0010
0100
1000
0000
1000
0100
0001
0000
0001
0010
0100
0000
0100
1000
0010
0000
,  // measure 35
0010
1000
0100
0000
0100
0010
0001
0000
0001
0100
1000
0000
1000
0001
0010
0000
,  // measure 36
0010
1000
0100
0000
0100
0010
0001
0000
1000
0000
0000
0000
0000
0000
0000
0000
,  // measure 37
1001
0000
0000
0000
0010
1000
0100
0000
0100
0010
0001
0000
0001
0100
1000
0000
,  // measure 38
1000
0001
0010
0000
0010
1000
0100
0000
0100
0010
0001
0000
0001
0010
1000
0000
,  // measure 39
1000
0010
0001
0000
0001
1000
0100
0000
0100
1000
0010
0000
0010
0100
0001
0000
,  // measure 40
1100
0000
0000
0000
0010
1000
0100
1000
0010
0100
0001
1000
0010
0000
0000
0000
,  // measure 41
1000
0100
1000
0100
0010
0001
0010
0001
1000
0001
1000
0001
0100
0010
0100
0010
,  // measure 42
1000
0100
0010
0001
0100
0010
0100
0001
0010
0000
0100
0000
1100
0000
0101
0000
,  // measure 43
1100
0000
0010
0000
1000
0100
1000
0010
0100
0001
0010
0100
0010
0001
1000
0010
,  // measure 44
0100
0001
0010
0100
0010
0001
1000
0010
0200
0000
0000
0000
0301
0000
0000
0000
,  // measure 45
1000
0001
1000
0001
0010
0100
0010
0100
1000
0100
1000
0100
0010
0001
0010
0001
,  // measure 46
1000
0010
0100
0001
0010
0100
0010
0001
1000
0010
0100
0000
0101
0000
1100
0000
,  // measure 47
1001
0000
0010
1000
0100
1000
0010
0100
0001
0010
0100
0010
0001
1000
0010
0100
,  // measure 48
0001
0000
0000
1100
0000
0000
0020
0000
0000
0000
0000
0000
0000
0000
0000
0000
,  // measure 49
0130
0000
0000
0000
;
