#TITLE:Crash Day;
#SUBTITLE:;
#ARTIST:Crash;
#TITLETRANSLIT:;
#SUBTITLETRANSLIT:;
#ARTISTTRANSLIT:;
#CREDIT:;
#BANNER:Crash Day-banner.png;
#BACKGROUND:Crash Day-bg.png;
#LYRICSPATH:;
#CDTITLE:cdtitle.png;
#MUSIC:Crash Day.mp3;
#OFFSET:-0.160;
#SAMPLESTART:61.208;
#SAMPLELENGTH:11.860;
#SELECTABLE:YES;
#BPMS:0.000=220.000;
#STOPS:;
#BGCHANGES:0.000=Crash Day.avi=1.000=1=1=0,
99999=-nosongbg-=1.000=0=0=0 // don't automatically add -songbackground-
;

//---------------dance-single - ----------------
#NOTES:
     dance-single:
     :
     Beginner:
     4:
     0.202,0.315,0.089,0.018,0.000:
0000
0000
0000
0000
,
0000
0000
0000
0000
,
0000
0000
0000
0000
,
0000
0000
0000
0000
,
0000
0000
0000
0000
,
1000
0000
0000
0000
,
0001
0000
0000
0000
,
0100
0000
0000
0000
,
0010
0000
0010
0000
,
1000
0000
1000
0000
,
0001
0000
0001
0000
,
0010
0000
0010
0000
,
0001
0000
0001
0000
,
1000
0000
1000
0000
,
0010
0000
0000
0000
,
0100
0000
0000
0000
,
1001
0000
0100
0000
,
1000
1000
1000
0000
,
0010
0000
1000
0000
,
0001
0001
0001
0000
,
0010
0000
0000
0000
,
0001
0001
0001
0000
,
1000
0000
0001
0000
,
0100
0000
0100
0000
,
0010
0000
0000
0000
,
1000
0000
0000
0000
,
0100
0000
0100
0000
,
0100
0000
0000
0000
,
1001
0000
0000
0000
,
0000
0000
0000
0000
,
0010
0010
0000
0000
,
1000
0000
0001
0000
,
0100
0000
0001
0000
,
1000
0000
0000
0000
,
0100
0000
0100
0000
,
0100
0000
0000
0000
,
1001
0000
0100
0000
,
0100
0000
0001
0000
,
0000
1000
0000
1000
,
0000
0000
0000
0000
,
0010
0000
1000
0000
,
0001
0000
0000
0000
,
0100
0000
0100
0000
,
0001
0001
0001
0000
,
1000
0000
0000
0000
,
0010
0000
0010
0000
,
1000
0000
0000
0000
,
0001
0000
1000
0000
,
0100
0000
0000
0000
,
0010
0000
0000
0000
,
0001
0000
0000
0000
,
1000
0000
0000
0000
,
0010
0000
0010
0000
,
0010
0000
0000
0000
,
1000
0000
1000
0000
,
1000
0000
0000
0000
,
0001
0000
0001
0000
,
0001
0000
0000
0000
,
0110
0000
0000
0000
,
1001
0000
0000
0000
,
0100
0000
0100
0000
,
1000
0000
1000
0000
,
0001
0000
0001
0000
,
0100
0000
0100
0000
,
0010
0000
0010
0000
,
1000
0000
1000
0000
,
0001
0000
0001
0000
,
1000
0000
1000
0000
,
0100
0000
0010
0000
,
0001
0000
1000
0000
,
0010
0000
1000
0000
,
0001
0000
0100
0000
,
0001
0000
0010
0000
,
0001
0000
1000
0000
,
0100
0000
0010
0000
,
0001
0000
0000
0000
,
0100
0000
0000
0000
,
0000
0000
0001
0001
,
0001
0000
0000
0000
,
0000
0000
1000
1000
,
1000
0000
0000
0000
,
0000
0000
0100
0100
,
0100
0000
0000
0000
,
0000
0000
0000
0000
,
0010
0000
0001
0000
,
1000
0000
0010
0000
,
0100
0000
0001
0000
,
1000
0000
0010
0000
,
1001
0000
0000
0000
,
0000
0000
0000
0000
,
1001
0000
0000
0000
,
0000
0000
0000
0000
,
0110
0000
0000
0000
,
0000
0000
0000
0000
,
1000
0000
0000
0000
,
0001
0000
0000
0000
,
0110
0000
0000
0000
,
0001
0000
0000
0000
,
1000
0000
1000
0000
,
0001
0000
0001
0000
,
0220
0000
0000
0000
,
0030
0300
0000
0000
;

//---------------dance-single - ----------------
#NOTES:
     dance-single:
     :
     Medium:
     12:
     0.617,0.810,0.524,0.391,0.000:
0000
0000
0000
0000
,
0000
0000
0000
0000
,
0000
0000
0000
0000
,
0000
0000
0000
0000
0000
0000
0001
1000
,
0100
0000
0000
0000
,
1100
0000
0000
0011
0000
0000
0101
0000
,
1001
0000
0000
0000
,
0220
0000
0000
0330
,
1000
0000
0001
0000
0010
0100
0010
0000
,
0001
0010
0001
0000
1000
0100
1000
0001
,
0100
0000
0001
0000
1000
0010
1000
0000
,
0001
0010
0001
0000
1000
0010
1000
0001
,
0100
0000
0001
0000
1000
0100
1000
0000
,
0001
0010
0001
0000
0100
0001
0100
0010
,
2000
0000
0000
3001
0000
0000
0110
0000
,
0002
0000
0000
1003
0000
0000
0110
0000
,
1000
0000
0001
0000
0100
0010
0100
0000
,
0001
0010
0100
0010
0001
0000
1000
0000
,
0010
0100
0010
0000
1000
0001
1000
0000
,
0001
0010
0100
1000
0001
0000
0100
0000
,
0010
1000
0001
0100
0000
0000
0010
0000
,
0100
0001
0110
0000
,
0001
0010
0100
0000
1000
0010
0100
0000
,
0001
0000
1000
0000
0010
0100
0001
0000
,
1000
0000
0202
0000
0000
0000
0000
0300
,
2000
0000
3003
1100
,
0101
0011
1010
1001
,
0101
1100
0011
0110
,
2002
0000
0000
0000
,
0000
0000
3003
0110
,
0101
1100
0101
1001
,
0010
1000
0100
0000
0010
0001
0100
0000
,
1001
0000
0000
0000
0010
1000
0000
0000
,
0102
0000
1003
0000
,
0001
0000
0010
0000
0100
0010
0001
0000
,
1000
0001
0100
0000
,
0110
0000
1000
0100
,
0010
0001
1000
0010
,
0100
0001
1000
0000
0100
1000
0001
0000
,
0010
0001
1000
0010
0100
0001
1000
0000
,
0001
0000
0000
0000
0010
0100
0000
0000
,
2100
0000
3001
0000
,
1000
0000
0010
0000
0100
0000
0001
0010
,
0100
0010
0001
1000
,
0101
0000
1000
0001
,
1000
0010
0100
0010
,
1000
1100
0001
0101
,
1000
0001
0100
0010
1000
0100
0010
0001
,
1001
0000
0000
0000
,
1010
0000
0000
0101
0000
0000
0011
0000
,
1100
0002
0000
0000
,
0000
0000
1003
0000
,
0010
0000
1000
0000
0001
0010
0000
0000
,
0001
0000
0000
0001
1000
0000
0010
0000
,
0100
0000
0001
0000
1000
0100
0000
0000
,
0010
0000
0000
0010
0100
0000
1000
0000
,
0001
0000
0100
0010
0100
0001
1000
0010
,
0100
0001
1000
0001
0100
0000
0010
0000
,
2000
0000
0000
3100
0000
0000
0110
0000
,
0002
0000
0000
0103
0000
0000
0110
0000
,
1000
0100
1000
0000
0001
0100
0001
0000
,
1000
0010
1000
0000
0001
0010
0001
0000
,
1000
0100
0010
0000
0001
0100
0010
0000
,
0100
0001
1000
0000
0001
0010
0100
0000
,
1000
0001
0100
0001
0010
0001
0100
0001
,
1000
0010
0100
0010
0001
0010
1000
0010
,
0100
0001
1000
0001
0100
0001
1000
0001
,
0010
0001
1000
0010
0100
0001
0010
0100
,
2000
3100
0200
0310
,
0020
0031
0002
0103
,
0100
0010
1000
0001
1000
0010
0100
0001
,
0010
0100
1000
0001
0200
0000
0000
0000
,
0310
0100
0001
1000
,
0100
0010
0001
1000
,
0001
0100
0010
1000
0001
0100
0010
1000
,
0002
0000
0000
0000
,
2003
0000
0000
3002
0000
0000
0023
0000
,
0000
0130
0000
0000
0110
0000
1001
0000
,
0120
0000
0000
2030
0000
0000
3002
0000
,
0000
0013
0000
0000
0011
0000
1100
0000
,
0012
0000
0000
0203
0000
0000
0302
0000
,
0000
1003
0000
0000
1010
0000
0101
0000
,
1020
0000
0000
0230
0000
0000
0302
0000
,
0000
2003
0000
0000
3010
0000
1001
0000
,
1000
0100
1000
0000
0001
0100
0000
0100
,
0010
0000
0010
1000
0000
1000
0001
0000
,
0010
0100
0010
0000
0001
0010
0000
0010
,
0100
0000
0100
1000
0000
1000
0001
0000
,
0100
2020
0000
0000
,
0000
0000
0000
3030
,
0100
2002
0000
0000
,
0000
0000
0000
3003
,
0220
0000
0000
0000
,
0000
0000
0000
0330
,
2002
0000
0000
3003
,
0010
0000
0000
1000
0000
0000
0001
0010
,
0100
0000
0000
0000
,
2000
0000
0000
3000
,
0101
0000
0000
1100
0000
0000
0011
0000
,
1010
0000
0000
1001
0000
0000
0110
0000
,
2020
0000
0000
0000
,
0030
3000
0000
0000
;

//---------------dance-single - ----------------
#NOTES:
     dance-single:
     :
     Hard:
     17:
     1.000,1.000,0.409,0.080,0.787:
0000
0000
0000
0000
,
0000
0000
0000
0000
,
0000
0000
0000
0000
,
0000
0000
0000
0000
0000
0000
0001
0010
,
0100
0000
0000
0000
,
1100
0000
0000
0101
0000
0000
1010
0000
,
1001
0000
0000
0000
,
0100
0010
0100
0010
0100
0010
0100
0010
0100
0010
0100
0010
0100
0000
0000
0000
,
1000
0010
1000
0001
0100
1000
0100
0010
,
1000
0100
0001
0100
0010
0001
1000
0010
,
0100
0001
0010
1000
0010
0001
1000
0010
,
0100
0001
0100
0010
1000
0100
0010
0001
,
0100
1000
0100
0010
1000
0001
0010
0100
,
0010
0001
1000
0010
0100
0001
1000
0100
,
1100
0000
0000
1001
0000
0000
0101
0000
,
1010
0000
0000
0011
0000
0000
1001
0000
,
0100
0001
1000
0100
1000
0010
0100
0001
,
0010
0100
0010
0001
1000
0000
0010
0000
,
1000
0001
0100
0010
0100
0001
0010
0100
,
1000
0010
1000
0001
0010
0000
0100
0000
,
1000
0100
0010
0001
0000
0100
0001
0100
,
0010
0100
0001
0010
0100
1000
0001
0000
,
1000
0010
1000
0001
0010
0100
0010
0001
,
0100
1000
0100
0010
1000
0100
0010
0001
,
1000
0000
0000
0000
0001
0100
0001
0100
0001
0100
0001
0100
0001
0100
0001
0100
,
0001
0100
0001
0100
0001
0100
0001
0100
0001
0100
0001
0100
0001
0000
0000
0000
,
2001
3010
1000
0001
,
0100
0001
0100
0010
1000
0000
0101
0000
,
1000
0010
1000
0010
1000
0010
1000
0010
1000
0010
1000
0010
1000
0010
1000
0010
,
1000
0010
1000
0010
1000
0010
1000
0010
1000
0010
1000
0010
1000
0000
0000
0000
,
1010
2001
3100
0001
,
0010
0100
0010
0001
1000
0010
0100
0001
,
1000
0100
1000
0010
1000
0001
1000
0010
,
0100
0001
0100
0010
0100
1000
0100
0010
,
1000
0001
0010
0100
0010
0001
1000
0100
,
0010
0001
0100
0010
0100
0001
1000
0000
,
0101
0100
0001
0010
0001
1000
0001
0100
,
0010
1000
0010
0001
0010
0100
0010
1000
,
0001
0010
0011
0000
1000
0010
1010
0000
,
0001
0100
0010
1000
0100
0010
0001
1000
,
0010
0100
1000
0100
0010
0100
0001
0100
,
0010
1000
0010
0001
0010
0100
0010
1000
,
0001
0010
0100
1000
0010
0100
0001
0010
,
0100
0010
0001
1000
0010
0100
0001
0000
,
1010
0100
0010
0100
0001
0100
1000
0100
,
0010
1000
0010
0001
0010
0100
0010
1000
,
0001
0010
0100
0010
0001
1000
0010
0100
,
0001
0001
1000
0010
1000
1000
0001
0010
,
1001
0000
0000
0000
,
1010
0000
0000
0101
0000
0000
1100
0000
,
1001
0000
0010
1000
0100
1000
0001
0010
,
0001
1000
0010
0100
1001
0000
0000
0000
,
0010
0000
1000
0000
0100
0010
0000
0010
,
0001
0000
1000
0000
0001
0100
0010
1000
,
0001
0000
0010
0000
0100
1000
0000
1000
,
0010
0000
0100
0000
0001
0100
0010
1000
,
0001
0000
0010
0001
1000
0010
0100
0001
,
0010
0100
0010
0001
1000
0010
0100
0000
,
1001
0000
0000
1100
0000
0000
0011
0000
,
1001
0000
0000
0101
0000
0000
1010
0000
,
0001
1000
0010
0100
0001
0010
0100
1000
0100
0010
0001
0100
,
0010
1000
0100
1000
0001
0010
0100
1000
0010
0100
0010
1000
,
0001
0100
0001
0010
0100
1000
0010
0100
0001
0100
0010
1000
,
0100
0010
0001
1000
0010
0100
0001
0010
0100
1000
0001
1000
,
0010
0100
0001
0010
1000
0010
0001
0100
0010
1000
0100
1000
,
0010
0100
0001
0100
1000
0100
0010
1000
0100
0010
0001
1000
,
0010
0100
0010
0001
0010
0100
0001
1000
0100
1000
0001
1000
,
0100
0010
0100
0001
0100
1000
0100
1000
0010
0100
0010
1000
,
0001
0010
0100
1000
0001
0010
0100
1000
0001
0010
0100
1000
,
0001
0100
0010
1000
0001
0100
0010
1000
0001
0100
0010
1000
,
0001
0100
1000
0100
0010
1000
0100
0010
0100
0010
0001
1000
,
0010
0100
0001
0010
1000
0010
0002
0000
0000
0000
0000
0000
,
0103
0010
1000
0100
0010
0001
0100
1000
0100
0010
1000
0100
,
0010
0001
0100
0001
1000
0100
1000
0010
0100
1000
0001
0010
,
1000
0100
1000
0100
0010
0001
0010
0001
0100
0010
1000
0001
,
0200
0000
0000
0300
,
1001
0000
0010
1000
0001
0010
0100
0000
,
1000
0010
0100
0000
0101
0000
1100
0000
,
1001
0000
0010
0001
1000
0010
0100
0000
,
0001
0100
0010
0000
1100
0000
0101
0000
,
1010
1000
0001
0010
0100
0010
0001
1000
,
0010
1000
0001
0010
0100
0010
0001
1000
,
0010
0100
0001
0100
0010
1000
0100
0010
,
0001
0000
1000
0100
1000
0000
0010
0000
0100
0000
0001
0000
0100
0000
0010
0000
,
1000
0100
1000
0001
0100
0001
1000
0010
,
1000
0001
0010
0001
1000
0010
0100
0001
,
1000
0100
1000
0001
0100
0001
1000
0010
,
1000
0001
0010
0001
1000
0010
0100
0001
,
0010
0000
0000
0000
0001
0100
0001
0100
0001
0100
0001
0100
0001
0100
0001
0100
,
0001
0100
0001
0100
0001
0100
0001
0100
0001
0100
0001
0100
0001
0100
0001
0100
,
0001
0000
0000
0000
1000
0100
1000
0100
1000
0100
1000
0100
1000
0100
1000
0100
,
1000
0100
1000
0100
1000
0100
1000
0100
1000
0100
1000
0100
1000
0100
1000
0100
,
0020
0000
0000
0000
,
0000
0000
0000
0030
,
1100
0000
0000
0000
,
0001
0000
0000
1000
0000
0000
0010
0100
,
0001
0000
0000
0000
,
2200
0000
0000
0000
0000
3300
0010
1000
,
1001
0000
0100
1100
0000
0001
0101
0000
,
1010
0000
0001
0011
0000
1000
1001
0000
,
0220
0000
0000
0000
,
0030
0300
0000
0000
;

//---------------dance-single - ----------------
#NOTES:
     dance-single:
     :
     Challenge:
     20:
     1.000,1.000,0.462,0.178,1.000:
0000
0000
0000
0000
,
0000
0000
0000
0000
,
0000
0000
0000
0000
,
0000
0000
0000
0000
0000
0000
1000
0100
,
0001
0000
0000
0000
,
1001
0000
0000
0110
0000
0000
1001
0000
,
0110
0000
0000
0000
,
1000
0100
1000
0100
1000
0100
1000
0100
1000
0100
1000
0100
1000
0000
0000
0000
,
0001
0100
1000
0100
0010
1000
0100
0010
,
0001
1000
0010
0001
0010
0100
0001
0010
,
1000
0010
0100
1000
0010
0100
0001
1000
,
0100
0000
0010
0000
0001
0000
0100
0000
1000
0000
0100
0000
0010
0000
1000
0100
,
0010
0001
1000
0010
1000
0001
0010
1000
,
0010
0001
0100
1000
0100
0010
1000
0001
,
0100
0010
0100
0000
0001
0000
1000
0100
1000
0000
0010
0000
0100
0001
0100
0000
,
0001
1000
0001
0000
0100
0000
0010
1000
0010
0000
0100
0000
0001
0010
0001
0000
,
1000
0000
0001
0000
1000
0000
0010
0000
0100
0001
0010
0000
0100
1000
0010
0000
,
1000
0000
0100
0000
0010
0000
0001
0000
0100
0001
1000
0000
0010
1000
0001
0000
,
0100
0000
1000
0000
0100
0000
0010
0000
1000
0100
0010
0000
0001
0100
0010
0000
,
1000
0000
0001
0000
0010
0000
0100
0000
1000
0010
0100
0000
0001
0010
0100
0000
,
1000
0001
1000
0000
0010
0000
0200
0000
0000
0000
0000
0000
0301
0000
0010
0000
,
0100
1000
0001
0000
0100
0000
0010
0000
1000
0100
0010
0000
0001
1000
0100
0000
,
0010
0000
0001
0000
0100
0000
0010
0000
1000
0001
0100
0000
0001
0010
0100
0000
,
1000
0000
0001
0000
0100
0000
0010
0000
1000
0100
0010
0001
1000
0000
0010
0000
,
0100
0000
0000
0000
1000
0001
1000
0001
1000
0001
1000
0001
1000
0001
1000
0001
,
1000
0001
1000
0001
1000
0001
1000
0001
1000
0001
1000
0001
1000
0000
0100
0000
,
0110
0011
0101
1010
,
1100
0011
1001
0101
,
0010
0100
0010
0100
0010
0100
0010
0100
0010
0100
0010
0100
0010
0100
0010
0100
,
0010
0100
0010
0100
0010
0100
0010
0100
0010
0100
0010
0100
0010
0000
1000
0000
,
1001
0100
0110
0000
0011
0000
1100
0000
,
0001
0100
0001
0000
1000
0000
0010
0100
0010
0000
1000
0000
0100
0000
0010
0000
,
1001
0100
0010
0100
0001
0100
1000
0100
,
0110
0001
1000
0001
0010
0001
0100
0001
,
1010
0100
0001
0100
1000
0100
0010
0100
,
0101
1000
0100
1000
0001
1000
0010
1000
,
1001
0100
0010
0100
1000
0100
0010
0100
,
0011
0001
0100
0001
0010
0001
1000
0001
,
0100
0010
1010
0000
0001
0100
0101
0000
,
1000
1000
0001
0100
0010
0010
0100
0001
,
1100
1000
0010
0100
0001
0010
0100
1000
,
1010
0100
0001
0010
1000
0010
0001
0100
,
0101
0100
0010
1000
0001
0010
0100
1000
,
1010
1000
0001
0010
0100
1000
0001
0100
,
1010
0100
0001
0010
0100
1000
0010
0100
,
1001
0100
0010
1000
0001
0010
0100
1000
,
0011
1000
0001
0100
0010
1000
0001
0010
,
0100
0100
1000
0010
1000
0100
0001
0100
,
2002
0000
0000
3003
,
1000
0001
1000
0000
0100
0000
0010
0001
0010
0000
0100
0000
1000
0010
1000
0000
,
0001
0000
0000
0000
0100
0010
1000
0001
0100
0010
1000
0100
0010
0001
1000
0010
,
0100
0001
0010
0100
1000
0010
0100
0001
1000
0000
0000
0000
0000
0000
0000
0000
,
0101
0000
1100
0000
0010
1010
0000
0100
,
0101
0000
1001
0000
0001
0010
0100
1000
,
0010
0000
1010
0000
0001
0101
0000
1000
,
1100
0000
0011
0000
1000
0100
0010
0001
,
1000
0000
0010
0100
0001
0010
1000
0010
,
0001
1000
0100
0000
1000
0000
0010
1000
0010
0000
1000
0000
0001
0000
0000
0000
,
0010
0100
0010
0000
0001
0000
1000
0100
1000
0000
0010
0000
0100
0001
1000
0000
,
0001
0010
0001
0000
1000
0000
0100
0010
0100
0000
1000
0000
0010
0100
0001
0000
,
1000
0100
1000
0010
1000
0001
1000
0001
0010
0100
0010
0001
0010
1000
0010
0001
,
0100
0001
0100
0010
0100
1000
0100
0001
0010
0100
0010
1000
0010
0001
0010
0100
,
1000
0010
1000
0100
1000
0001
1000
0010
0100
1000
0100
0001
0100
0010
0100
0001
,
0010
0100
0010
1000
0010
0001
0010
0001
1000
0100
1000
0010
1000
0001
1000
0010
,
0100
0001
0100
0001
1000
0010
1000
0001
0010
0100
0010
0100
1000
0001
1000
0100
,
0010
0001
0010
0001
0100
0010
0100
0001
1000
0100
1000
0100
0010
1000
0010
0001
,
0100
0010
0100
0010
1000
0100
1000
0001
0010
0100
0010
0100
1000
0001
1000
0010
,
0100
0001
0100
0001
1000
0100
1000
0001
0010
0100
0010
0100
1000
0001
1000
0010
,
1000
0100
0010
0001
1000
0100
0010
0001
1000
0010
0100
0001
1000
0010
0100
0001
,
0010
0100
1000
0001
0010
0100
1000
0001
0100
0010
1000
0001
0100
0010
1000
0001
,
0100
0010
1000
0100
1000
0010
0100
0001
0010
0001
0100
0010
1000
0100
0010
0001
,
1000
0010
0100
0010
1000
0100
0010
0001
0200
0000
0000
0000
0000
0000
0000
0000
,
0301
0010
0100
1000
0010
0100
0010
1000
0100
0010
0001
1000
0001
0100
0010
1000
,
0100
0010
0001
0100
1000
0100
0010
1000
0100
0010
0001
0100
0010
1000
0001
0010
,
0100
1000
0100
0010
0001
0100
0010
0100
0001
0010
1000
0010
0001
1000
0100
0001
,
0200
0000
0000
0000
1000
1000
1000
1300
,
2010
0000
0100
3002
0000
0010
0203
0000
,
1000
0320
0000
0100
1030
1000
0001
0001
,
0012
0000
0100
2003
0000
0010
3002
0000
,
1000
0203
0000
0001
0310
0010
0100
0100
,
1001
1000
0010
0100
0001
0010
0100
1000
,
0010
0100
0001
0010
1000
0010
0001
0100
,
1000
0100
0010
1000
0100
0010
0001
0000
,
1100
0000
0001
0100
0010
0000
1000
0000
0100
0000
1000
0000
0010
0000
0100
0000
,
0001
0010
1000
0001
0100
1000
0001
0010
,
1000
0001
0100
1000
0001
0100
0010
1000
,
1000
0010
0001
1000
0100
0001
1000
0010
,
0001
1000
0100
0001
1000
0010
0001
1000
,
0110
0000
0000
0000
0001
0010
0001
0100
0001
0010
0001
0100
0001
0010
0001
0100
,
0001
0010
0001
0100
0001
0010
0001
0100
0001
1000
0100
0010
0001
0010
0100
1000
,
0001
0000
0000
0000
1000
0100
1000
0010
1000
0100
1000
0010
1000
0100
1000
0010
,
1000
0100
1000
0010
1000
0100
1000
0010
1000
0001
0010
0100
1000
0100
0010
0001
,
2000
0000
0000
0000
,
0000
0000
0000
3000
,
0202
0000
0000
0303
,
1001
0000
0000
1010
0000
0000
0001
0010
,
1100
0000
0000
0000
,
0202
0000
0000
0000
0303
0000
1000
0001
,
0100
0010
1000
0000
0100
0000
0010
0001
1000
0000
0010
0000
0100
0001
1000
0000
,
0100
0010
0001
0000
1000
0000
0010
0100
0001
0000
1000
0000
0001
0010
0100
0000
,
2200
0000
0000
0000
,
0300
3000
0000
0000
;

//---------------dance-single - ----------------
#NOTES:
     dance-single:
     :
     Easy:
     7:
     0.356,0.405,0.080,0.169,0.000:
0000
0000
0000
0000
,
0000
0000
0000
0000
,
0000
0000
0000
0000
,
0000
0000
0000
0000
,
0000
0000
0000
0000
,
1000
0000
0000
0001
0000
0000
0100
0000
,
0010
0000
0000
0000
,
2002
0000
0000
3003
,
0010
1000
0010
0010
,
1000
0001
0100
0100
,
0001
0010
0100
0100
,
0010
0001
1000
0010
,
0100
0001
1000
1000
,
0010
1000
0001
0001
,
0010
0000
0000
0001
0000
0000
1000
0000
,
0010
0000
0000
0100
0000
0000
0001
0000
,
1000
1000
0001
0001
,
0100
0010
1000
0000
,
0100
0100
0010
0010
,
0001
1000
0010
0000
,
0100
0100
0000
0001
,
0100
0010
1000
0000
,
0001
1000
0001
0001
,
0100
0010
1000
0001
,
0000
0220
0000
0000
,
0000
0000
0000
0330
,
0001
0001
1000
1000
,
0010
0010
0100
0000
,
0220
0000
0000
0000
,
0000
0000
0000
0330
,
1000
1000
0001
0001
,
0010
0001
1000
0000
,
0010
0000
1000
0000
,
0202
0000
0303
0000
,
1000
0001
0100
0000
,
0001
1000
0100
0000
,
0010
0000
0001
0000
,
1000
0001
0100
0000
,
0000
0010
0000
0010
,
1000
0001
0100
0000
,
0001
0000
0010
0000
,
2200
0000
3300
0000
,
0010
0010
1000
0000
,
0001
0001
0100
0000
,
1001
0000
0010
0000
,
0001
0000
1000
0010
,
0010
0000
0100
0000
,
0001
0000
1000
0000
,
0110
0000
0000
0000
,
0001
0000
0000
0010
0000
0000
0100
0000
,
1000
0000
0000
0000
,
0000
0000
0000
0000
,
0001
0000
0001
0000
0000
1000
0000
0000
,
0010
0000
0000
0100
0000
0000
0001
0000
,
0000
0000
1000
0000
0000
0001
0000
0000
,
0010
0000
0000
0001
0000
0000
1000
0000
,
0000
0010
0010
0010
,
0010
0000
0000
0010
0000
0000
0000
0000
,
1000
0000
0000
0001
0000
0000
0100
0000
,
0100
0000
0000
0010
0000
0000
1000
0000
,
0001
0010
0001
0010
,
0001
1000
0001
1000
,
0100
1000
0100
1000
,
0100
0010
0100
0010
,
0001
0001
1000
1000
,
0010
0010
0100
0100
,
0001
0100
0010
1000
,
0100
0010
0001
1000
,
0010
0010
0010
0010
,
1000
1000
1000
1000
,
0001
0001
0001
0001
,
0100
0100
0100
0000
,
0001
0010
0001
1000
,
0100
1000
0010
0100
,
0010
1000
0001
0010
,
0200
0000
0000
0000
,
0310
0000
0000
0010
0000
0000
0010
0000
,
0000
0010
0000
0000
0010
0000
0000
0000
,
0001
0000
0000
0001
0000
0000
0001
0000
,
0000
0001
0000
0000
0001
0000
0000
0000
,
1000
0000
0000
1000
0000
0000
1000
0000
,
0000
1000
0000
0000
1000
0000
0000
0000
,
0010
0000
0000
0010
0000
0000
0010
0000
,
0000
0010
0000
0000
0010
0000
0000
0000
,
1000
0100
1000
0010
,
1000
0100
1000
0010
,
1000
0001
1000
0010
,
1000
0001
1000
0010
,
0000
0200
0000
0000
,
0000
0000
0000
0300
,
0000
0002
0000
0000
,
0000
0000
0000
0003
,
2002
0000
0000
0000
,
0000
0000
0000
3003
,
0020
0000
0000
0000
,
0000
0000
0000
0000
,
1030
0000
0000
0000
,
0002
0000
0000
0000
,
0013
0000
0000
0001
0000
0000
1000
0000
,
0010
0000
0000
0100
0000
0000
0001
0000
,
2002
0000
0000
0000
,
0003
3000
0000
0000
;
