#TITLE:Chimera;
#SUBTITLE:;
#ARTIST:Yahpp;
#TITLETRANSLIT:;
#SUBTITLETRANSLIT:;
#ARTISTTRANSLIT:;
#CREDIT:;
#BANNER:Chimera-banner.png;
#BACKGROUND:Chimera-bg.png;
#LYRICSPATH:;
#CDTITLE:cdtitle.png;
#MUSIC:Chimera.mp3;
#OFFSET:-0.090;
#SAMPLESTART:14.913;
#SAMPLELENGTH:17.960;
#SELECTABLE:YES;
#BPMS:0.000=210.000,76.000=105.000,78.000=210.000,262.000=105.000,264.000=210.000;
#STOPS:;
#BGCHANGES:0.000=Chimera.avi=1.000=1=0=0,
99999=-nosongbg-=1.000=0=0=0 // don't automatically add -songbackground-
;

//---------------dance-single - ----------------
#NOTES:
     dance-single:
     :
     Beginner:
     5:
     0.270,0.368,0.127,0.336,0.000: // measure 1
0000
0000
0000
0000
,  // measure 2
0000
0000
0000
0000
,  // measure 3
0000
0000
0000
0000
,  // measure 4
0000
0000
0000
0000
,  // measure 5
0000
0000
0000
0000
,  // measure 6
1000
0000
0001
0000
,  // measure 7
0100
0100
0000
0000
,  // measure 8
0001
0000
0000
1000
,  // measure 9
1000
1000
0000
0000
,  // measure 10
0010
0000
1000
0000
,  // measure 11
0100
0100
0100
0000
,  // measure 12
0000
0010
0010
0010
,  // measure 13
0010
0000
0001
0000
,  // measure 14
1001
0000
0100
0000
,  // measure 15
1000
0000
0001
0000
,  // measure 16
0100
0100
0100
0100
,  // measure 17
0100
0000
0001
0000
,  // measure 18
0010
0010
0010
0010
,  // measure 19
0010
0000
0100
0000
,  // measure 20
1001
0000
0100
0000
,  // measure 21
1000
0000
0001
0000
,  // measure 22
0100
0000
0020
0000
,  // measure 23
0030
0000
1000
0000
,  // measure 24
0001
0000
0020
0000
,  // measure 25
0030
0000
0001
0000
,  // measure 26
1000
0000
0020
0000
,  // measure 27
0030
0000
1000
1000
,  // measure 28
1000
1000
2000
0000
,  // measure 29
3000
0000
0001
0001
,  // measure 30
0001
0001
0002
0000
,  // measure 31
0003
0000
0100
0000
,  // measure 32
0010
0000
1000
0000
,  // measure 33
0000
0000
0001
0000
,  // measure 34
0000
0000
1000
0000
,  // measure 35
0001
0000
0010
0000
,  // measure 36
0100
0000
1001
0000
,  // measure 37
0000
0000
0110
0000
,  // measure 38
0000
0000
1000
1000
,  // measure 39
1000
1000
2000
0000
,  // measure 40
3000
0000
0100
0100
,  // measure 41
0100
0100
0200
0000
,  // measure 42
0300
0000
1000
0000
,  // measure 43
0001
0000
0100
0000
,  // measure 44
0000
0000
0010
0000
,  // measure 45
0000
0000
0110
0000
,  // measure 46
0001
0000
0110
0000
,  // measure 47
1000
0000
0110
0000
,  // measure 48
0001
0000
2002
0000
,  // measure 49
3003
0000
0010
0000
,  // measure 50
0000
0100
0010
0000
,  // measure 51
0000
0100
0010
0000
,  // measure 52
0000
0000
1000
0000
,  // measure 53
0001
0000
0200
0300
,  // measure 54
0001
0000
2000
3000
,  // measure 55
0100
0000
0020
0030
,  // measure 56
0001
0000
2000
3000
,  // measure 57
0010
0000
0200
0300
,  // measure 58
0000
0000
0001
0000
,  // measure 59
1000
0000
0010
0000
,  // measure 60
0100
0000
2002
3003
,  // measure 61
0100
0100
0200
0000
,  // measure 62
0300
0000
0010
0000
,  // measure 63
0001
0000
1000
2000
,  // measure 64
0000
3000
0010
0000
,  // measure 65
1000
0000
0001
0002
,  // measure 66
0000
0003
0000
0000
0110
0000
0000
0000
,  // measure 67
2000
0000
3000
0000
,  // measure 68
0002
0000
0003
0000
,  // measure 69
0200
0000
0300
0000
,  // measure 70
0010
0000
0010
0000
,  // measure 71
0020
0000
0030
0000
,  // measure 72
1000
0000
1000
0000
,  // measure 73
2000
0000
3000
0000
,  // measure 74
0001
0000
1000
1000
,  // measure 75
1000
0000
0000
0000
,  // measure 76
0100
0000
0010
0010
,  // measure 77
0010
0000
0000
0000
,  // measure 78
0001
0000
1000
0000
,  // measure 79
0220
0330
0000
0000
,  // measure 80
2002
3003
0000
0000
,  // measure 81
0020
0030
2000
3000
,  // measure 82
0200
0300
0020
0030
,  // measure 83
0002
0003
2000
3000
,  // measure 84
0020
0000
0000
0030
,  // measure 85
0100
0000
0000
0010
,  // measure 86
0100
0000
0000
0010
,  // measure 87
0100
0000
0001
0000
,  // measure 88
1000
0000
0110
0000
,  // measure 89
2002
0000
0000
0000
,  // measure 90
0000
0000
0000
0000
,  // measure 91
3003
0000
0000
0000
;

//---------------dance-single - ----------------
#NOTES:
     dance-single:
     :
     Medium:
     13:
     0.713,0.737,0.355,0.637,0.000:
0000
0000
0000
0000
,
0000
0000
0000
0000
,
0000
0000
0000
0000
,
0000
0000
0000
0000
,
0001
1000
0010
0100
,
0001
0010
0100
0000
1000
0010
0100
0000
,
0001
0010
0100
1000
0001
0000
0110
0000
,
1000
0100
1000
0000
0001
0100
0001
0000
,
1000
0010
1000
0000
0001
0010
0001
0000
,
2000
0000
3001
1000
0020
0000
0130
0001
,
2000
3200
0320
0000
,
0000
0032
0203
0320
,
2030
0000
3100
0010
0001
0100
0010
1000
,
0102
0000
2003
3200
,
0320
0000
0000
0000
,
0031
0100
0010
1000
0100
0010
0001
1000
,
1010
2002
0000
3003
,
0100
0001
1000
0010
1000
0100
0010
0001
,
0011
2002
0000
3003
,
0110
0001
0100
1000
0010
0100
0001
0100
,
0010
1000
0100
0010
0002
0000
0000
1003
,
0200
0000
0000
0310
0001
0100
0010
0100
,
0001
0010
0200
0000
1300
0001
0100
0010
,
1000
0100
0010
0001
2000
0000
0100
0000
,
3100
0000
0002
0000
1003
0010
0100
0001
,
0010
0100
0010
0001
2000
0000
3010
0000
,
0001
0100
0001
0100
0010
1000
0100
0010
,
0001
0100
0010
1000
0200
0000
0000
0000
,
0000
0000
0310
0000
0001
0010
0100
1000
,
0010
0100
0001
0010
0200
0000
0000
0000
,
0000
0000
0310
0000
0001
0100
0001
0000
,
1000
0100
1000
0000
0001
0100
0010
1000
,
0100
0010
0100
0010
0001
0100
0010
1000
,
0100
0010
0100
0010
0002
0000
0000
0000
,
2003
0000
3020
0000
,
0230
0000
0302
0000
,
0000
0000
0013
0100
2000
0000
0000
0000
,
0000
0000
3001
0000
0100
0010
0100
0010
,
0100
0010
0100
0010
2000
0000
0000
0000
,
0000
0000
0000
0000
3100
0010
0100
0010
,
0100
0010
0100
0010
0002
0000
0000
0000
,
0000
0000
0103
0000
0010
1000
0100
0000
,
0010
0001
0100
0000
0010
1000
0100
0010
,
0001
1000
0001
1000
0010
1000
0100
0010
,
0001
1000
0001
1000
0020
0000
0000
0000
,
0230
0000
0302
0000
,
2003
0000
3200
0000
,
0320
0000
0031
1000
,
0001
0000
1000
0000
0010
1000
0100
0010
,
0001
0100
0001
0100
0010
1000
0100
0010
,
0001
0100
0001
0100
0010
0000
0100
0001
,
0010
0100
1000
0001
0101
0000
1001
0000
,
1100
1001
0220
0330
,
1100
0101
0022
0033
,
1001
1100
2020
3030
,
1001
1010
0202
0303
,
1100
1001
0022
0033
,
0000
0101
1100
0011
,
1010
0101
1100
0110
,
0011
0000
1001
0000
0110
1000
0100
1000
,
0010
0100
0001
0010
0100
0010
0001
0100
,
0001
1000
0010
0100
0001
0100
0010
1000
,
0100
0010
0001
0100
0020
0000
2000
0000
,
0000
0000
3030
0000
0001
1000
0010
0100
,
0001
0010
0100
1000
0002
0000
0200
0000
,
0000
0000
0303
0000
0110
1000
0100
0001
,
0010
0001
0100
0000
0010
1000
0100
0000
,
0020
0000
0000
0031
0200
0000
0000
0310
,
1000
0100
1000
0001
1000
0010
0200
0000
,
0301
0100
0010
1000
0100
0010
0001
1000
,
0020
1000
1030
0002
,
1003
0100
0010
0001
0100
0010
1000
0001
,
0020
0000
0130
0000
1000
0100
1000
0100
,
0010
0001
0100
0010
1000
0100
0010
0001
,
2000
0000
0000
0000
0000
0000
3001
1000
,
0010
1000
0001
0010
0100
0010
0001
0100
,
0020
0000
0000
0130
,
0001
0100
0010
0000
1000
0100
0010
0000
,
0001
0100
0010
1000
0100
0010
0100
0010
,
0001
0100
0010
1000
0100
0010
0100
0010
,
0002
0103
0200
0310
,
0020
1030
2000
3100
,
0200
0310
0020
0031
,
0011
1100
0101
1010
,
0001
0100
1000
0100
0001
0010
0100
1000
,
0001
0100
1000
0100
0001
0010
0100
1000
,
0001
0010
1000
0010
0001
0100
1000
0100
,
0002
0000
2003
0000
,
3020
0000
0000
0000
,
0000
0000
0000
0000
,
0030
0000
0000
0000
;

//---------------dance-single - ----------------
#NOTES:
     dance-single:
     :
     Hard:
     17:
     0.860,1.000,0.182,0.527,0.486:
0000
0000
0000
0000
,
0000
0000
0000
0000
,
0000
0000
0000
0000
,
0000
0000
0000
0000
,
0001
1000
0001
1000
,
0010
0100
0001
0010
0100
0010
0001
1000
,
0100
1000
0010
0100
0001
0010
0100
1000
,
0001
0100
0001
0000
1000
0000
0100
0000
0010
0001
0010
0000
0001
0000
1000
0000
,
0100
0010
0100
0000
1000
0000
0001
0000
0010
0100
0010
0000
0001
0000
1000
0000
,
0010
1000
0001
0100
1000
0100
0010
1000
,
0200
0320
0032
0000
,
0000
0000
0103
1000
0100
0010
1000
0100
,
0010
0000
0001
0100
0010
0000
1000
0100
0010
0000
0001
1000
0100
0000
0010
0001
,
2000
0000
3020
0230
,
0302
0000
0000
0000
,
0013
0100
0010
0001
0100
1000
0100
0010
,
2000
0002
0000
3003
,
1000
0100
0001
0100
1000
0010
0100
0001
,
0020
0200
0000
0330
,
0110
0000
0011
0000
1010
0000
1100
0000
0001
0100
0001
0000
1000
0000
0010
0000
,
1000
0100
1000
0000
0010
0000
0100
0000
0002
0000
0000
0000
0000
0000
0013
0000
,
0200
0000
0000
1300
0010
0001
0010
1000
,
0010
0001
0020
0000
1030
0100
0010
0001
,
0100
1000
0001
0010
2000
0000
0000
0000
,
0000
0000
3010
0000
0100
0001
0010
1000
,
0001
0100
1000
0001
0200
0000
0000
0000
,
0301
0010
0001
0010
0001
0010
0001
0010
0100
0000
1000
0001
0100
0000
0010
1000
,
0001
0000
1000
0100
0010
0000
0001
1000
0020
0000
0000
0000
0000
0000
0000
0000
,
0000
0000
0000
0000
0130
0000
0001
0000
1000
0000
0010
0000
0100
0001
1000
0100
,
1000
0010
0100
0001
0010
0100
1000
0001
0200
0000
0000
0000
0000
0000
0000
0000
,
0000
0000
0000
0000
0301
0010
0001
0000
1000
0000
1000
0000
0001
0000
0100
0000
,
0010
0010
0100
0001
0010
1000
0010
0001
,
1000
0010
1000
0010
0100
0000
0001
0000
1000
0000
0100
0000
0001
0000
0100
0000
,
1000
0010
1000
0010
0100
0000
0001
0000
2000
0000
0000
0000
0000
0000
0000
0000
,
0002
0000
0000
3000
0020
0000
0000
0003
,
0200
0000
0000
0030
2000
0000
0000
0000
,
0000
0300
3010
0100
0002
0000
0000
0000
,
0000
0000
0000
0000
0013
0100
0010
0000
0001
0000
0010
0000
0100
0000
1000
0000
,
0010
0100
0001
0010
0200
0000
0000
0000
,
0000
0000
1300
0001
0100
0010
1000
0100
,
0010
0001
1000
0010
0200
0000
0000
0000
,
0000
0000
0000
0000
0301
0010
0001
0000
1000
0000
1000
0000
0010
0000
0100
0000
,
0001
0001
0010
1000
0010
0001
0100
0010
,
1000
0100
1000
0100
0010
0000
0001
0000
1000
0000
0010
0000
0100
0000
0001
0000
,
1000
0100
1000
0100
0010
0000
0001
0000
0200
0000
0000
0000
0000
0000
0000
0000
,
0020
0000
0000
0300
2000
0000
0000
0030
,
0002
0000
0000
3000
0020
0000
0000
0003
,
0200
0000
0000
0030
1300
0000
0001
0000
,
1000
0000
0000
0000
0001
0000
0000
0000
0100
0010
0100
0010
1000
0100
1000
0100
,
0010
0001
0010
0001
0010
0001
0010
0001
0100
0010
0100
0010
1000
0100
1000
0100
,
0010
0001
0010
0001
0010
0001
0010
0001
0100
0000
0000
0000
0001
0000
0100
0000
,
1000
0100
0010
1000
1010
0000
1100
0000
,
0110
0011
1001
0000
,
1010
0000
1001
0000
0110
1000
0100
0010
,
0001
1000
0010
0100
1001
0000
0000
0000
,
1100
0000
0011
0000
1001
0100
0010
0100
,
0001
0010
0100
0010
0001
0100
1000
0100
,
0010
1000
0100
0010
0001
0001
1000
1000
,
0010
0010
0100
0100
0001
0001
0010
0100
,
2000
0000
3001
0000
0220
0000
0000
0030
,
0002
0300
2000
0003
0200
0000
0000
0000
,
0000
0000
0000
0000
0000
0000
3000
0000
0310
0001
0100
0010
1000
0100
1000
0010
,
0100
0001
0010
0100
1000
0010
0100
0001
2000
0000
0000
0000
0002
0000
0000
0000
,
0000
0000
0000
0000
0000
0000
3000
0000
0103
0010
1000
0100
0010
0001
0100
0010
,
1000
0100
1000
0001
0010
0001
0100
0010
2000
0000
0000
0000
0002
0000
0000
0000
,
0000
0000
0000
3000
0013
1100
0101
1001
,
1000
0010
1000
0000
0001
0000
0100
0000
0001
0010
0001
0000
0100
0000
0010
0000
,
2000
0000
0000
3100
0020
0000
0000
0031
,
0100
1000
0100
0001
0100
1000
0200
0000
,
0301
0000
0010
0000
0100
0000
1000
0010
0100
0000
0001
0000
0010
0000
0100
1000
,
0002
0000
0000
0103
,
0010
0000
0100
0000
0001
0000
0010
0100
1000
0000
0001
0000
0010
0000
0001
1000
,
0200
0000
0000
0000
0000
0000
0000
0000
1300
0010
1000
0010
1000
0010
1000
0010
,
0100
0000
0100
0000
0100
0000
0100
0000
0001
0010
0100
1000
0010
0100
0010
1000
,
0002
0000
0000
0000
0000
0000
0000
0000
0000
0000
0000
0000
0103
0010
0100
0000
,
0001
0000
0001
0000
0001
0000
0001
0000
0010
0100
0010
0001
1000
0100
1000
0001
,
0200
0000
0000
0000
0000
0000
0000
0000
0000
0000
0000
0000
0301
0010
0001
0000
,
0100
0100
0010
1000
0001
0001
0010
0100
,
1000
0000
0010
0000
0100
0000
0001
0000
0010
0001
0010
0001
1000
0000
0100
0000
,
1000
0000
0010
0000
0100
0000
0001
0000
0010
0001
0010
0001
1000
0000
0100
0000
,
2000
3100
0200
0310
,
0020
0031
0002
0103
,
0200
0310
0020
1030
,
0001
1000
0001
1000
0001
1000
0001
1000
,
0010
0100
0010
0100
0001
0010
0001
0010
0100
1000
0001
0100
0010
1000
0100
0010
,
0001
0100
0001
0100
0010
1000
0010
1000
0100
0010
0001
0100
0010
1000
0100
0010
,
0001
0100
1000
0001
0010
1000
0100
0010
,
0002
0000
2003
0000
,
3020
0000
0000
0000
,
0000
0000
0000
0000
,
0030
0000
0000
0000
;

//---------------dance-single - ----------------
#NOTES:
     dance-single:
     :
     Challenge:
     19:
     1.000,1.000,0.573,0.236,0.809:
0000
0000
0000
0000
,
0000
0000
0000
0000
,
0000
0000
0000
0000
,
0000
0000
0000
0000
,
0011
1100
0101
1010
,
0001
0100
0010
1000
0100
0010
0001
0100
,
0010
0100
0001
0010
1000
0010
0001
1000
,
0010
0100
0001
0000
1000
0000
0100
0000
0010
0001
1000
0000
0001
0000
0100
0000
,
0010
1000
0001
0000
0100
0010
1000
0000
0001
0010
0100
1000
0001
0000
0100
0000
,
0110
0000
1000
0001
0101
0000
1000
0100
,
1100
0000
0011
0000
1001
1000
0010
0100
,
0001
0010
0110
0000
0011
0000
1100
0000
,
0001
0000
1000
0100
0010
0000
0001
0100
0010
0000
1000
0001
0100
0000
0001
1000
,
0100
0010
0001
0100
1000
0100
0010
1000
,
0100
0010
0001
1000
0010
0100
0001
0010
,
0100
1000
0001
0100
0010
1000
0100
0010
0001
0100
0010
1000
0100
0010
0001
1000
,
0010
0100
0001
0010
1000
0010
0001
1000
,
0001
0100
0010
1000
0100
1000
0010
0100
0001
0010
1000
0010
0001
1000
0010
0100
,
0001
0000
0010
0000
0100
0000
0010
0000
0001
0100
0010
1000
0100
0010
0001
1000
,
0010
0000
0000
0000
0100
0001
0000
0000
0001
0010
0000
0000
0010
0100
0000
0000
1001
0000
0000
0000
0001
0000
0000
0000
0100
0000
0000
0000
0010
0000
0000
0000
,
1001
0000
0100
0000
0010
0000
0001
0000
1000
0010
1000
0010
0100
0000
0001
0000
,
0010
0100
0010
0100
1000
0000
0010
0000
0100
0000
0001
0000
0010
0000
0100
0000
,
1000
0000
0001
0000
0100
0010
1000
0100
0010
0000
0001
0000
1000
0000
0010
0000
,
0100
0001
0010
0100
2000
0000
0100
0000
,
3010
0000
0210
0000
0301
0010
1000
0010
,
0001
0100
0010
1000
0002
0000
0010
0000
,
0103
0010
1000
0100
0010
0001
1000
0010
0100
0000
0001
0100
0010
0000
1000
0001
,
0010
0000
0100
1000
0001
0000
0010
0001
2000
0000
0000
0000
0001
0000
0000
0000
,
3010
0000
0001
0100
0001
0000
1000
0000
0010
0000
1000
0000
0001
0010
0100
1000
,
0001
0000
0000
0000
0000
0000
0000
0000
0000
0000
0000
0000
0100
0000
0000
0000
0000
0000
0000
0000
0000
0000
0000
0000
0001
0000
0000
0000
0000
0000
0000
0000
0000
0000
0000
0000
1000
0000
0000
0000
0000
0000
0000
0000
0000
0000
0000
0000
0100
0000
0000
0000
0000
0000
0000
0000
0000
0000
0000
0000
0010
0000
0000
0000
0000
0000
0000
0000
0000
0000
0000
0000
0001
0000
0000
0000
0000
0000
0000
0000
0000
0000
0000
0000
1000
0000
0000
0000
0000
0000
0000
0000
0000
0000
0000
0000
0000
0200
0000
0000
0000
0000
0000
0000
0000
0000
0000
0000
0000
0000
0000
0000
0000
0000
0000
0000
0000
0000
0000
0000
0000
0000
0000
0000
0000
0000
0000
0000
0000
0000
0000
0000
0000
0000
0000
0000
0000
0000
0000
0000
0000
0000
0000
0000
1000
0000
0000
0000
0000
0000
0000
0000
0000
0000
0000
0000
0000
0000
0000
0000
0000
0000
0000
0000
0000
0000
0000
0000
0000
0000
0000
0000
0000
0000
0000
0000
0000
0000
0000
0000
0000
0000
0000
0000
0000
0000
0000
0000
0000
0000
0000
0000
,
0310
0000
0000
0000
0001
0010
0100
1000
0001
0000
0100
0010
0100
0000
0001
0000
,
1000
0000
0100
0010
0100
0000
1000
0000
0001
0000
0100
0000
0010
0000
1000
0000
,
0001
0010
0100
1000
0010
0000
0100
0000
0001
0000
1000
0000
0010
0000
1000
0000
,
0001
0010
0100
1000
0010
0000
0100
0000
0201
0000
0000
0000
0310
0000
0000
0000
,
1002
0013
2100
3001
,
0120
1030
0012
1000
,
0103
0000
0000
0000
0000
0000
0010
0000
0000
1000
0000
0000
0100
0000
0010
0000
0100
0000
0010
0000
0100
0000
0010
0000
,
0100
0000
0000
0000
0010
0001
0010
0000
0100
0000
0100
0000
0100
0000
0100
0000
,
0100
0100
0100
0100
0200
0000
0000
0000
,
0000
0000
0000
0000
1300
0001
1000
0000
0010
0000
0010
0000
0010
0000
0010
0000
,
0010
0010
0010
0010
0020
0000
0000
0000
,
0000
0000
0000
0000
0130
0001
1000
0100
0010
0000
0001
0100
0001
0000
1000
0000
,
0010
0000
1000
0100
1000
0000
0001
0000
0010
0000
0100
0000
1000
0000
0010
0000
,
0100
0001
0010
0100
1000
0000
0001
0000
0100
0000
0001
0000
1000
0000
0010
0000
,
0100
0001
0010
0100
1000
0000
0001
0000
0102
0000
1000
0000
1003
0000
0000
0000
,
2010
0001
3001
0000
0120
0001
0031
0000
,
0120
1000
1030
0000
2100
0001
3001
0000
,
0012
1000
1003
0000
0101
0000
1010
0000
,
1100
0000
0000
0000
0011
0000
0000
0000
1000
0010
0100
0001
0010
0100
0010
0001
,
1000
0100
1000
0010
0100
0001
0010
1000
0010
0001
0100
0010
1000
0100
1000
0010
,
0100
0001
0010
0100
1000
0010
0100
0001
1000
0000
1000
0000
0100
0000
0100
0000
,
0010
0010
0001
0001
0011
0001
1001
1000
,
1010
0010
0110
0100
1001
0000
0100
0001
,
1100
0000
0101
0000
0011
1000
0010
0100
,
0101
0010
0110
1000
1010
0100
0001
1000
,
1100
0010
0011
1000
1010
0100
0001
1000
,
1001
0010
0011
1000
1010
0100
0001
0010
,
1000
0000
0010
0000
0001
0000
1000
0000
0010
0000
1000
0100
0010
0000
0001
0000
,
0100
0000
0010
1000
0100
0000
1000
0000
0010
0000
0100
0001
0010
0000
0001
0000
,
0100
0010
1000
0001
0100
0000
0000
0000
0011
0000
0010
0000
1000
0000
0010
0000
,
0001
0100
0010
1000
0100
0010
0001
0100
,
0010
0000
1000
0000
0010
0000
0100
0000
0001
0010
1000
0010
0001
0010
1000
0010
,
0001
0010
1000
0010
0001
0010
1000
0010
0002
0000
0000
0000
2003
0000
0000
0000
,
3010
0000
0100
0000
0101
0000
0000
0000
1000
0100
0001
0100
1000
0100
0001
0100
,
1000
0100
0001
0100
1000
0100
0001
0100
2000
0000
0000
0000
3002
0000
0000
0000
,
0103
0000
0010
0000
1000
0000
0100
0000
0010
0000
0001
0000
1000
0000
0010
0000
0100
0000
0000
0000
0100
0010
0000
0000
0010
1000
0000
0000
1000
0100
0000
0000
,
0100
0010
0001
0000
1000
0000
0010
0000
0100
0010
1000
0000
0001
0000
0100
0000
,
0001
0010
0100
0000
1000
0000
0001
0000
0100
0010
1000
0000
0100
0000
0010
0000
,
0001
0000
1000
0000
0001
0000
1000
0000
0001
0000
1000
0000
0010
0100
0010
0100
,
0001
0000
0010
0000
1000
0000
0010
0001
0100
0000
0010
0000
1000
0000
0100
0001
,
0100
1000
0010
0100
0001
0010
0200
0000
,
1300
0000
0100
0000
0001
0000
0100
1000
0010
0000
0100
0000
0001
0000
0010
1000
,
0010
0000
0001
0000
0100
0000
0010
0000
1000
0100
0010
0001
0100
0010
1000
0001
,
0100
0000
0100
0000
0100
0000
0100
0000
0010
1000
0010
0100
0001
0010
0100
1000
,
0001
0000
0100
0000
0010
0000
1000
0000
0100
0000
0010
0000
0001
0010
0100
0000
,
1000
0000
1000
0000
0100
0010
0001
0100
0010
1000
0001
0100
0010
1000
0100
1000
,
0001
0000
0100
0000
0010
0000
0100
0000
0001
0000
0010
0000
0100
1000
0100
0000
,
1100
0000
0001
1000
0001
0000
0100
0000
1010
0000
0010
0100
0001
0000
1000
0000
,
1001
0000
0100
0000
0010
0000
0001
0000
0100
0010
1000
0001
0100
0000
0010
0000
,
1001
0000
0100
0000
0010
0000
0001
0000
0100
0010
1000
0001
0100
0000
0010
0000
,
1010
1000
0100
0010
1001
0010
0100
0001
,
0110
0010
0001
0100
1010
0100
0001
0010
,
0110
0001
1000
0010
1001
0100
0010
1000
,
1001
0101
0011
1010
,
0001
0010
0100
1000
0001
0100
0010
1000
0100
0010
0100
0010
0100
0010
0100
0010
,
0001
0010
0100
1000
0001
0100
0010
1000
0100
0010
0100
0010
0100
0010
0100
0010
,
0001
1000
0100
1000
0010
0100
0001
0010
0100
1000
0001
0100
0010
1000
0100
1000
,
0002
0000
0000
0000
0000
0000
0000
0000
2003
0000
0000
0000
0000
0000
3010
0100
,
0002
0000
0000
0000
,
0000
0000
0000
0000
,
0003
0000
0000
0000
;

//---------------dance-single - ----------------
#NOTES:
     dance-single:
     :
     Easy:
     8:
     0.422,0.573,0.145,0.818,0.000: // measure 1
0000
0000
0000
0000
,  // measure 2
0000
0000
0000
0000
,  // measure 3
0000
0000
0000
0000
,  // measure 4
0000
0000
0000
0000
,  // measure 5
1000
0100
0010
0001
,  // measure 6
2001
0000
3010
1000
,  // measure 7
0001
0200
0000
0000
,  // measure 8
0302
0000
0000
1003
,  // measure 9
0010
0200
0000
0000
,  // measure 10
0302
0000
2003
0000
,  // measure 11
3200
0320
0032
0000
,  // measure 12
0000
2003
3020
0230
,  // measure 13
0302
0013
0100
1000
,  // measure 14
2002
3003
0020
2030
,  // measure 15
3200
0000
0000
0000
,  // measure 16
0310
0001
1000
0010
,  // measure 17
0100
0200
0000
0000
,  // measure 18
0301
0100
0010
1000
,  // measure 19
0001
0002
0000
0000
,  // measure 20
2003
0000
3200
0000
,  // measure 21
0320
0000
0032
0000
,  // measure 22
2003
0000
3020
0000
,  // measure 23
0000
0130
2002
3003
,  // measure 24
0220
0330
2002
0000
,  // measure 25
3003
0010
2002
3003
,  // measure 26
0220
0330
2002
0000
,  // measure 27
3003
0000
0100
0001
,  // measure 28
0100
0001
0200
0000
,  // measure 29
0300
0000
0010
1000
,  // measure 30
0010
1000
0020
0000
,  // measure 31
0030
0000
1001
0000
,  // measure 32
0110
0000
0001
1000
,  // measure 33
0100
0000
0001
1000
,  // measure 34
0100
0000
0002
0000
,  // measure 35
2003
0000
3020
0000
,  // measure 36
0230
0000
0302
0000
,  // measure 37
0000
0000
2000
0000
,  // measure 38
3003
0000
0010
0100
,  // measure 39
0010
0100
2002
0000
,  // measure 40
3003
0000
0100
0010
,  // measure 41
0100
0010
2002
0000
,  // measure 42
3003
0000
0010
0000
,  // measure 43
1000
0000
0001
0010
,  // measure 44
0100
1000
0001
0100
,  // measure 45
0010
1000
0200
0000
,  // measure 46
0320
0000
0032
0000
,  // measure 47
2003
0000
3002
0000
,  // measure 48
0203
0000
0320
0000
,  // measure 49
1030
0000
0001
0010
,  // measure 50
0100
1000
0001
0100
,  // measure 51
0010
1000
0001
0001
,  // measure 52
1000
1000
0010
0100
,  // measure 53
0010
1000
0200
0300
,  // measure 54
0010
0001
2000
3000
,  // measure 55
0010
1000
0002
0003
,  // measure 56
0010
0100
2000
3000
,  // measure 57
0010
0100
0002
0003
,  // measure 58
0000
1000
0001
1000
,  // measure 59
0010
0100
0010
1000
,  // measure 60
0001
0010
2002
3003
,  // measure 61
0010
1000
0002
0000
,  // measure 62
0000
0000
0013
0100
,  // measure 63
0010
0001
1000
2000
,  // measure 64
0000
0000
3010
1000
,  // measure 65
0100
1000
0001
0002
,  // measure 66
0000
0000
0203
0000
,  // measure 67
0320
0000
2030
0000
,  // measure 68
3002
0000
2003
0000
,  // measure 69
3200
0000
0000
0000
,  // measure 70
0310
0001
0100
0010
,  // measure 71
2000
0000
0000
0000
,  // measure 72
3100
0010
0001
0100
,  // measure 73
0020
0000
1030
0000
,  // measure 74
0001
1000
0010
1000
,  // measure 75
0200
0000
0000
0000
,  // measure 76
0310
0001
1000
0001
,  // measure 77
0020
0000
0000
0000
,  // measure 78
0031
0000
1000
0000
,  // measure 79
0010
0100
0010
0000
,  // measure 80
0100
0010
0100
0000
,  // measure 81
0002
0000
0203
0000
,  // measure 82
0320
0000
2030
0000
,  // measure 83
3002
0000
0023
0000
,  // measure 84
0230
0000
1300
0000
,  // measure 85
0001
0100
0010
1000
,  // measure 86
0001
0010
0100
1000
,  // measure 87
0010
0010
0100
0100
,  // measure 88
0220
0330
2002
3003
,  // measure 89
0220
0000
0000
0000
,  // measure 90
0000
0000
0000
0000
,  // measure 91
0330
0000
0000
0000
;
