#TITLE:Canon-D;
#SUBTITLE:;
#ARTIST:BanYa;
#TITLETRANSLIT:;
#SUBTITLETRANSLIT:;
#ARTISTTRANSLIT:;
#CREDIT:;
#BANNER:Canon-D-bn.png;
#BACKGROUND:Canon-D-bg.png;
#LYRICSPATH:;
#CDTITLE:cdtitle.png;
#MUSIC:Canon-D.mp3;
#OFFSET:-0.096;
#SAMPLESTART:36.051;
#SAMPLELENGTH:17.940;
#SELECTABLE:YES;
#BPMS:0.000=160.000;
#STOPS:;
#BGCHANGES:-0.236=Canon-D.avi=1.000=0=0=0,
99999=-nosongbg-=1.000=0=0=0 // don't automatically add -songbackground-
;

//---------------dance-single - ----------------
#NOTES:
     dance-single:
     :
     Challenge:
     17:
     0.903,1.000,0.212,0.145,1.000: // measure 1
0000
0000
0000
0000
,  // measure 2
0000
0000
0000
0000
,  // measure 3
0000
0000
0000
0000
,  // measure 4
0000
0000
0000
0000
,  // measure 5
1001
0000
0000
0000
,  // measure 6
0000
0000
0000
0000
,  // measure 7
0200
0000
0000
0000
,  // measure 8
0300
0000
0000
0000
,  // measure 9
1001
0000
0000
0000
0100
0000
1000
0000
0100
0000
1000
0000
0010
1000
0010
1000
,  // measure 10
0100
0000
0000
0000
1000
0000
0001
0000
1000
0000
0001
0000
0100
0001
0100
0001
,  // measure 11
1000
0000
0000
0000
0010
0000
1000
0000
0010
0000
1000
0000
0001
0010
0001
0010
,  // measure 12
0100
0000
0000
0000
1000
0000
0100
0000
1000
0000
0100
0000
0010
0001
0010
0001
,  // measure 13
1000
0000
0000
0000
0010
0000
1000
0000
0010
0000
1000
0000
0001
0100
0001
0100
,  // measure 14
0010
0000
0000
0000
1000
0000
0001
0000
1000
0000
0001
0000
0100
0010
0100
0010
,  // measure 15
1000
0000
0000
0000
0100
0000
1000
0000
0100
0000
1000
0000
0001
0010
0001
0010
,  // measure 16
0100
0000
0000
0000
1000
0000
0100
0000
1000
0000
0100
0000
1000
0001
1000
0001
,  // measure 17
0100
0000
0000
0000
0010
0000
1000
0000
0100
1000
0001
0000
0001
0100
0010
0000
,  // measure 18
0010
1000
0100
0000
0100
0010
0001
0000
0001
1000
0100
0000
0100
1000
0001
0100
,  // measure 19
0010
1000
0001
0000
0001
1000
0100
0000
0100
1000
0010
0000
0010
0100
0001
0000
,  // measure 20
0001
0010
0100
0000
0100
1000
0010
0000
0010
0100
0001
0000
0001
0010
1000
0010
,  // measure 21
0001
0100
0010
0000
0010
1000
0100
0000
0100
1000
0010
0000
0010
0100
0001
0000
,  // measure 22
0001
1000
0100
0000
0100
1000
0010
0000
0010
0100
0001
0000
0001
0100
1000
0100
,  // measure 23
0001
0010
0100
0000
1000
0000
0001
0000
0100
0000
0000
0000
1100
0000
0000
0000
,  // measure 24
0010
0000
1000
0000
0100
0000
1000
0000
0100
0010
0001
0010
0100
1000
0010
0100
,  // measure 25
0001
0010
0001
0010
1000
0000
0000
0000
0001
0010
0001
0010
1000
0000
0000
0000
,  // measure 26
0001
0010
0001
0010
1000
0000
0010
0000
0001
0000
0100
0010
1000
0000
0100
0000
,  // measure 27
0202
0000
0000
0000
0000
0303
1000
0100
,  // measure 28
2000
0000
0000
0000
,  // measure 29
3100
0000
1000
0010
0100
0000
0001
0000
1000
0000
0000
0000
0010
0000
1000
0000
,  // measure 30
0002
0000
0013
0200
1000
0000
0310
0001
,  // measure 31
2000
0000
0000
3010
2000
0000
3002
0000
,  // measure 32
0203
0000
0000
0310
2000
0000
0000
0000
,  // measure 33
3001
0000
0000
0000
1000
0100
1000
0100
0001
0000
0000
0000
1000
0100
1000
0100
,  // measure 34
0001
1000
0010
0001
0100
0010
1000
0100
1000
0010
0100
0001
1000
0100
0010
0001
,  // measure 35
1000
0000
0000
0000
0001
0010
0001
0010
1000
0000
0000
0000
0001
0010
0001
0010
,  // measure 36
1000
0001
0100
1000
0010
0100
0001
0010
0001
0100
0010
1000
0001
0010
0001
0100
,  // measure 37
0010
0000
0000
0000
1000
0100
1000
0100
0010
0000
0000
0000
1000
0100
1000
0100
,  // measure 38
0010
0001
0100
0010
1000
0001
0010
0100
1000
0001
0100
0010
1000
0001
0010
0100
,  // measure 39
1000
0000
0000
0000
0001
0100
0001
0100
1000
0000
0000
0000
0001
0100
0001
0100
,  // measure 40
1000
0100
0001
0010
0100
1000
0010
0100
0001
0010
0100
1000
0010
1000
0001
0010
,  // measure 41
0200
0000
0000
0000
0000
0000
0000
0000
1300
0100
1000
0000
0001
0100
0001
0000
,  // measure 42
1000
0010
1000
0000
0001
0010
0001
0000
1000
0010
1000
0000
0001
0100
0001
0100
,  // measure 43
0020
0000
0000
0000
0000
0000
1030
0100
0010
0000
0000
0000
0001
0000
0000
0000
,  // measure 44
1000
0100
1000
0100
0001
0100
1000
0100
1000
0100
0001
0100
1000
0100
1000
0100
,  // measure 45
1000
0010
0001
0010
1000
0100
0010
0001
1000
0010
0001
1000
0100
0001
0010
0100
,  // measure 46
1000
0010
0100
0001
0010
1000
0010
0001
0100
0010
1000
0100
0010
0100
1000
0001
,  // measure 47
0100
0010
1000
0100
0010
0000
0001
1000
,  // measure 48
0100
0000
0000
1000
0000
0000
0010
0000
0100
0000
0000
0000
0001
0000
0000
0000
,  // measure 49
1000
0100
0010
0100
1000
0000
1100
0000
1010
0000
1001
0000
0100
0001
0100
0010
,  // measure 50
1000
0100
0010
0001
1000
0000
0101
0000
1001
0000
0110
0000
0010
1000
0100
1000
,  // measure 51
0010
1000
0100
0010
0001
0000
0011
0000
1001
0000
1100
0000
0100
1000
0010
0100
,  // measure 52
0001
1000
0100
0010
0001
0000
0110
0000
0011
0000
1100
0000
1000
0010
1000
0001
,  // measure 53
0100
0010
1000
0100
1000
0000
1001
0000
1100
0000
1001
0000
0010
0100
0001
0100
,  // measure 54
0010
1000
0001
1000
0001
0000
1100
0000
0101
0000
1010
0000
0001
0010
0100
1000
,  // measure 55
0001
0100
0001
0100
0001
0100
0010
1000
0010
1000
0010
1000
0001
1000
0001
1000
,  // measure 56
0100
0010
0100
0010
0100
0010
0100
0010
0100
1000
0010
0100
0001
0010
0100
1000
,  // measure 57
0001
0100
0001
0100
0001
0100
0010
1000
0001
0100
0001
0100
0001
0100
0010
1000
,  // measure 58
0001
0100
0001
0100
0001
0100
0010
1000
0001
0100
0010
1000
0001
0100
0010
1000
,  // measure 59
0001
0100
0001
0100
0001
0100
0001
0100
0010
1000
0100
0010
0001
1000
0100
0010
,  // measure 60
0002
0000
0000
0000
,  // measure 61
0103
0010
1000
0100
0010
0001
0100
0010
1000
0100
0001
1000
0010
0001
0100
0010
,  // measure 62
1000
0100
1000
0100
0010
0001
0100
0010
1000
0001
0010
1000
0010
0001
0100
0010
,  // measure 63
1000
0100
0010
0001
0100
1000
0100
0001
0010
0100
0010
0100
1000
0001
0100
0010
,  // measure 64
0100
0001
0010
1000
0001
0100
1000
0010
0100
0010
1000
0100
0010
0001
0100
0010
,  // measure 65
2000
0000
0000
0000
,  // measure 66
0000
0000
0000
0000
,  // measure 67
3000
0000
0000
0000
;

//---------------dance-single - ----------------
#NOTES:
     dance-single:
     :
     Hard:
     15:
     0.690,0.956,0.203,0.319,0.367: // measure 1
0000
0000
0000
0000
,  // measure 2
0000
0000
0000
0000
,  // measure 3
0000
0000
0000
0000
,  // measure 4
0000
0000
0000
0000
,  // measure 5
1001
0000
0000
0000
,  // measure 6
0000
0000
0000
0000
,  // measure 7
0020
0000
0000
0000
,  // measure 8
0030
0000
0000
0000
,  // measure 9
1100
0000
0010
1000
0001
0000
0020
0000
,  // measure 10
0130
0000
1000
0100
0020
0000
0031
0000
,  // measure 11
1001
0000
0010
1000
0001
0000
0200
0000
,  // measure 12
0310
0000
0100
0001
2000
0000
3100
0000
,  // measure 13
0011
0000
1000
0001
0100
0000
0020
0000
,  // measure 14
1030
0000
0100
1000
0002
0000
0103
0000
,  // measure 15
1001
0000
0010
1000
0100
0000
0020
0000
,  // measure 16
0031
0000
1000
0001
0200
0000
0310
0000
,  // measure 17
1000
0100
1000
0010
0100
0001
1000
0010
,  // measure 18
0100
0000
0001
0000
0100
0000
0010
0000
1000
0000
0000
0000
0001
0010
0001
0010
,  // measure 19
0001
0100
0010
0100
0001
0010
0100
1000
,  // measure 20
0010
0000
1000
0000
0100
0000
0010
0000
0001
0000
0000
0000
1000
0100
1000
0100
,  // measure 21
1000
0010
0100
0001
0010
0100
1000
0010
,  // measure 22
0010
0000
1000
0000
0100
0000
1000
0000
0010
0000
0100
0000
0001
0100
0001
0100
,  // measure 23
0001
0000
1000
0100
1100
0000
0101
0000
,  // measure 24
1000
0000
0001
0000
0100
0000
0010
0000
1000
0001
1000
0001
1000
0001
1000
0001
,  // measure 25
0100
0000
2001
0000
0000
3010
0000
1000
,  // measure 26
0100
0000
0000
0000
1000
0000
0001
0000
0100
0000
0010
1000
0001
0000
0100
0000
,  // measure 27
0020
0000
0130
0001
0100
0010
1000
0001
,  // measure 28
0020
0000
0130
0010
0001
0010
0100
0000
,  // measure 29
1000
0000
0000
0010
0000
0000
0100
0000
0002
0000
0000
0000
1003
0000
0100
0000
,  // measure 30
0020
0000
0031
2000
0100
0000
3010
1000
,  // measure 31
0100
0010
0001
0010
0100
1000
0020
0000
,  // measure 32
0230
0000
0301
0100
0020
0000
1030
0000
,  // measure 33
1001
0000
0010
1000
0001
0000
0010
1000
,  // measure 34
0001
0100
1000
0100
0001
0010
1000
0010
,  // measure 35
0002
0000
0103
0010
2000
0000
3100
1000
,  // measure 36
0010
0100
0001
0010
1000
0010
0001
1000
,  // measure 37
1001
0000
1000
0001
0100
0000
1000
0001
,  // measure 38
0100
0010
1000
0100
0001
1000
0010
0001
,  // measure 39
2000
0000
3010
1000
0200
0000
0310
0001
,  // measure 40
0100
0000
0010
0000
0100
0000
0001
0000
1000
0100
1000
0000
0010
0000
0100
0000
,  // measure 41
0002
0000
0000
0000
0000
0000
0000
0000
1003
0100
1000
0000
0010
1000
0010
0000
,  // measure 42
1000
0000
0100
0000
0010
0000
0001
0000
1000
0001
1000
0100
1000
0010
0100
0001
,  // measure 43
2000
0000
0000
0000
0000
0000
3010
0100
0002
0000
0000
0000
2003
0000
0000
0000
,  // measure 44
3001
0100
0001
0100
0010
0100
0001
0100
0001
0100
0010
0100
0001
0100
0001
0100
,  // measure 45
0010
1000
0010
1000
0100
0000
1000
0000
0010
0000
0100
0000
0001
0000
0010
0000
,  // measure 46
0100
0010
0100
0010
0001
0000
0010
0000
0100
0000
1000
0000
0010
0000
0100
0000
,  // measure 47
0001
1000
0001
1000
0010
0000
0100
0000
0002
0000
0000
0000
0000
0000
0013
0000
,  // measure 48
0100
0000
0000
1000
0000
0000
0010
0000
0100
0001
1000
0100
0010
0001
1000
0010
,  // measure 49
0100
0001
1001
0100
1000
1100
0010
1000
,  // measure 50
0001
0000
0100
0000
0101
0000
0010
0000
1000
0000
1010
0000
1000
0000
0001
0010
,  // measure 51
0100
1000
1100
0010
1000
1001
0010
1000
,  // measure 52
0001
0100
0101
0010
1000
1001
0100
1000
,  // measure 53
0010
0100
0010
0100
0010
0000
1000
0000
0001
0010
0001
0010
0001
0000
0100
0000
,  // measure 54
0010
1000
0010
1000
0100
0000
1000
0000
0010
0000
0100
0000
0001
0000
0010
0000
,  // measure 55
0100
1000
0100
1000
0100
1000
0001
1000
0001
1000
0001
1000
0010
1000
0010
1000
,  // measure 56
0001
0100
0001
0100
0001
0100
0001
0100
0010
1000
0100
0010
0001
0000
0002
0000
,  // measure 57
0000
0000
0000
0000
0000
0000
0103
0000
0010
0000
0100
0001
0000
0001
0010
0000
,  // measure 58
0200
0000
0000
0000
0000
0000
0310
0000
0001
0000
0010
0100
0000
0100
1000
0000
,  // measure 59
0020
0000
0000
1030
0100
1000
0010
0100
,  // measure 60
2002
0000
0000
3003
,  // measure 61
0010
1000
0010
0000
1000
0000
0001
0000
0100
0000
0101
0000
0010
0000
0100
0000
,  // measure 62
0001
1000
0001
0000
1000
0000
0100
0000
1000
0000
1100
0000
0010
0000
1000
0000
,  // measure 63
0001
0100
0001
0000
1000
0000
0010
0000
1000
0100
0010
0000
0001
0000
1000
0000
,  // measure 64
0010
0100
0010
0100
0001
0100
0001
0100
0010
1000
0100
0010
0001
0010
0100
1000
,  // measure 65
0020
0000
0000
0000
,  // measure 66
0000
0000
0000
0000
,  // measure 67
0030
0000
0000
0000
;

//---------------dance-single - ----------------
#NOTES:
     dance-single:
     :
     Medium:
     9:
     0.415,0.510,0.087,0.270,0.000: // measure 1
0000
0000
0000
0000
,  // measure 2
0000
0000
0000
0000
,  // measure 3
0000
0000
0000
0000
,  // measure 4
0000
0000
0000
0000
,  // measure 5
1001
0000
0000
0000
,  // measure 6
0000
0000
0000
0000
,  // measure 7
0200
0000
0000
0000
,  // measure 8
0300
0000
0000
0000
,  // measure 9
1001
0000
0100
1000
,  // measure 10
0010
0010
0100
0000
,  // measure 11
1001
0000
0100
0001
,  // measure 12
0010
0010
0100
0000
,  // measure 13
1100
0000
0010
1000
,  // measure 14
0001
0001
0100
0000
,  // measure 15
0101
0000
0010
1000
,  // measure 16
0001
0000
0001
0000
0010
0000
0000
0100
,  // measure 17
1000
1000
0001
0001
,  // measure 18
0100
0000
0100
0000
0010
0000
0000
0100
,  // measure 19
0001
0001
1000
1000
,  // measure 20
0100
0000
0100
0000
0010
0000
0000
0100
,  // measure 21
1000
0000
1000
0000
0001
0000
0000
0100
,  // measure 22
0001
0000
0001
0000
1000
0000
0000
0010
,  // measure 23
0100
0000
0000
0001
1000
0000
0100
0000
,  // measure 24
1000
0100
0010
0001
1000
0010
0100
0000
,  // measure 25
0002
0000
0103
0000
0010
0100
0001
0000
,  // measure 26
2000
0000
3100
0000
1000
0100
0010
0000
,  // measure 27
0002
0000
1003
0000
0010
1000
0100
0000
,  // measure 28
2000
0000
0000
0000
3100
1000
0010
0000
,  // measure 29
0100
0001
0100
0001
1000
0000
0010
0000
,  // measure 30
2000
0000
3001
0010
0100
0000
0000
1000
,  // measure 31
0100
0000
1000
0100
1000
0000
0001
0000
,  // measure 32
0200
0000
0000
0010
0020
0000
0330
0000
,  // measure 33
1001
0000
0100
1000
0001
0000
0100
1000
,  // measure 34
0001
0000
0100
0000
0010
1000
0010
1000
,  // measure 35
0001
0000
1000
0001
0100
0000
0010
0100
,  // measure 36
0010
2000
3200
0320
,  // measure 37
0031
0000
1000
0100
1000
0000
0001
0100
,  // measure 38
0010
0000
1000
0000
0001
0100
0010
0000
,  // measure 39
1000
0000
0100
0010
0001
0000
1000
0000
,  // measure 40
0020
2030
3002
0203
,  // measure 41
0320
0000
1030
0001
,  // measure 42
0010
0100
1000
0000
0010
0000
0100
0000
,  // measure 43
0002
0000
0000
1003
2000
0000
3100
0000
,  // measure 44
0010
0001
1000
0000
0010
0001
1000
0000
,  // measure 45
0100
1000
0100
1000
0010
1000
0001
0000
,  // measure 46
0100
0001
0100
0001
1000
0001
0100
0000
,  // measure 47
0010
0000
1000
0100
0020
0000
0000
0000
,  // measure 48
0031
1000
0220
0330
,  // measure 49
0001
0100
0010
0000
1000
0100
0000
0100
,  // measure 50
1000
0000
0010
0000
1000
0001
0100
0000
,  // measure 51
0010
1000
0100
0000
0010
0001
0000
0001
,  // measure 52
1000
0000
0010
0000
0100
0001
1000
0000
,  // measure 53
0010
1000
0010
0000
1000
0100
1000
0000
,  // measure 54
0001
0100
0001
0000
1000
0001
1000
0000
,  // measure 55
0010
1000
0010
0100
0001
1000
0100
0010
,  // measure 56
0001
0010
0100
1000
0010
0100
0001
0000
,  // measure 57
2000
0000
3100
1000
,  // measure 58
0002
0000
0103
0001
,  // measure 59
0020
0000
0000
0000
0130
1000
0010
0000
,  // measure 60
2002
0000
0000
3003
,  // measure 61
0010
0000
1000
0000
0100
0010
0001
0000
,  // measure 62
1000
0000
0000
0100
1000
0100
1000
0000
,  // measure 63
0010
0000
1000
0000
0001
0100
0010
0000
,  // measure 64
1000
0100
1000
0010
0100
0001
1000
0000
,  // measure 65
0202
0000
0000
0000
,  // measure 66
0000
0000
0000
0000
,  // measure 67
0303
0000
0000
0000
;

//---------------dance-single - ----------------
#NOTES:
     dance-single:
     :
     Beginner:
     4:
     0.164,0.216,0.048,0.000,0.000: // measure 1
0000
0000
0000
0000
,  // measure 2
0000
0000
0000
0000
,  // measure 3
0000
0000
0000
0000
,  // measure 4
0000
0000
0000
0000
,  // measure 5
1001
0000
0000
0000
,  // measure 6
0000
0000
0000
0000
,  // measure 7
0010
0000
0000
0000
,  // measure 8
0000
0000
0000
0000
,  // measure 9
0110
0000
0001
0000
,  // measure 10
0001
0000
1000
0000
,  // measure 11
0100
0000
1000
0000
,  // measure 12
1000
0000
0010
0000
,  // measure 13
0100
0000
0001
0000
,  // measure 14
0001
0000
1000
0000
,  // measure 15
0100
0000
0010
0000
,  // measure 16
0010
0000
0001
0000
,  // measure 17
1001
0000
0000
0000
,  // measure 18
0100
0000
1000
1000
,  // measure 19
1000
0000
0000
0000
,  // measure 20
0010
0000
0100
0100
,  // measure 21
0100
0000
0000
0000
,  // measure 22
0001
0000
0000
0000
,  // measure 23
1000
0000
0001
0000
,  // measure 24
1000
1000
1000
0000
,  // measure 25
0110
0000
0001
0000
,  // measure 26
1000
0000
0010
0010
,  // measure 27
0010
0000
0100
0000
,  // measure 28
0001
0000
0000
0000
,  // measure 29
1000
0000
1000
0000
,  // measure 30
0100
0000
0010
0000
,  // measure 31
0100
0000
1000
0000
,  // measure 32
0001
0000
0001
0000
,  // measure 33
0000
0100
0100
0000
,  // measure 34
0100
0000
0010
0010
,  // measure 35
0010
0000
1000
0000
,  // measure 36
1000
0000
0100
0000
,  // measure 37
0000
0010
0010
0000
,  // measure 38
0010
0000
0001
0000
,  // measure 39
0100
0100
0100
0000
,  // measure 40
0001
0001
0001
0000
,  // measure 41
1000
0000
0100
0000
,  // measure 42
0100
0000
0010
0000
,  // measure 43
0001
0000
1000
0000
,  // measure 44
0100
0100
0000
0000
,  // measure 45
1000
0000
1000
0000
,  // measure 46
0001
0000
0001
0000
,  // measure 47
0100
0000
0001
0000
,  // measure 48
0010
0010
0010
0000
,  // measure 49
0100
0000
0000
0000
,  // measure 50
1000
0000
0001
0000
,  // measure 51
0001
0000
0000
0000
,  // measure 52
0100
0000
0000
0000
,  // measure 53
0010
0000
0010
0000
,  // measure 54
1000
0000
1000
0000
,  // measure 55
0001
0000
1000
0000
,  // measure 56
0100
0100
0100
0100
,  // measure 57
0100
0000
0000
0000
,  // measure 58
1000
0000
0000
0000
,  // measure 59
0001
0000
0000
0000
,  // measure 60
1001
0000
0000
0000
,  // measure 61
0010
0000
0100
0000
,  // measure 62
0010
0000
0010
0000
,  // measure 63
1000
0000
1000
0000
,  // measure 64
0001
0001
0001
0000
,  // measure 65
0100
0000
0000
0000
;

//---------------dance-single - ----------------
#NOTES:
     dance-single:
     :
     Easy:
     6:
     0.287,0.350,0.068,0.135,0.000: // measure 1
0000
0000
0000
0000
,  // measure 2
0000
0000
0000
0000
,  // measure 3
0000
0000
0000
0000
,  // measure 4
0000
0000
0000
0000
,  // measure 5
1001
0000
0000
0000
,  // measure 6
0000
0000
0000
0000
,  // measure 7
0200
0000
0000
0000
,  // measure 8
0300
0000
0000
0000
,  // measure 9
1001
0000
0100
0001
,  // measure 10
1000
0000
0010
1000
,  // measure 11
1100
0000
0010
1000
,  // measure 12
0100
0000
0010
0001
,  // measure 13
0011
0000
0100
0001
,  // measure 14
1000
0000
0010
0100
,  // measure 15
0101
0000
0010
0001
,  // measure 16
1000
0000
0100
1000
,  // measure 17
0010
0000
1000
0000
,  // measure 18
0001
0000
0000
0000
0100
0000
0000
0010
,  // measure 19
0010
0000
0100
0000
,  // measure 20
0001
0000
0000
0000
1000
0000
0000
0100
,  // measure 21
0100
0000
0000
0000
1000
0000
0000
0001
,  // measure 22
0001
0000
0000
0000
0100
0000
0000
0010
,  // measure 23
0010
0000
0000
1000
1000
0000
0000
0000
,  // measure 24
0100
1000
0001
0000
,  // measure 25
0100
0001
1000
1000
,  // measure 26
0100
0000
1000
0010
,  // measure 27
0200
0000
0000
0301
,  // measure 28
0002
0000
0000
0000
,  // measure 29
0013
0100
0010
0010
,  // measure 30
0001
1000
1000
0000
,  // measure 31
0100
0000
1000
0010
,  // measure 32
0100
0000
0000
0010
0020
0000
0000
0000
,  // measure 33
1030
0100
1000
0100
,  // measure 34
0010
0001
1000
0010
,  // measure 35
0100
0001
0100
0001
,  // measure 36
1000
0010
0100
0001
,  // measure 37
0010
0100
0010
0100
,  // measure 38
1000
0010
0100
0001
,  // measure 39
1000
0100
1000
0100
,  // measure 40
0010
0001
1000
0010
,  // measure 41
0200
0000
0310
0100
,  // measure 42
0001
0001
1000
0000
,  // measure 43
0200
0000
0310
0000
,  // measure 44
0001
0010
0001
1000
,  // measure 45
0100
0100
1000
0010
,  // measure 46
0100
0100
0010
0000
,  // measure 47
1000
0000
0100
0100
0100
0000
0000
0000
,  // measure 48
1000
0001
0100
0000
,  // measure 49
0010
0000
1000
0000
0001
0001
0000
0000
,  // measure 50
0010
0001
0100
0100
,  // measure 51
0010
0000
1000
0000
0100
0100
0000
0000
,  // measure 52
1000
0010
0100
0001
,  // measure 53
1000
0000
1000
0000
0001
0001
0000
0000
,  // measure 54
0010
0010
0001
1000
,  // measure 55
0010
0000
0000
1000
0000
0000
0001
0000
,  // measure 56
0200
0000
0000
0000
0000
0000
0310
0020
,  // measure 57
0000
0000
1030
1000
,  // measure 58
2000
0000
3100
0100
,  // measure 59
0200
0000
0310
0000
,  // measure 60
2002
0000
0000
3003
,  // measure 61
0010
0000
0100
0000
0001
0001
0001
0000
,  // measure 62
0010
0000
0001
0000
1000
1000
1000
0000
,  // measure 63
0100
0000
1000
0000
0010
0010
0010
0000
,  // measure 64
0100
0000
0001
0000
1000
1000
0000
0000
,  // measure 65
0202
0000
0000
0000
,  // measure 66
0000
0000
0000
0000
,  // measure 67
0303
0000
0000
0000
;
