#TITLE:Beethoven Virus;
#SUBTITLE:;
#ARTIST:BanYa;
#TITLETRANSLIT:;
#SUBTITLETRANSLIT:;
#ARTISTTRANSLIT:;
#CREDIT:;
#BANNER:Beethoven Virus-banner.png;
#BACKGROUND:Beethoven Virus-bg.png;
#LYRICSPATH:;
#CDTITLE:cdtitle.png;
#MUSIC:Beethoven Virus.mp3;
#OFFSET:-0.249;
#SAMPLESTART:17.988;
#SAMPLELENGTH:18.000;
#SELECTABLE:YES;
#BPMS:0.000=162.000;
#STOPS:;
#BGCHANGES:-1.100=Beethoven Virus.avi=1.000=1=1=0,
99999=-nosongbg-=1.000=0=0=0 // don't automatically add -songbackground-
;

//---------------dance-single - ----------------
#NOTES:
     dance-single:
     :
     Beginner:
     3:
     0.187,0.293,0.180,0.000,0.000:
0000
0000
0000
0000
,
0000
0000
0000
0000
,
0000
0000
0000
0000
,
0000
0000
0000
0000
,
1001
0000
0001
0000
,
0100
0000
0000
0000
,
0010
0010
0010
0010
,
0010
0000
0000
0000
,
1000
0000
1000
0000
,
0001
0000
0001
0000
,
0100
0000
0100
0000
,
0100
0000
0000
0000
,
1001
0000
0010
0000
,
1000
0000
0000
0000
,
0001
0001
0001
0001
,
0001
0000
0000
0000
,
0010
0000
0010
0000
,
0100
0000
0100
0000
,
1000
0000
1000
0000
,
1000
0000
0000
0000
,
0001
0000
0100
0000
,
0010
0000
1000
1000
,
1000
0000
0100
0000
,
1000
0000
0001
0001
,
0001
0000
0100
0000
,
0010
0010
0010
0000
,
0010
0000
0100
0000
,
0001
0000
1000
0000
,
0100
0000
0000
0000
,
0010
0010
0010
0000
,
0010
0000
0001
0000
,
1000
1000
1000
0000
,
1000
0000
0000
0000
,
0010
0000
0100
0100
,
0100
0000
0000
0000
,
0001
0000
1000
0000
,
1001
0000
0000
0000
,
0110
0000
0000
0000
,
1001
0000
0000
0000
,
0110
0000
0000
0000
,
1001
0000
0000
0000
,
0110
0000
0000
0000
,
1001
0000
0000
0000
,
0110
0000
0000
0000
,
0000
0000
0000
0000
,
0000
1001
0000
1001
,
0000
1001
1001
0000
,
0100
0100
0100
0100
,
0100
0000
0000
0000
,
1000
0000
1000
0000
,
0001
0000
0001
0000
,
0100
0000
0100
0000
,
0100
0000
0000
0000
,
0000
1001
0000
1001
,
0000
1001
1001
0000
,
0010
0010
0010
0010
,
0010
0000
0000
0000
,
0100
0000
0100
0000
,
0001
0000
0001
0000
,
1000
0000
1000
0000
,
1000
0000
0000
0000
,
0100
0000
0100
0000
,
0010
0000
0010
0000
,
0001
0000
0001
0000
,
0001
0000
0000
0000
,
0100
0000
0000
0000
;

//---------------dance-single - ----------------
#NOTES:
     dance-single:
     :
     Medium:
     8:
     0.471,0.521,0.481,0.541,0.000:
0000
0000
0000
0000
,
0000
0000
0000
0000
,
0000
0000
0000
0000
,
0000
0000
0000
0000
,
2002
0000
3003
0100
0020
0000
0030
0100
,
0020
0000
1030
0001
,
1100
0101
0011
1010
,
2002
0000
0000
0000
3003
0000
1000
0100
,
0020
0000
0000
0000
0031
0000
0001
0100
,
0020
0000
0000
0000
1030
0000
0001
1000
,
0020
0000
0000
1030
2000
0000
0000
3001
,
0002
0000
0000
0103
,
2002
0000
3003
0010
0200
0000
0300
0010
,
0200
0000
0301
1000
,
0011
1010
1100
0101
,
2002
0000
0000
0000
3003
0000
0001
0010
,
0200
0000
0000
0000
1300
0000
1000
0010
,
0200
0000
0000
0000
0301
0000
1000
0001
,
0200
0000
0000
0301
0002
0000
0000
1003
,
2000
0000
0000
3010
,
0100
0001
1000
0100
,
0010
0001
0010
0000
0100
1000
0100
0000
,
0010
0001
1000
0010
,
0100
0001
0100
0000
0010
1000
0010
0000
,
0200
0301
2000
3100
,
0020
0031
2000
3010
,
0101
0101
1100
1100
,
0002
1003
2000
3001
,
0220
0000
0330
0000
1000
0100
0010
0000
,
0001
0100
0001
1000
0001
0010
0001
1000
,
0002
0000
0103
0010
,
1000
0100
1000
0010
1000
0001
1000
0100
,
2000
0000
3010
0100
,
0001
1000
1100
0101
,
2002
0000
3003
0000
0010
1000
0001
0000
,
0200
0000
0000
0000
,
0310
0100
0001
0010
,
0110
0010
0001
1000
,
1010
1000
0001
0100
,
0110
0000
0100
0000
0001
0010
0100
0000
,
1100
0010
0001
1000
,
0101
1000
0001
0100
,
1010
0001
0010
0001
,
1001
0110
1001
0000
,
0100
0100
0100
0100
,
0000
1001
0000
1001
,
0000
1001
1001
0000
,
1010
0101
0011
1100
,
2002
0000
0000
0000
3003
0000
0010
1000
,
0020
0000
0000
0000
1030
0000
0001
0100
,
0002
0000
0000
0000
0103
0000
0001
1000
,
0200
0000
0000
0310
0020
0000
0000
0031
,
0002
0000
0000
1003
,
0000
1001
0000
1001
,
0000
1001
1001
0000
,
0101
1010
1100
0011
,
2002
0000
0000
0000
3003
0000
0100
0001
,
0200
0000
0000
0000
0301
0000
1000
0010
,
2000
0000
0000
0000
3010
0000
1000
0001
,
0020
0000
0000
0130
0200
0000
0000
1300
,
2000
0000
0000
3001
,
0120
0000
0000
0000
1030
0000
0001
0010
,
0200
0000
0000
0000
1300
0000
0010
1000
,
0002
0000
0000
0103
0200
0000
0000
0310
,
0020
0000
0000
0000
,
1030
0000
0000
0000
;

//---------------dance-single - ----------------
#NOTES:
     dance-single:
     :
     Hard:
     12:
     0.575,0.651,0.380,0.300,0.000:
0000
0000
0000
0000
,
0000
0000
0000
0000
,
0000
0000
0000
0000
,
0001
0000
0001
0000
0001
0010
0100
1000
,
2001
0000
0000
3010
0200
0000
0000
0301
,
0020
0000
0000
0000
0130
0010
0001
1000
,
1010
0101
0011
1100
,
2002
0000
0000
0000
3003
0000
0010
1000
,
0002
0000
0000
0000
1003
0000
0100
0001
,
2000
0000
3010
1001
,
1000
0100
0001
0010
1000
0100
0001
0010
,
2000
0000
0000
3001
,
0210
0000
0000
1300
0002
0000
0000
0103
,
0020
0000
0000
0000
1030
0010
0100
0001
,
1001
1100
0011
1010
,
0202
0000
0000
0000
0303
0000
1000
0001
,
0200
0000
0000
0000
0310
0000
0001
1000
,
0200
0000
0310
1001
,
0001
0100
1000
0010
0001
0100
1000
0010
,
0002
0000
0000
1003
,
0010
1000
0010
1000
0100
1000
0100
1000
,
0001
0100
0010
1000
0100
0010
0001
1000
,
0010
0100
0010
0100
0001
0010
0001
0010
,
0100
1000
0010
0100
0001
0010
0100
1000
,
0010
0100
0010
0100
0001
1000
0001
1000
,
0010
1000
0100
0010
0001
0100
1000
0100
,
0010
1000
0010
1000
0001
0100
0001
0100
,
0010
1000
0100
0010
0001
1000
0010
0100
,
2002
0000
3003
0000
0010
1000
0001
0000
,
1000
0100
0001
0100
1000
0100
0001
0100
,
2000
0000
3010
1000
,
0001
0010
1000
0010
0001
0010
1000
0010
,
0002
0000
0103
0010
,
1001
0000
0110
0000
0001
0010
0100
1000
,
0002
0000
1003
0010
,
1000
0010
0100
0001
0100
0010
1000
0000
,
0101
0010
1000
0010
1000
0010
1000
0010
,
1100
0010
0001
0010
0001
0010
0001
0010
,
1001
0100
0010
0100
0010
0100
0010
0100
,
0101
0010
1000
0010
1000
0010
1000
0010
,
0110
0001
1000
0001
1000
0001
1000
0001
,
1100
0010
0001
0010
0001
0010
0001
0010
,
1100
0001
0100
0010
1000
0100
0010
0001
,
1000
0010
0100
0001
1000
0000
0000
0000
,
1001
0110
1001
0110
,
0000
1001
0000
1001
,
0000
1001
1001
0000
,
0010
1000
0001
0100
0010
1000
0001
0100
,
0002
0000
0000
0000
0000
0000
1003
0100
,
0020
0000
0000
0000
0031
0000
0001
0100
,
0020
0000
1030
1001
,
0001
0100
1000
0010
0001
0100
1000
0010
,
0002
0000
0000
1003
,
0001
1001
0000
1001
,
0000
1001
1001
0000
,
0010
0100
0010
0001
1000
0010
0100
0001
,
2000
0000
0000
0000
0000
0000
3100
1000
,
0020
0000
0000
0000
0130
0000
0001
0010
,
0200
0000
0310
1001
,
1000
0010
0001
0100
1000
0010
0001
0100
,
2000
0000
0000
3001
,
1000
0100
0001
0010
1000
0100
0001
0010
,
1000
0100
0001
0010
1000
0100
0001
0010
,
1000
0100
0001
0010
1000
0100
0001
0010
,
2000
0000
0000
0000
,
3001
0000
0000
0000
;

//---------------dance-single - ----------------
#NOTES:
     dance-single:
     :
     Challenge:
     16:
     0.884,1.000,0.240,0.150,0.766:
0000
0000
0000
0000
,
0000
0000
0000
0000
,
0000
0000
0000
0000
,
0010
0000
0010
0000
0010
1000
0100
0010
,
1001
0100
0010
1000
0100
0010
0001
1000
,
0010
0000
0100
0000
0001
0000
1000
0000
0100
0000
1000
0100
0010
0001
1000
0010
,
0100
0101
1000
1100
,
1001
0010
0100
1000
0010
0100
0001
0001
,
0001
0010
0100
1000
0010
0100
0010
0010
,
0010
0100
0001
0010
0100
1000
0010
0100
,
0001
0010
0001
0010
0100
1000
0010
0100
0001
0010
0001
0010
0100
1000
0010
0100
,
0002
0000
0000
0000
0000
0000
0000
0000
1003
0000
0010
1000
0100
0010
0001
1000
,
0010
0100
0001
0010
1000
0010
0100
1000
,
0010
0000
0100
0000
0001
0000
1000
0000
0010
0000
0100
0001
0010
0100
1000
0001
,
0100
0110
1000
1010
,
1001
0010
0001
0100
0010
1000
0100
0100
,
0100
0010
0001
1000
0100
1000
0010
0010
,
0010
0100
0001
0010
0100
0010
0001
1000
,
0010
1000
0010
1000
0100
0010
0001
0100
0010
1000
0010
1000
0100
0010
0001
1000
,
0020
0000
0000
0000
0000
1030
0001
1000
,
0010
0100
0001
0010
0100
0010
0001
1000
,
0010
0000
0000
0100
0001
0100
0001
0000
0000
1000
0000
0000
0100
0000
0000
0010
0000
0000
0001
0000
0000
1000
0000
0000
,
0010
0100
0001
0010
0100
0010
0001
1000
,
0010
0000
0000
1000
0100
1000
0100
0000
0000
0010
0000
0000
0001
0000
0000
0100
0000
0000
0001
0000
0000
0010
0000
0000
,
0100
1000
0010
0100
0001
0010
0100
0010
,
0001
0000
0000
0100
0010
0100
0010
0000
0000
1000
0000
0000
0100
0000
0000
1000
0000
0000
0010
0000
0000
0100
0000
0000
,
0001
0010
0100
0010
0001
1000
0010
0100
,
0001
0000
0000
0000
0000
0000
1000
0000
0010
0000
1000
0000
0010
0000
0000
0000
0000
0000
0100
0000
0000
0000
0000
0000
0001
0000
0000
0000
0000
0000
0010
0000
0000
0100
0000
0000
0010
0000
0000
0001
0000
0000
1000
0000
0000
0010
0000
0000
,
0200
0000
0000
0000
0000
0000
0301
0010
0100
0000
0010
0000
0001
0000
0000
0000
,
1000
0010
1000
0010
0100
0001
0100
0001
1000
0100
1000
0100
0010
0001
0010
0001
,
2000
0000
0000
0000
0000
0000
3001
0100
0010
0000
1000
0000
0100
0000
0010
0000
,
0001
0010
0001
0010
0100
1000
0100
1000
0001
0100
0001
0100
0010
1000
0010
1000
,
0002
0000
0000
0000
0000
0000
1003
0100
1000
0010
0100
0001
0010
0100
1000
0001
,
0100
0000
0010
1000
0001
0000
0010
0000
0001
0000
0100
0000
0010
0000
1000
0000
,
0002
0000
0000
0000
0000
0000
1003
0100
1000
0000
0010
0000
0100
0000
0001
0000
,
1000
0100
0010
0001
0010
0100
1000
0100
0010
0001
0010
0100
1000
0100
0010
0001
,
0100
0010
1000
0100
0010
0001
1000
0010
,
1010
0010
0100
0001
0010
0100
1000
0001
,
1001
0001
0100
0010
1000
0001
0010
0100
,
0110
0000
0100
0000
0010
0000
0001
0000
1000
0010
0100
0001
0010
0100
1000
0001
,
1000
0010
0100
0001
0010
0100
1000
0010
,
1010
1000
0010
0100
0001
0010
0100
0010
,
0001
0100
1000
0100
0010
1000
0100
0010
0001
1000
0010
0100
0010
1000
0001
0010
,
0100
1000
0001
0100
1000
0100
0001
1000
0010
0000
0000
0000
0000
0000
0000
0000
,
1100
0000
0011
0000
0101
0000
1010
1000
,
0001
0000
0110
1000
0001
0000
0110
0001
,
1000
0000
0000
0000
0110
0000
0000
0000
1001
0000
0001
0010
0100
1000
0001
0100
,
0001
1000
0010
0100
0001
1000
0010
0100
0001
1000
0010
0100
0001
1000
0010
0100
,
0002
0000
0000
0000
0000
0000
0013
0100
,
2000
0000
0000
0000
3001
0100
0010
0100
,
0002
0000
0000
0000
0103
0010
1000
0001
,
1000
0100
1000
0100
0010
0001
0100
0010
1000
0100
1000
0100
0010
0001
0100
0010
,
2000
0000
0000
0000
0000
0000
0000
0000
3001
0000
0100
0001
0010
0100
1000
0001
,
0100
0000
0110
0001
1000
0000
0110
1000
,
0001
0000
0000
0000
0110
0000
0000
0000
1001
0000
1000
0100
0010
0001
1000
0010
,
1000
0001
0100
0010
1000
0001
0100
0010
1000
0001
0100
0010
1000
0001
0100
0010
,
2000
0000
0000
0000
0000
0000
3100
0010
,
0002
0000
0000
0000
1003
0010
0100
0010
,
2000
0000
0000
0000
3010
0100
0001
1000
,
0001
0010
0001
0010
0100
1000
0010
0100
0001
0010
0001
0010
0100
1000
0010
0100
,
0002
0000
0000
0000
0000
0000
0000
0000
1003
0000
0010
1000
0100
0010
0001
1000
,
0010
0100
0010
0100
0010
0100
0010
0100
0001
0010
0100
1000
0001
0100
0010
1000
,
0001
0100
0001
0100
0001
0100
0001
0100
0010
1000
0100
0010
0001
0010
0100
1000
,
0001
0100
0010
1000
0001
0100
0010
1000
0001
0100
0010
1000
0001
0100
0010
1000
,
0002
0000
0000
0000
1000
1000
1000
1003
,
0110
0000
0000
0000
;

//---------------dance-single - ----------------
#NOTES:
     dance-single:
     :
     Easy:
     5:
     0.279,0.455,0.300,0.440,0.000:
0000
0000
0000
0000
,
0000
0000
0000
0000
,
0000
0000
0000
0000
,
0000
0000
0000
0000
,
2002
3003
0200
0300
,
0020
0000
0030
0000
,
0001
0010
0001
1000
,
0200
0000
0000
0300
,
2000
0000
3100
0000
,
0002
0000
0103
0000
,
2000
0000
0000
0000
3002
0000
0000
0003
,
0200
0000
0300
0000
,
2002
3003
0020
0030
,
2000
0000
3000
0000
,
0100
1000
0001
0100
,
0020
0000
0000
0030
,
2000
0000
3010
0000
,
0002
0000
0013
0000
,
0200
0000
0320
0000
,
2030
0000
0000
0000
,
3001
0000
1000
0000
,
0010
0010
0010
0000
,
1000
0000
0001
0000
,
0100
0100
0100
0000
,
0001
0000
0010
0000
,
0001
0001
0001
0000
,
1000
0000
0010
0000
,
1000
1000
1000
0000
,
0220
0000
0000
0330
,
0001
0010
0100
1000
,
0001
0000
1000
0000
,
0010
0100
0010
0000
,
2000
0000
3000
0000
,
0100
0100
0100
0000
,
0010
0000
0001
0000
,
2002
0000
0000
3003
,
0110
0000
0000
0000
,
1010
0000
0000
0000
,
1100
0000
0000
0000
,
0101
0000
0000
0000
,
1001
0000
0000
0000
,
0011
0000
0000
0000
,
1001
0000
0000
0000
,
0110
0000
0000
0000
,
1000
1000
0001
0001
,
0000
1001
0000
1001
,
0000
1001
1001
0000
,
0110
0110
0110
0110
,
0220
0000
0000
0330
,
0002
0000
0013
0000
,
2000
0000
3010
0000
,
0002
0000
2003
0000
,
3200
0000
0000
0300
,
0000
1001
0000
1001
,
0000
1001
1001
0000
,
0110
0110
0110
0110
,
0220
0000
0000
0330
,
2000
0000
3100
0000
,
0002
0000
0103
0000
,
2000
0000
3020
0000
,
0230
0000
0300
0000
,
0002
0000
0013
0000
,
2000
0000
3010
0000
,
0002
1000
2003
0010
,
3020
0000
0000
0000
,
0130
0000
0000
0000
;
