#TITLE:BAROQUE VIRUS;
#SUBTITLE:;
#ARTIST:ZIRCON;
#TITLETRANSLIT:;
#SUBTITLETRANSLIT:;
#ARTISTTRANSLIT:;
#CREDIT:;
#BANNER:Baroque Virus-bn.png;
#BACKGROUND:Baroque Virus-bg.png;
#LYRICSPATH:;
#CDTITLE:cdtitle.png;
#MUSIC:Baroque Virus.mp3;
#OFFSET:-0.262;
#SAMPLESTART:67.800;
#SAMPLELENGTH:9.980;
#SELECTABLE:YES;
#BPMS:0.000=135.000,120.000=67.500,128.000=135.000,220.000=67.500;
#STOPS:;
#BGCHANGES:-0.400=Baroque Virus.avi=1.000=1=1=0,
99999=-nosongbg-=1.000=0=0=0 // don't automatically add -songbackground-
;

//---------------dance-single - ----------------
#NOTES:
     dance-single:
     :
     Beginner:
     2:
     0.108,0.149,0.017,0.085,0.000:
0000
0000
0000
0000
,
0000
0000
0000
0000
,
0000
0000
0000
0000
,
0000
0000
0000
0200
,
0300
0000
0000
0000
,
0000
0000
0000
0000
,
0000
0000
0000
0000
,
0000
0000
0000
0000
,
1000
0000
1000
0000
,
0100
0000
0100
0000
,
1000
0000
0000
0000
,
0001
0000
0000
0000
,
0100
0000
0100
0000
,
0010
0000
0010
0000
,
0100
0000
0000
0000
,
0001
0001
0001
0000
,
1001
0000
0000
0000
,
0100
0000
0000
0000
,
1000
0000
0001
0000
,
0100
0000
0010
0010
,
0010
0000
0000
0000
,
1000
0000
0000
0000
,
0001
0000
0001
0000
,
0001
0000
0000
0000
,
2000
0000
0000
0000
,
3000
0000
0000
0000
,
0020
0000
0030
0000
,
0200
0000
0300
0000
,
2002
0000
3003
0000
,
0020
0000
0030
0000
,
0000
0000
0000
0000
,
0000
0000
0000
0000
,
0100
0000
0000
0000
,
0001
0000
0001
0000
,
0001
0000
0000
0000
,
1000
0000
0000
0000
,
0010
0000
0010
0000
,
0010
0000
0010
0000
,
1000
0000
1000
0000
,
1000
0000
1000
0000
,
0001
0000
0001
0000
,
0001
0000
0001
0000
,
0100
0000
0100
0000
,
0100
0000
0100
0000
,
0001
0000
0001
0000
,
0010
0000
0100
0000
,
0100
0000
0100
0000
,
1000
0000
1000
1000
,
1000
0000
0000
0000
,
0001
0000
0100
0000
,
0020
0030
0000
0000
,
2000
3000
0000
0000
,
0001
0000
0001
0000
,
0100
0000
0100
0000
,
0020
0000
0000
0000
,
0030
0000
0000
0000
,
0000
0000
1000
0000
,
0100
0000
0010
0000
,
0001
0001
0000
0000
;

//---------------dance-single - ----------------
#NOTES:
     dance-single:
     :
     Medium:
     8:
     0.405,0.399,0.162,0.580,0.000:
0000
0000
0000
0000
,
0000
0000
0000
0000
,
0000
0000
0000
0000
,
0000
0000
0000
0200
,
0301
0001
1000
1000
,
0010
0100
0010
0000
1000
0100
1000
0000
,
0001
0001
1000
1000
,
0001
0100
0001
0100
0001
0000
1000
0000
,
0110
0000
1000
0000
0001
1000
0100
0000
,
0010
0000
0001
0000
1000
0001
0100
0000
,
0020
1030
0200
0310
,
0002
0000
1003
0000
0100
1000
0100
0010
,
0001
0100
1000
1100
,
0010
0001
0100
0101
,
1000
0000
0001
0000
0010
0100
1000
0000
,
0010
0100
0010
0100
0001
0000
1000
0000
,
0210
0000
0310
0100
,
0002
0000
0000
0000
0103
0000
0010
1000
,
0200
0000
0000
0000
1300
0100
0010
0000
,
0001
1001
0101
1100
,
0010
0000
0010
1000
0100
1000
0010
0000
,
0100
0000
0100
0001
0100
0010
1000
0000
,
0002
0000
1003
0100
2000
0000
3010
0100
,
0020
1030
0001
0011
,
2001
0000
0100
0100
,
0010
0010
0100
3001
,
0020
0100
0001
0130
,
2000
0100
0100
3010
,
0102
0100
0000
0103
,
2001
0100
0000
3100
,
0020
0000
0032
0000
,
0203
0000
0000
0000
0310
1000
0010
0010
,
1000
0101
1000
0101
,
1000
0011
1000
0011
,
0100
1010
0100
1010
,
0100
0001
1000
0000
0100
1000
0001
0000
,
0200
0000
0310
0200
0000
0310
0200
0000
,
0310
0200
0000
0310
0200
0000
0301
0000
,
2000
0000
3100
2000
0000
3100
2000
0000
,
3100
2000
0000
3100
2000
0000
3010
0000
,
0002
0000
0103
0002
0000
0103
0002
0000
,
0103
0002
0000
0103
0002
0000
1003
0000
,
0020
0000
0130
0020
0000
0130
0020
0000
,
0130
0020
0000
0130
0020
0000
0130
0000
,
0002
0000
0013
0002
0000
0103
0002
0000
,
1003
0002
0000
0013
0002
0000
1003
0000
,
0200
0000
0310
0200
0000
1300
0200
0000
,
0310
0200
0000
1300
0200
0000
1300
0000
,
0020
0000
1030
0020
0000
0130
0020
0000
,
1030
0020
0000
0130
0020
0000
1030
0000
,
0002
0000
0013
0002
0000
0103
0002
0000
,
0013
0002
0000
0103
0002
0000
1003
0000
,
0010
1100
0010
0101
,
1000
0001
1000
0001
0100
0010
1000
0100
,
0002
0000
0000
0000
,
0003
0000
0000
0000
,
0000
2000
3020
0230
,
0320
2030
3200
0320
,
0032
2000
3003
0000
;

//---------------dance-single - ----------------
#NOTES:
     dance-single:
     :
     Hard:
     11:
     0.488,0.524,0.068,0.358,0.030: // measure 1
0000
0000
0000
0000
,  // measure 2
0000
0000
0000
0000
,  // measure 3
0000
0000
0000
0000
,  // measure 4
0000
0000
0000
0200
,  // measure 5
0301
0001
0100
0100
0010
0010
1000
0000
,  // measure 6
0100
0100
1000
1000
0001
0001
0100
0000
,  // measure 7
0001
0001
1000
1000
0100
0100
0010
0000
,  // measure 8
0001
1000
0001
1000
0010
0100
0001
0000
,  // measure 9
1100
0001
1000
0000
0010
1000
0001
0000
,  // measure 10
0100
0001
1000
0000
0100
0010
0001
0010
,  // measure 11
0100
1000
0010
0000
1000
0001
0100
0000
,  // measure 12
0010
1000
0100
1000
0001
0010
0100
0010
,  // measure 13
0002
0000
0103
0010
0100
0001
1000
0000
,  // measure 14
0100
0011
0100
0011
,  // measure 15
1000
0000
0001
0100
0010
0010
1000
0000
,  // measure 16
0100
1000
0100
1000
0010
0100
0001
0000
,  // measure 17
2001
0000
0100
0000
0010
0000
3010
1000
,  // measure 18
0002
0000
0100
0000
0010
0000
1003
0100
,  // measure 19
0020
0000
0031
0010
0100
1000
0010
0100
,  // measure 20
0020
1030
1100
0101
,  // measure 21
2000
0000
3010
1000
0001
0010
0100
0010
,  // measure 22
0002
0000
0103
0010
0100
0001
0010
0100
,  // measure 23
2000
0000
0000
3010
0200
0000
0000
0301
,  // measure 24
0020
0000
0100
0000
0031
1000
0001
1000
,  // measure 25
0110
0000
0001
0100
1000
0000
0001
0100
,  // measure 26
1000
0000
0010
1000
0100
0000
0010
1000
,  // measure 27
0100
0000
1000
0100
0001
0000
1000
0100
,  // measure 28
0001
0000
0010
0001
0100
0000
0010
0001
,  // measure 29
0200
0000
0000
0310
,  // measure 30
0002
0000
0000
0103
,  // measure 31
0020
0000
1030
0001
0200
0000
0301
0010
,  // measure 32
0200
0000
0000
0000
1300
0000
0010
0000
0100
0001
0100
0001
0100
0001
0100
0001
,  // measure 33
1000
0000
1100
0000
0010
1000
0100
0000
,  // measure 34
0001
0010
1000
0010
0001
0010
1000
0010
,  // measure 35
0000
0001
0100
1000
0100
0001
0100
1000
,  // measure 36
0000
0100
0001
0000
1000
0100
0001
0000
,  // measure 37
2000
0100
3100
0020
0001
0031
0200
0010
,  // measure 38
0310
2000
0001
3001
0010
0100
1000
0010
,  // measure 39
0200
0001
0301
2000
0100
3100
0020
0001
,  // measure 40
0031
2000
0010
3010
0100
0001
0010
0100
,  // measure 41
2000
0100
3100
0002
0100
0103
2000
0010
,  // measure 42
3010
0002
0010
0013
1000
0010
0100
0001
,  // measure 43
2000
0100
3100
0002
0100
0103
2000
0010
,  // measure 44
3010
0002
0010
0013
1000
0100
0010
0001
,  // measure 45
1000
0010
0001
1000
0100
0001
1000
0010
,  // measure 46
0001
1000
0100
0001
1000
0100
0010
0001
,  // measure 47
0001
0100
1000
0001
0010
1000
0001
0100
,  // measure 48
1000
0001
0010
1000
0001
0010
0100
1000
,  // measure 49
0100
0100
1000
0010
0100
0001
0010
1000
,  // measure 50
0010
0001
1000
0100
0001
0100
1000
0010
,  // measure 51
0100
0100
1000
0100
0001
0010
0001
1000
,  // measure 52
0001
0010
0100
1000
0010
0100
0001
1000
,  // measure 53
0100
0010
0001
1000
0010
0100
0001
0010
,  // measure 54
0100
1000
0100
0000
1000
0000
1000
0000
0001
0100
0001
0000
1000
0000
1000
0000
,  // measure 55
0000
0020
0000
0000
0000
0000
0000
0000
0000
0000
0000
0000
0000
0000
0000
0000
0000
0000
0000
0000
0000
0000
0000
0000
0000
0000
0000
0000
0000
0000
0000
0000
0000
0000
0000
0000
0000
0000
0000
0000
0000
0000
0000
0000
0000
0000
0000
0000
0000
0000
0000
0000
0000
0000
0000
0000
0000
0000
0000
0000
0000
0000
0000
0000
0000
0000
0000
0000
0000
0000
0000
0000
0000
0000
0000
0000
0000
0000
0000
0000
0000
0000
0000
0000
0000
0000
0000
0000
0000
0000
0000
0000
0000
0000
0000
0000
0000
0000
0000
0000
0000
0000
0000
0000
0000
0000
0000
0000
0000
0000
0000
0000
0000
0000
0000
0000
0000
0000
0000
0000
0000
0000
0000
0000
0000
0000
0000
0000
0000
0000
0000
0000
0000
0000
0000
0000
0000
0000
0000
0000
0000
0000
0000
0000
0000
0000
0000
0000
0000
0000
0000
0000
0000
0000
0000
0000
0000
0000
0000
0000
0000
0000
0000
0000
0000
0000
0000
0000
0000
0000
0000
0000
0000
0000
0000
0000
0000
0000
0000
0000
0000
0000
0000
0000
0000
0000
0000
0000
0000
0000
0000
0000
,  // measure 56
0030
0000
0000
0000
,  // measure 57
0000
2000
3200
0320
,  // measure 58
0032
0203
2300
3200
,  // measure 59
0302
0020
0033
0000
;

//---------------dance-single - ----------------
#NOTES:
     dance-single:
     :
     Easy:
     5:
     0.235,0.374,0.034,0.299,0.000:
0000
0000
0000
0000
,
0000
0000
0000
0000
,
0000
0000
0000
0000
,
0000
0000
0000
0200
,
0301
0000
0000
0000
,
1000
0000
0110
0000
,
0001
0000
0000
0000
,
1001
0000
0000
0000
,
0100
0010
0000
1000
,
0000
0001
0100
0001
,
0000
0010
0000
0100
,
0000
1000
0100
0010
,
0001
0000
1000
0001
,
0100
0000
0010
1000
,
0100
0000
0010
0000
,
0001
1000
0001
0100
,
0120
0000
0030
0000
,
2000
0000
3000
0000
,
0200
0300
0010
0001
,
1000
0000
0002
2003
,
3010
0000
0100
0100
,
0002
0003
0010
0010
,
0200
0300
2000
3000
,
0020
0000
1030
0001
,
0100
0010
0100
0001
,
1000
0100
0100
0000
,
1000
0010
1000
0001
,
0001
0010
0001
0000
,
0200
0000
0000
0310
,
2000
0000
0000
3000
,
0002
0000
2003
0000
,
3200
0000
0320
0000
,
0031
0000
0100
0001
,
1000
0000
0100
1000
,
0010
0000
1000
1000
,
0100
0000
1000
0000
,
0001
0100
0001
0100
,
0001
0100
0001
1000
,
0010
0100
0010
0100
,
0010
0100
0010
1000
,
0001
0010
0001
0010
,
0001
0010
0001
1000
,
0100
0010
0100
0010
,
0100
0010
0100
1000
,
0020
0130
0000
0001
,
0000
1000
0100
0100
,
2000
3010
0000
1000
,
0000
0001
0010
0010
,
0200
1300
0000
0010
,
0000
1000
0001
0001
,
0200
0310
0000
0100
,
0000
0001
1000
1000
,
0020
0130
0020
0130
,
0002
1003
0002
1003
,
0220
0000
0000
0000
,
0330
0000
0000
0000
,
0000
2000
3200
0320
,
0032
0023
0230
2300
,
3200
0320
0030
0000
;

//---------------dance-single - ----------------
#NOTES:
     dance-single:
     :
     Challenge:
     16:
     0.787,0.824,0.034,0.196,0.990:
0000
0000
0000
0000
,
0000
0000
0000
0000
,
0000
0000
0000
0000
,
0000
0000
0000
0200
,
0301
1000
0001
1000
0100
1000
0100
1000
0010
1000
0010
1000
0100
1000
0100
1000
,
0001
1000
0001
1000
0100
1000
0100
1000
0010
1000
0100
1000
0010
1000
0100
1000
,
0001
1000
0001
1000
0100
1000
0100
1000
0010
1000
0100
1000
0010
1000
0100
1000
,
0001
0100
0001
0100
0001
0100
0001
0100
0010
1000
0010
1000
0100
1000
0100
1000
,
0001
0010
1000
0010
0010
0001
1000
0100
,
0001
1000
0010
0001
1000
1000
0010
0100
,
0010
0001
0001
1000
1000
0100
0100
0001
,
0010
0100
1000
0010
0100
0010
0001
1000
,
0100
0001
1000
1000
0100
0001
0100
1000
,
1000
0010
0001
1000
0100
0001
0010
0100
,
1000
0001
0100
0100
0010
1000
0001
0010
,
0100
1000
0100
1000
0100
1000
0100
1000
0010
0100
0000
0100
0001
1000
0010
0100
,
0002
0000
0000
0000
0100
0000
0000
0000
1000
0000
0000
0000
0013
0000
0100
1000
,
0200
0000
0000
0000
1000
0000
0000
0000
0010
0000
0000
0000
1300
0000
0001
1000
,
0002
0000
0103
0010
1000
0100
0010
0001
,
2000
3100
0110
1001
,
0200
0001
0310
0100
0001
0010
0100
1000
,
0020
1000
0130
0001
1000
0100
0010
0001
,
2000
0100
3010
0100
0002
0010
1003
0100
,
0020
0000
1000
0000
0100
0000
0031
0000
1000
0100
0010
0001
0100
0010
1000
0001
,
0100
0000
0010
1000
0010
0000
0100
0000
0001
0000
0010
0100
0010
0000
0001
0000
,
1000
0000
0100
0010
0100
0000
1000
0000
0001
0000
0100
1000
0100
0000
0010
0000
,
1000
0000
0001
0010
0001
0000
1000
0000
0100
0000
0010
0001
0010
0000
0100
0000
,
1000
0000
0001
0100
0001
0000
1000
0000
0010
0000
0100
0001
0100
0000
0001
0000
,
2001
0000
0100
0000
0010
0000
3100
0010
,
1002
0100
0010
1003
,
0000
0100
1000
0100
0010
0100
1000
1000
0000
0001
0100
0010
0100
0001
0100
0100
,
0000
0010
1000
0010
0001
0010
1000
1000
0000
0001
1000
0100
0010
0001
0100
0010
,
1000
0000
0001
0100
0010
0000
1000
0100
0010
0000
0001
1000
0100
0000
1000
0010
,
0100
0000
0001
0010
0100
0000
1000
0001
1000
0000
0010
1000
0001
0000
0010
0100
,
1000
0000
0010
1000
0001
0000
0100
1000
0100
0000
0010
1000
0010
0000
1000
0100
,
0010
0000
0001
0010
0100
0000
1000
0010
0100
0001
0000
0001
1000
0100
0010
0001
,
1000
0010
1000
0010
1000
0010
0100
0001
0100
0001
0100
0001
1000
0100
1000
0100
,
1000
0100
0010
0001
0010
0001
0010
0001
0100
0010
1000
0100
0010
0001
1000
0010
,
0100
0001
0100
0001
0100
0001
1000
0100
1000
0100
1000
0100
0010
0001
0010
0001
,
0010
0001
1000
0010
1000
0010
1000
0010
0100
0001
1000
0100
0010
0001
0100
0010
,
1000
0001
1000
0001
1000
0001
0100
1000
0100
1000
0100
1000
0100
0001
0100
0001
,
0100
0001
1000
0100
1000
0100
1000
0010
0100
0001
0010
1000
0010
0001
0100
0010
,
1000
0100
1000
0100
1000
0100
0010
1000
0010
1000
0010
1000
0010
0001
0010
0001
,
0010
0001
0100
0010
0100
0010
0100
0010
1000
0001
1000
0010
0100
0001
1000
0100
,
0010
0001
1000
0010
0100
0001
0010
0100
1000
0010
1000
0100
1000
0010
0100
0001
,
0010
0100
1000
0010
0100
0001
0010
0100
0010
0001
1000
0010
0100
0001
0010
0100
,
0010
0001
1000
0010
0100
0001
0010
1000
0010
0001
1000
0100
0010
0001
0100
0010
,
1000
0100
1000
0010
0100
0001
0010
0100
1000
0010
0100
0001
0100
0010
1000
0100
,
0010
0001
1000
0100
1000
0100
1000
0100
0010
0001
0010
0001
0010
0001
0010
0001
,
0100
0010
0100
0001
0010
0100
1000
0010
0100
0001
0010
1000
0010
0001
1000
0100
,
0010
0001
1000
0010
0100
0001
0010
0100
1000
0010
0100
0001
0100
1000
0100
0001
,
0010
0100
1000
0010
0100
0001
0010
0100
0010
0001
1000
0010
0100
0001
0010
0100
,
1000
0100
1000
0010
0100
0001
0010
0100
0100
1000
0010
0100
0001
0010
0100
1000
,
1000
0010
1000
0100
0010
0001
1000
0010
0100
0100
0001
0010
1000
0010
0001
2000
,
0020
0000
0000
0000
,
3030
0000
0000
0000
,
0000
0000
0000
0000
0000
0000
0000
0000
0200
0000
0000
0000
0000
0000
0000
0000
0020
0000
0000
0000
0000
0000
0000
0300
0002
0000
0000
0000
0000
0000
0000
0030
,
0200
0000
0000
0000
0000
0000
0000
0003
2000
0000
0000
0000
0000
0000
0000
0300
0002
0000
0000
0000
0000
0000
0000
3000
0020
0000
0000
0000
0000
0000
0000
0003
,
0002
0000
0000
0000
0000
0000
0000
0030
2000
0000
0000
0000
0000
0000
0000
0000
3003
0000
0000
0000
0000
0000
0000
0000
0000
0000
0000
0000
0000
0000
0000
0000
;
