#TITLE:ACCIDENT;
#SUBTITLE:;
#ARTIST:MAX;
#TITLETRANSLIT:;
#SUBTITLETRANSLIT:;
#ARTISTTRANSLIT:;
#CREDIT:;
#BANNER:ACCIDENT-bn.png;
#BACKGROUND:ACCIDENT-bg.png;
#LYRICSPATH:;
#CDTITLE:cdtitle.png;
#MUSIC:ACCIDENT.mp3;
#OFFSET:-0.080;
#SAMPLESTART:66.930;
#SAMPLELENGTH:9.880;
#SELECTABLE:YES;
#DISPLAYBPM:91.000:183.000;
#BPMS:0.000=183.000,72.000=366.000,76.000=91.499,92.000=183.000,123.000=350.000,125.000=183.000,249.000=366.000,253.000=183.000,258.000=366.000,259.000=183.001,260.000=366.000,261.500=732.000,263.000=183.000;
#STOPS:72.000=0.120
,72.750=0.120
,73.500=0.120
,74.250=0.120
,75.000=0.080
,75.500=0.080
,249.000=0.120
,249.750=0.120
,250.500=0.120
,251.250=0.120
,252.000=0.080
,252.500=0.080
,261.500=0.040
,261.750=0.040
,262.000=0.040
,262.250=0.020
;
#BGCHANGES:-0.350=Accident.avi=1.000=1=1=0,
295.000=Accident-bg.png=0.500=1=0=1,
99999=-nosongbg-=1.000=0=0=0 // don't automatically add -songbackground-
;

//---------------dance-single - ----------------
#NOTES:
     dance-single:
     :
     Beginner:
     3:
     0.167,0.245,0.085,0.000,0.000:
0000
0000
0000
0000
,
0000
0000
0000
0000
,
0000
0000
0000
0000
,
0000
0000
0000
0000
,
0000
0000
0000
0000
,
0000
0000
0000
0000
,
0000
0000
0000
0000
,
1000
0000
0000
0000
,
0001
0000
0000
0000
,
0100
0000
0000
0000
,
1001
0000
0000
0000
,
0010
0000
0000
0001
,
0001
0000
0000
1000
,
1000
0000
0000
0010
,
0010
0000
0000
0100
,
0100
0000
0000
0100
,
0100
0000
0000
0001
,
0001
0000
0000
1000
,
1000
0000
0000
0000
,
0010
0000
0000
0000
,
1000
0000
0100
0100
,
0100
0000
1000
0000
,
0001
0001
0001
0000
,
1001
0000
0000
0000
,
0100
0000
0100
0000
,
0100
0000
0000
0000
,
1000
0000
0001
0000
,
0001
0000
0000
0000
,
0100
0000
0010
0000
,
1000
0000
0000
0000
,
0001
0001
0001
0000
,
0000
1001
0000
0000
,
0000
0010
0000
0010
,
0000
0010
0000
0000
,
1000
1000
0000
0000
,
0000
0001
0000
0000
,
0000
0010
0000
0010
,
0000
0010
0000
0000
,
0000
1001
0000
0000
,
0000
0110
0000
0000
,
0000
1000
0000
1000
,
0000
1000
0000
0000
,
0100
0100
0000
0000
,
0010
0010
0000
0000
,
0000
0001
0000
1000
,
0000
0010
0000
0000
,
0000
1001
0000
0000
,
0000
0100
0100
0000
,
0000
0001
0001
0000
,
0000
1000
1000
0000
,
0000
0010
0010
0010
,
0000
1000
1000
0000
,
0000
0100
0100
0000
,
0000
0010
0010
0000
,
0000
1001
0000
0000
,
0000
0100
0100
0000
,
0010
0010
0010
0000
,
1000
1000
1000
0000
,
0001
0001
0001
0000
,
1000
1000
0000
0000
,
0000
0100
0100
0000
,
0100
0000
0100
0000
,
0100
0100
0000
0000
,
0000
1001
0000
0000
,
0000
0000
0000
0000
,
0000
0000
0000
0100
,
0000
0000
0000
0010
,
0000
0000
0000
1000
,
0000
0000
0000
0001
,
0000
0000
0000
0100
,
0000
0100
0000
0010
,
0000
0010
0000
1000
,
0000
1000
0000
0001
,
0001
0001
0000
1001
;

//---------------dance-single - ----------------
#NOTES:
     dance-single:
     :
     Medium:
     9:
     0.475,0.504,0.380,0.171,0.028: // measure 1
0000
0000
0000
0000
,  // measure 2
0000
0000
0000
0000
,  // measure 3
0000
0000
0000
0000
,  // measure 4
0000
0000
0000
0000
,  // measure 5
0000
0000
0000
0000
,  // measure 6
0000
0000
0000
0000
,  // measure 7
0000
0000
0000
0000
,  // measure 8
1000
0000
0000
0000
,  // measure 9
0101
0000
0000
0000
0000
0010
0000
0000
,  // measure 10
1001
0000
0000
0100
0000
0100
0001
0000
,  // measure 11
2200
0000
0000
3300
,  // measure 12
0010
0000
0010
0001
0000
0000
0011
0000
,  // measure 13
1000
0000
1000
0100
0000
0000
1100
0000
,  // measure 14
0010
0000
0010
0100
0000
0000
0110
0000
,  // measure 15
0001
1000
0001
1000
0000
0000
1001
0000
,  // measure 16
0100
0000
1000
0100
0000
0000
1001
0000
,  // measure 17
0010
0000
1000
0010
0000
0000
1010
0000
,  // measure 18
0100
0000
0001
0100
0000
0000
1001
0000
,  // measure 19
0100
0000
0000
0010
0000
0000
1000
0000
0000
0100
0000
0000
0010
0000
0001
0000
,  // measure 20
2000
0000
0000
0000
3100
0000
0010
0000
0001
0000
0000
0000
0100
0000
0000
0010
,  // measure 21
1000
0000
0000
0000
0100
0010
0001
1000
,  // measure 22
0010
0000
0000
0100
0001
0000
1000
0100
,  // measure 23
0010
0000
0000
0001
0000
0000
1000
0000
0010
0000
1000
0000
0001
0000
0100
0000
,  // measure 24
0010
0000
0010
0000
1000
0100
0010
0000
,  // measure 25
0001
0000
1000
0000
0001
0100
0000
0100
,  // measure 26
0010
0000
0100
0000
0001
1000
0100
0000
,  // measure 27
0010
0000
0010
0000
0001
1000
0001
0000
,  // measure 28
0100
0000
0010
0000
1000
0100
0010
0000
,  // measure 29
0001
1000
0001
1000
0100
1000
0001
0000
,  // measure 30
0200
0000
0000
0000
0000
0000
0020
0300
0000
0000
0000
0000
2030
0000
0000
0000
,  // measure 31
0100
0000
0001
3001
0000
0000
2002
0000
,  // measure 32
0000
3003
0100
0000
0010
0000
1000
0100
,  // measure 33
0010
0000
0011
0000
0000
1001
0000
0000
,  // measure 34
1100
1001
0100
0010
,  // measure 35
1100
0101
1000
0001
,  // measure 36
0010
1001
0010
1000
,  // measure 37
0100
0000
0010
0000
0010
0001
0000
0001
,  // measure 38
0100
0010
1000
0001
,  // measure 39
0010
0000
1100
0000
0000
0000
0001
0010
,  // measure 40
0100
1000
0010
0000
0100
0000
0001
1000
,  // measure 41
0100
0000
1100
0000
0000
0011
0000
0000
,  // measure 42
1001
0101
1000
0001
,  // measure 43
1100
0000
0011
0000
1000
0010
1000
0000
,  // measure 44
0001
0101
0010
1000
,  // measure 45
0001
0000
0010
0000
0100
1000
0000
0010
,  // measure 46
0100
0000
0001
0100
0001
0000
1000
0100
,  // measure 47
1000
0202
0000
0000
,  // measure 48
0303
0000
1000
0000
1000
0001
0000
0000
,  // measure 49
0110
0000
0001
0000
0001
1000
0000
0000
,  // measure 50
0110
0000
1000
0000
1000
0001
0000
0000
,  // measure 51
0110
0000
0001
1000
0001
1000
0000
0000
,  // measure 52
0110
0000
1000
0000
1000
0100
0000
0100
,  // measure 53
0010
0000
0001
0000
0001
0100
0000
0100
,  // measure 54
0010
0000
1000
0000
1000
0001
0000
0001
,  // measure 55
0100
2002
0000
0000
,  // measure 56
3003
0000
0010
1000
0010
1000
0000
0000
,  // measure 57
1010
0000
1000
0100
1000
0100
0000
0000
,  // measure 58
1100
0000
0001
0100
0001
0100
0000
0000
,  // measure 59
0101
0000
0010
1000
0010
0100
0000
0000
,  // measure 60
0110
0000
0001
0100
0001
0100
0000
0000
,  // measure 61
0101
0000
1000
0001
1000
0001
0000
0000
,  // measure 62
1001
0000
0010
0100
0010
0100
0000
0000
,  // measure 63
0110
0000
0000
0000
1000
0000
0000
0100
0000
0000
0010
0000
0000
0001
0000
0000
,  // measure 64
1000
0001
0200
0000
0000
0000
0000
0000
,  // measure 65
0310
2002
0000
0000
,  // measure 66
0000
0000
3003
0020
,  // measure 67
0000
0000
0000
0000
0000
0000
1030
0100
,  // measure 68
1000
0010
1000
0001
1000
0000
0002
0000
,  // measure 69
0000
0000
0000
0000
0000
0000
0103
0001
,  // measure 70
0100
0010
0100
0001
1000
0000
0001
0010
,  // measure 71
0001
1000
0001
0010
0001
0000
1000
0100
,  // measure 72
1000
0000
0001
0100
0001
0000
1000
0000
,  // measure 73
0010
0000
0100
0001
0010
0000
0100
0010
,  // measure 74
0100
0010
0001
0010
0100
1000
0020
0000
,  // measure 75
0000
0000
0000
0000
,  // measure 76
0000
0000
0000
0030
;

//---------------dance-single - ----------------
#NOTES:
     dance-single:
     :
     Hard:
     13:
     0.703,0.755,0.418,0.399,0.147:
0000
0000
0000
0000
,
0000
0000
0000
0000
,
0000
0000
0000
0000
,
0000
0000
0000
0000
,
0000
0000
0000
0000
,
0000
0000
0000
0000
,
0000
0000
0000
0000
,
1001
0001
0000
0100
0000
0010
1000
0000
,
1100
0100
0000
0010
0000
0001
1000
0000
,
0110
0100
0000
0010
0000
1000
0001
0000
,
1000
0100
0001
0100
1000
0010
0100
0000
,
0002
0000
0013
0200
0000
1300
0010
0100
,
0002
0000
1003
0020
0000
0130
0001
0010
,
0200
0000
1300
0002
0000
0103
0010
0100
,
0001
0010
0100
0020
0000
0031
0010
0100
,
2000
0000
3010
0200
0000
0301
0010
0100
,
0020
0000
0031
2000
0000
3010
0100
0001
,
0020
0000
0031
2000
0000
3100
0010
0001
,
0101
0000
0000
1010
0000
0000
0110
0000
0000
1010
0000
0000
1000
0000
0001
0000
,
0100
0000
0001
0010
0100
0000
1000
0000
0010
0000
0100
0000
1001
0000
0000
0100
,
1000
0000
0000
0000
0010
0000
0000
0000
0100
0000
0000
0000
0000
0000
0001
0010
0001
0000
0000
0000
0100
0000
0010
0000
0000
0000
0010
0000
1000
0000
0000
0000
,
0001
0000
0000
0000
1000
0000
0100
0001
0100
0000
1000
0000
0010
0000
0100
0001
,
1001
0000
0000
1100
0000
0000
0101
0000
0010
0000
1000
0200
0000
0000
0320
0000
,
0031
1000
0100
1000
0010
0100
0001
0001
,
0010
0001
1000
0010
0100
0100
0000
0010
,
1000
0000
0100
0000
0010
0000
0001
0000
1000
0000
0010
0000
0100
0000
0001
0010
,
0001
1000
0100
1000
0010
0100
0001
0000
,
0010
0001
1000
0100
1000
0010
0100
0100
,
0001
0100
0010
1000
0100
0010
0001
1000
,
0020
0000
0000
0001
0000
0000
2030
0000
,
3200
0000
0010
0020
0000
0330
2002
0000
,
3003
0000
0010
1000
0100
1000
0010
0100
,
0001
0000
1100
0000
0001
1001
0000
0100
,
0110
0000
1001
0000
0010
0001
1000
0010
,
0110
0000
1010
0010
0100
0001
0010
0100
,
1000
0000
0101
0000
1000
0100
0001
0100
,
1000
0000
0010
0100
0010
0100
0001
0010
,
0200
0000
1300
0100
1000
0010
0100
0001
,
1000
0010
1010
0000
0000
1001
0000
0000
,
0101
0000
1100
0100
1000
0010
0100
0001
,
0010
0000
1100
0000
1000
0101
0000
1000
,
1010
0000
0011
0000
0100
0010
1000
0001
,
0110
0000
1001
1000
0100
0010
0001
0100
,
0010
0000
1001
0000
0010
0100
0001
0010
,
0100
0000
1000
0100
0010
0100
0010
0001
,
2000
0000
3001
0010
0100
1000
0010
0100
,
0001
0010
2002
0000
0000
0000
0000
0000
,
3003
0000
2000
0000
3100
0020
0000
0031
,
0100
0010
2000
0000
3001
0200
0000
0310
,
1000
0100
0020
0000
0031
2000
0000
3010
,
0100
0010
1000
0100
0010
0200
0000
1300
,
0100
0010
0002
0000
0103
0020
0000
1030
,
0100
0010
0200
0000
1300
0002
0000
0103
,
0010
1000
0200
0000
1300
0002
0000
0013
,
0100
1000
1010
0000
0001
0000
0100
0001
,
1000
0000
0110
0010
0001
0010
0100
1000
,
0010
0000
1000
0001
1000
0000
0010
0000
0100
0000
0001
0000
0010
0000
0100
0000
,
1000
0000
0010
0100
0010
0000
0100
0000
0001
0000
0010
0000
0100
0000
1000
0000
,
0010
0000
1000
0001
1000
0000
0001
0000
0001
0000
1000
0000
0000
0000
0010
0000
,
0100
0000
0001
0010
0001
0000
0100
0000
0010
0000
0100
0000
0001
0000
0010
0000
,
0100
0000
1000
0100
1000
0000
0010
0000
0100
0000
0001
0000
0010
0000
0100
0000
,
1000
0000
0001
1000
0001
0000
1000
0000
0010
0000
0100
0000
0001
0000
0010
0000
,
0100
0000
1000
0000
1001
0000
0000
0110
0000
0000
0011
0000
0000
1100
0000
0000
,
0010
0100
0002
0000
0000
0000
0000
0000
,
1003
0220
0000
0000
,
0000
0000
0000
0000
0000
0330
1001
0000
,
0000
0100
0000
0000
1000
0000
0001
0100
,
1000
0000
0100
0000
0001
0010
0001
0000
1000
0000
0100
0000
1100
0000
0000
0000
,
0000
0000
0010
0000
0000
0000
0000
0000
1000
0100
1000
0000
0010
0000
0100
0000
,
0001
0000
1000
0000
0010
0100
0010
0000
1000
0000
0100
0000
0011
0000
0000
0000
,
0000
1100
0000
0000
1001
0000
0010
0010
,
1000
0100
1000
0000
0010
0000
1000
0001
1000
0000
0010
0000
0100
0000
0000
0000
,
0000
0000
0101
0000
0000
0000
1000
0000
0100
0010
0100
0000
0010
0001
0010
0000
,
0001
1000
0001
0000
1000
0100
1000
0000
0010
1000
0010
0000
0200
0000
0000
0000
,
0000
0000
0000
0000
,
0000
0000
0000
0300
;

//---------------dance-single - ----------------
#NOTES:
     dance-single:
     :
     Easy:
     5:
     0.315,0.396,0.161,0.190,0.000:
0000
0000
0000
0000
,
0000
0000
0000
0000
,
0000
0000
0000
0000
,
0000
0000
0000
0000
,
0000
0000
0000
0000
,
0000
0000
0000
0000
,
0000
0000
0000
0000
,
1000
0000
0000
0000
,
0001
0000
0000
0000
,
0100
0000
0000
0000
,
2002
0000
0000
3003
,
0010
1000
0000
0100
,
0010
0001
0000
1000
,
0001
0100
0000
0010
,
1000
1000
0000
0001
,
0010
0100
0000
0010
,
0001
1000
0000
0100
,
1000
0001
0000
0100
,
2002
0000
0000
3003
,
0020
1030
0100
0020
,
0031
0000
0000
0000
0100
0000
0010
0010
,
0010
1000
0001
0010
,
0100
0000
1000
0000
0001
0001
0001
0000
,
1000
0100
1000
0001
,
0100
0100
0010
0000
,
0100
0001
1000
1000
,
0001
0010
0100
0000
,
1000
0100
0010
0010
,
0001
1000
0010
0100
,
0002
0000
0000
0000
,
2003
0000
3000
0110
,
0000
1001
0001
0100
,
0010
1000
1000
0100
,
0010
0001
0000
1000
,
0001
0100
0000
0010
,
1000
0010
0000
0100
,
0001
0010
0010
0100
,
1000
0001
0000
1000
,
0100
2200
0000
3300
,
0000
0101
1000
0001
,
0100
0010
0010
0100
,
0001
1000
0000
0100
,
1000
0001
0000
1000
,
0001
0100
0010
0100
,
0100
0001
0000
0010
,
0001
1000
0000
0100
,
0010
0220
0000
0000
,
0330
0001
0100
0000
,
0101
0100
0010
0000
,
1000
0010
0100
0000
,
0110
1000
1000
0000
,
0100
1000
0001
0000
,
0100
0010
0010
0000
,
1001
0100
0100
0000
,
0001
2002
0000
0000
,
3003
0010
1000
0010
,
0100
0001
1000
0001
,
0000
0010
0001
1000
,
0001
0100
0010
1000
,
0000
0101
1000
0001
,
0100
0010
0010
0100
,
0000
0110
0100
0001
,
0001
2002
0000
0000
,
0000
3003
0020
0000
0000
0000
0000
0000
,
0000
0200
0000
0000
,
0000
0000
0330
1001
,
0000
0000
0000
0100
,
1000
0010
0100
1001
,
0000
0000
0000
1000
,
0100
0001
0010
0001
,
0001
1000
1000
0010
,
0010
0100
0100
0001
,
0100
0010
1000
0100
,
0001
1000
0010
0202
,
0000
0000
0000
0000
,
0000
0000
0000
0303
;

//---------------dance-single - ----------------
#NOTES:
     dance-single:
     :
     Challenge:
     18:
     1.000,1.000,0.475,0.513,0.893:
0000
0000
0000
0000
,
0000
0000
0000
0000
,
0000
0000
0000
0000
,
0000
0000
0000
0000
,
0000
0000
0000
0000
,
0000
0000
0000
0000
,
0000
0000
0000
0000
,
0101
2000
0000
3200
0000
0310
0001
0000
,
1100
0020
0000
0230
0000
0301
1000
0000
,
0110
0002
0000
2003
0000
3010
0100
0000
,
0001
0000
1000
0000
0010
0000
1000
0001
1000
0001
0100
0000
0010
0000
0000
0000
,
1000
0100
1000
0000
0010
0000
0100
0000
0001
0000
1000
0000
0100
0010
0001
0000
,
0100
0010
0100
0000
0001
0000
0010
0000
0100
0000
1000
0000
0010
1000
0100
0000
,
0010
0001
0010
0000
0100
0000
1000
0000
0010
0000
0100
0000
0001
1000
0100
0000
,
0010
0001
0010
0001
0010
0000
0100
0000
0010
0000
0001
0000
1000
0010
0100
0000
,
0001
1000
0001
0000
1000
0000
0100
0000
1000
0000
0010
0000
0100
0010
1000
0000
,
0100
0010
0100
0000
0010
0000
0001
0000
1000
0000
0010
0000
0100
0001
1000
0000
,
0010
0100
0010
0000
0100
0000
0001
0000
0010
0000
0100
0000
1000
0001
0100
0000
,
1010
0000
0000
1100
0000
0000
0101
0000
0000
0011
0000
0000
1100
0000
0101
0000
,
1001
1000
0010
0100
0001
0010
0100
0010
0001
1000
0010
0100
0001
0000
1000
1100
,
0101
0000
0010
0000
1000
0000
0100
0000
0010
0000
0001
0000
1000
0000
0010
0100
0010
0000
1000
0000
0100
0000
1000
0000
0001
0000
0000
0000
0101
0000
0000
0000
,
1001
1000
0010
0100
0001
0010
0100
0100
0100
1000
0010
0100
0101
0010
1000
0100
,
1100
0000
0000
0000
0001
0000
1001
0000
0000
0000
0100
0000
0110
0000
0001
0010
0001
0000
0000
0000
1000
0000
0100
0000
0001
0000
0100
0000
1000
0000
0000
0000
,
0010
0000
0010
0000
0100
0000
0001
1000
0001
1000
0001
0000
1000
0100
1000
0000
,
0010
0000
0100
0000
0001
0000
1000
0100
1000
0100
0010
0000
0000
0000
0011
0000
,
0010
0000
0100
0000
1000
0000
0001
0100
0001
0100
0001
0000
1000
0100
1000
0000
,
0010
0000
0100
0000
0001
0000
1000
0001
1000
0001
1000
0000
0010
0100
0010
0000
,
0100
0000
0001
0000
1000
0000
0010
0100
0010
0100
0010
0000
1000
0100
1000
0000
,
0001
0010
0100
0010
0001
1000
0010
0100
0001
0010
0100
1000
0001
1000
0100
0010
,
0001
0000
0000
0000
0001
0000
0100
0000
0000
0000
0100
0000
0010
0000
1000
0100
,
0010
0001
0100
0010
1000
0001
0202
0000
,
0303
0000
0000
0000
1100
0000
1000
0000
0010
0000
0100
0000
0001
1000
0001
0000
,
0100
0000
0010
0000
0110
0000
0100
0000
0001
0000
2001
0000
0000
0000
3001
0100
,
0001
0000
1000
0000
1100
0000
0010
0000
1000
0000
0100
0000
0010
0000
0001
1000
,
0001
0000
1000
0001
1000
0000
0010
0000
1000
0000
0100
0000
0010
0000
0001
0000
,
0100
0010
0100
0000
2001
0000
0000
0000
3010
0000
1000
0000
0100
0000
0010
0000
,
0001
0000
1000
0000
0010
1000
0010
0000
1000
0000
0001
1000
0001
0000
0100
0000
,
0001
0100
0001
0000
2000
0000
0000
0000
3100
0000
1000
0000
0010
0000
0100
0000
,
0001
0000
0010
0000
0022
0000
0000
0000
0033
0000
1100
0000
0001
0100
0010
1000
,
0100
0010
0001
1000
0010
0000
0100
0001
0100
0000
0001
1000
0001
0000
1000
0100
,
1000
0001
0102
0000
1003
2100
0000
3001
,
0022
0000
0033
0000
1010
0000
1000
0000
0001
0000
0010
0000
0100
0010
0100
0000
,
0010
0001
0010
0000
0012
0000
0000
0000
1003
0000
0001
0000
0100
0001
0100
0000
,
0010
1000
0010
0000
2100
0000
0000
0000
3010
0000
1000
0000
0100
0010
0001
0000
,
0010
0100
1000
0000
0010
1000
0001
0000
0100
0010
0100
0000
0001
0010
0100
0000
,
0010
0001
1000
0000
0010
0000
0100
0000
0001
0000
0010
0000
1000
0000
0010
0000
,
0001
0000
1000
0000
0100
0000
0110
0000
0000
0011
0000
0000
1100
0000
0000
0101
,
0000
0000
1001
0000
0001
1000
0200
0000
1300
0000
0010
0100
0002
0000
0013
0000
,
0100
1000
0100
0000
1000
0010
0200
0000
0301
0000
1000
0100
2000
0000
3010
0000
,
0100
0001
2000
0000
3001
0010
0100
0000
0020
0000
0031
1000
0200
0000
0310
0000
,
0001
1000
0020
0000
0130
0001
1000
0000
0002
0000
1003
0100
2000
0000
3010
0000
,
0100
0001
2000
0000
3100
0010
0100
0000
0020
0000
0031
1000
0100
0000
0020
0000
,
0031
1000
0002
0000
0103
0010
0200
0000
0301
0000
1000
0100
2000
0000
3002
0000
,
0013
0100
1000
0000
0001
0100
0002
0000
0103
0000
0010
1000
0200
0000
0310
0000
,
0001
1000
0200
0000
1300
0000
1010
0000
0000
0101
0000
0000
1010
0000
0000
0011
,
0000
0000
1001
0000
0100
0010
0100
0001
0100
0000
0020
0000
1030
0000
0100
0000
,
0010
0000
0001
0000
1000
0100
1000
0010
1000
0000
0002
0000
0103
0000
0010
0000
,
1000
0000
0100
0000
0010
0001
0010
0100
0010
0000
0002
0000
2003
0000
3010
0000
,
0100
0000
0001
0000
1000
0100
1000
0100
1000
0000
0020
0000
0130
0001
0100
0001
,
0200
0000
0310
0000
1000
0001
1000
0010
0100
0000
0002
0000
1003
0000
0020
0000
,
0130
0000
0001
0000
0010
0100
0010
0001
2000
0000
3020
0000
0130
0000
0001
0000
,
0020
0000
0130
0000
1000
0100
0010
0001
1000
0000
0020
0000
0130
0000
0002
0000
,
0013
0000
0100
0000
1100
0000
0000
0101
0000
0000
0011
0000
0000
1010
0000
0000
,
1100
0000
0011
0000
1001
0000
0100
0000
0010
0000
1000
0100
1000
0100
1000
0000
,
0010
0100
0002
0000
0000
0000
0000
0000
,
0000
0000
0000
0000
0000
0000
0103
0100
,
0010
0000
0010
0000
1000
0000
1000
0000
0001
0000
0001
0000
1000
0100
1000
0100
,
0010
0001
0010
0001
1000
0001
1000
0001
0100
0010
0100
0010
1000
0000
1000
0000
,
0100
0000
0100
0000
0010
0000
0010
0000
0001
0000
0001
0000
0100
0001
0100
0001
,
1000
0010
1000
0010
1000
0100
1000
0100
0010
0001
0010
0001
1000
0100
0010
0001
,
0100
0010
1000
0100
1000
0010
0100
0001
0010
0001
0100
0010
1000
0100
0010
0001
,
1000
0010
0100
0001
1000
0001
1000
0010
1000
0100
0010
0001
0100
0010
1000
0100
,
0010
0001
0100
0001
0010
0100
1000
0010
0100
0010
1000
0001
0100
0001
0010
1000
,
0010
0001
1000
0010
0100
0001
0010
0100
1000
0001
0010
0100
2000
0000
0000
0000
,
0000
0000
0000
0000
,
0000
0000
0000
3000
;
