#TITLE:What Makes You Beautiful;
#SUBTITLE:;
#ARTIST:One Direction;
#TITLETRANSLIT:;
#SUBTITLETRANSLIT:;
#ARTISTTRANSLIT:;
#CREDIT:;
#BANNER:What Makes You Beautiful-bn.png;
#BACKGROUND:What Makes You Beautiful-bg.png;
#LYRICSPATH:;
#CDTITLE:;
#MUSIC:What Makes You Beautiful.mp3;
#OFFSET:-0.060;
#SAMPLESTART:96.080;
#SAMPLELENGTH:16.180;
#SELECTABLE:YES;
#BPMS:0.000=124.970;
#STOPS:;
#BGCHANGES:-0.150=What Makes You Beautiful.avi=1.000=1=0=0,
99999=-nosongbg-=1.000=0=0=0 // don't automatically add -songbackground-
;

//---------------dance-single - ----------------
#NOTES:
     dance-single:
     :
     Beginner:
     1:
     0.113,0.152,0.044,0.000,0.000:
0000
0000
0000
0000
,
0000
0000
0000
0000
,
1000
0000
0000
0000
,
0001
0000
0000
0000
,
0100
0000
0010
0000
,
0010
0000
0000
0000
,
1000
0000
0001
0000
,
0001
0000
0000
0000
,
0010
0000
0100
0000
,
0100
0000
0000
0000
,
0001
0000
1000
0000
,
1000
0000
0000
0000
,
0010
0000
0010
0000
,
0010
0000
0000
0000
,
0100
0000
0100
0000
,
0100
0000
0000
0000
,
1001
0000
0000
0000
,
0100
0100
0000
0000
,
1000
0000
0000
0000
,
0001
0001
0000
0000
,
0010
0000
0000
0000
,
0001
0001
0000
0000
,
0100
0000
0000
0000
,
0110
0000
0000
0000
,
1001
0000
0000
0000
,
1000
0000
1000
0000
,
0100
0000
0000
0000
,
0010
0000
0010
0000
,
0001
0000
0000
0000
,
0100
0000
0100
0000
,
0010
0000
0000
0000
,
1000
1000
1000
1000
,
1000
0000
0000
0000
,
0001
0001
0001
0001
,
0001
0000
0000
0000
,
1000
0000
0000
0000
,
0010
0000
0000
0000
,
0100
0100
0100
0000
,
0100
0000
0000
0000
,
0001
0000
0000
0000
,
1000
0000
0000
0000
,
0010
0010
0010
0000
,
0100
0000
0000
0000
,
0001
0000
0000
0000
,
1000
0000
0000
0000
,
0010
0000
0000
0000
,
1000
0000
0000
0000
,
0100
0000
0000
0000
,
0010
0000
0000
0000
,
1001
0000
0000
0000
,
1001
0000
0000
0000
,
0100
0000
0010
0000
,
0010
0000
0000
0000
,
1000
0000
0001
0000
,
0001
0000
0000
0000
,
0010
0000
0100
0000
,
0100
0000
0000
0000
,
1000
1000
1000
0000
,
1000
0000
0000
0000
,
0010
0000
0100
0000
,
0100
0000
0000
0000
,
0001
0000
0010
0000
,
0010
0000
0000
0000
,
0100
0000
1000
0000
,
1000
0000
0000
0000
,
0010
0010
0010
0000
,
0010
0000
0000
0000
,
0100
0100
0100
0000
,
0100
0000
0000
0000
,
1001
0000
0000
0000
;

//---------------dance-single - ----------------
#NOTES:
     dance-single:
     :
     Medium:
     6:
     0.321,0.410,0.169,0.235,0.004:
0000
0000
0000
0000
,
0000
0000
0000
0000
,
1000
0000
0001
0000
,
0100
0100
0100
0110
,
1001
0000
0000
0000
0100
0000
1000
0100
,
1000
0010
1000
0001
,
0001
1000
1000
0001
,
0010
0100
0010
0000
0000
0000
0011
0000
,
1100
0000
0001
0000
1000
0000
0010
0100
,
0010
1000
0001
1000
,
0100
0100
1000
1000
,
0010
1000
0001
0000
0000
0000
0000
0000
,
0110
0000
0001
0100
0010
0000
0001
0100
,
0010
0100
0001
0000
,
0110
0000
1000
0100
0010
0000
1000
0100
,
0020
0000
0000
0100
,
0130
1000
0001
0100
,
0020
0000
0130
0001
0000
0000
0010
0000
,
0001
1000
0100
1000
,
0020
0000
0130
0001
0000
0000
0100
0000
,
0001
0010
0100
1000
,
0200
0000
1300
0010
0000
0000
0100
0000
,
2002
3003
0100
0100
,
1000
0100
1000
0100
1000
0000
0000
0000
,
1100
0011
0100
0010
,
1000
0000
0001
0000
1000
0001
0100
0000
,
0010
0100
0001
0010
,
0100
1000
0001
0000
,
1010
1001
0100
0010
,
1000
0000
0001
0000
1000
0100
0010
0000
,
2002
3003
0200
0300
,
1000
0100
0010
0001
,
0200
0300
0020
0030
,
1000
0100
1000
0100
1000
0000
0000
0000
,
0010
0000
1000
0100
1000
0000
0001
0100
,
0001
0000
0000
0100
0000
0100
0000
0000
,
0001
0000
0100
0010
0100
0000
0001
1000
,
0000
0000
0000
0000
,
0100
0000
1000
0100
1000
0000
0010
0100
,
0010
0000
0000
1000
0000
0001
0000
0000
,
0010
0000
0001
0100
0001
0000
1000
0100
,
0000
0000
0000
0000
0000
1000
0100
0010
,
0002
0000
0100
0000
,
0203
0000
0010
0000
,
0320
0000
1000
0000
,
2030
0000
0100
0000
,
3200
0000
0010
0000
,
0320
0000
0001
0000
,
0032
0000
2000
0000
,
3003
0000
0010
0110
,
1001
0100
1000
0010
,
0100
0000
0010
0100
0000
0000
0010
0000
,
0101
0010
1000
0001
,
0010
0000
0100
1000
0000
0000
0000
0000
,
0110
0001
0100
0010
,
1000
0000
0001
1000
0000
0000
0000
0000
,
0220
0330
2002
3003
,
0100
1000
0100
1000
0001
0000
1000
0000
,
0110
0010
1000
1000
,
0100
0000
0100
0000
0010
0001
0100
0000
,
0010
0010
1000
1000
,
0001
0000
0001
0000
0010
0100
1000
0000
,
0100
0100
1000
1000
,
0001
0000
0001
0000
0100
0010
1000
0000
,
2002
3003
0200
0300
,
1000
0010
0100
0001
1000
0000
0000
0000
,
2002
3003
0020
0030
,
0001
0010
0100
1000
0001
0000
0000
0000
,
0220
0330
2000
3000
,
0100
0000
0000
0000
0000
0000
0000
0000
1000
0000
0000
0100
0000
0000
1001
0000
;

//---------------dance-single - ----------------
#NOTES:
     dance-single:
     :
     Hard:
     9:
     0.432,0.410,0.169,0.330,0.095: // measure 1
0000
0000
0000
0000
,  // measure 2
0000
0000
0000
0000
,  // measure 3
0010
0000
0000
0010
1000
0000
0000
1000
,  // measure 4
0100
0100
0100
0000
,  // measure 5
2000
0000
3100
0000
1000
0000
0010
1000
,  // measure 6
0002
0000
0103
0000
0010
0000
0100
0001
,  // measure 7
0020
0130
2000
3001
,  // measure 8
0100
0100
0100
0000
0001
0000
1000
0000
,  // measure 9
0020
0000
1030
0000
0100
0000
1000
0001
,  // measure 10
0200
0000
0310
0000
0100
0000
0001
1000
,  // measure 11
0200
1300
0020
0130
,  // measure 12
0001
0001
0001
0000
0010
0000
0001
0000
,  // measure 13
2100
0000
3010
1000
0200
0000
1300
0100
,  // measure 14
0020
0031
1000
0010
,  // measure 15
0201
0000
0301
0010
0200
0000
0310
0100
,  // measure 16
2000
0000
0100
3100
,  // measure 17
1001
0110
0101
1100
,  // measure 18
0001
1000
0001
1000
0000
0010
0100
0000
,  // measure 19
1010
0101
1001
1100
,  // measure 20
0010
0001
0010
0001
0000
1000
0001
0000
,  // measure 21
0110
1100
1001
1010
,  // measure 22
0100
0001
0100
0001
0000
1000
0100
0000
,  // measure 23
0210
0000
0301
0100
0020
0000
0030
0000
,  // measure 24
1000
0001
1000
0001
2000
0000
3001
0000
,  // measure 25
0100
0000
0000
0100
0000
0000
0001
0000
1000
0000
0000
1000
0000
0000
0100
0000
,  // measure 26
0020
0000
0130
0000
1000
0100
1000
0000
,  // measure 27
0010
0000
0000
0010
0000
0000
1000
0000
0001
0000
0000
0001
0000
0000
0010
0000
,  // measure 28
0002
0000
0103
0000
0010
1000
0100
0000
,  // measure 29
0001
0000
0000
0001
0000
0000
1000
0000
0100
0000
0000
0100
0000
0000
0010
0000
,  // measure 30
0200
0000
1300
0000
0010
1000
0100
0000
,  // measure 31
2001
0000
0000
3100
0200
0000
0310
0000
,  // measure 32
0001
0010
0100
1000
0001
1000
0001
0000
,  // measure 33
0100
0000
0010
1000
0100
0000
0000
0000
,  // measure 34
1000
0000
0100
0000
0001
0000
0100
0000
1000
0000
0000
0001
0000
0000
1001
0000
,  // measure 35
1000
0000
0100
1000
0100
0000
1000
0001
,  // measure 36
2000
0000
0000
0010
0000
3001
0000
0000
,  // measure 37
0110
0000
0001
0010
0001
0000
1000
0100
,  // measure 38
0000
0010
0100
0001
,  // measure 39
0200
0000
0310
1000
0200
0000
0310
0001
,  // measure 40
0200
0000
0310
0100
0000
0100
0001
0000
,  // measure 41
0020
0000
0130
0010
0002
0000
0103
0010
,  // measure 42
0000
0000
0100
0000
0001
0010
0100
1000
,  // measure 43
1000
0000
0000
1000
0000
0000
1000
0000
0100
0000
0000
0100
0000
0000
0100
0000
,  // measure 44
0010
0000
0001
1000
0000
0100
0010
0100
,  // measure 45
0001
0000
0000
0001
0000
0000
0001
0000
0100
0000
0000
0100
0000
0000
0100
0000
,  // measure 46
0010
0000
1000
0100
0000
1000
0001
1000
,  // measure 47
0010
0000
0000
0010
0000
0000
0010
0000
0100
0000
0000
0100
0000
0000
0100
0000
,  // measure 48
0001
0000
1000
0100
0000
0000
0000
0000
,  // measure 49
0010
0000
0000
1000
0100
0000
0000
0000
,  // measure 50
2002
0000
0000
3003
,  // measure 51
0010
0000
0000
1000
0000
0000
0100
0000
0010
0000
0000
0001
0000
0000
0100
0000
,  // measure 52
0020
0000
1030
0200
0000
0300
0000
0000
,  // measure 53
1000
0000
0000
0001
0000
0000
0100
0000
0010
0000
0000
0100
0000
0000
0001
0000
,  // measure 54
0020
0000
0130
2000
0000
3000
0000
0000
,  // measure 55
0010
0000
0000
1000
0000
0000
0100
0000
0010
0000
0000
0001
0000
0000
1000
0000
,  // measure 56
0002
0000
0103
0020
0000
0030
0100
0000
,  // measure 57
2001
0000
0000
3010
0020
0000
0000
0030
,  // measure 58
0100
0001
0100
0010
1000
0001
1000
0000
,  // measure 59
0010
0000
0000
0100
0000
0000
0001
0000
1000
0000
0000
0100
0000
0000
0010
0000
,  // measure 60
0002
0000
0103
0020
0000
1030
0100
1000
,  // measure 61
0100
0000
0000
1000
0000
0000
0010
0000
0100
0000
0000
0001
0000
0000
1000
0000
,  // measure 62
0002
0000
0013
0200
0000
0310
0001
0010
,  // measure 63
0001
0000
0000
0100
0000
0000
0010
0000
1000
0000
0000
0001
0000
0000
0100
0000
,  // measure 64
0020
0000
1030
0200
0000
0310
0100
0010
,  // measure 65
0200
0000
0000
0000
0000
0300
1000
0000
1000
0000
0000
0000
0001
0000
0000
0000
,  // measure 66
0100
0010
0100
0001
1000
0001
1000
0000
,  // measure 67
0100
0000
1000
0010
0100
0000
0001
0000
,  // measure 68
0100
0010
1000
0100
1000
0001
0010
0000
,  // measure 69
0001
0000
0100
0010
1000
0000
0000
0000
,  // measure 70
0010
0000
1000
0000
0100
0000
1000
0000
1001
0000
0000
0110
0000
0000
1001
0000
;

//---------------dance-single - ----------------
#NOTES:
     dance-single:
     :
     Easy:
     4:
     0.243,0.282,0.095,0.396,0.000:
0000
0000
0000
0000
,
0000
0000
0000
0000
,
1000
0000
0001
0000
,
1001
1001
1001
0000
,
0100
0000
1000
0010
,
0100
0000
0010
0100
,
0001
0000
0010
0001
,
1000
0000
0100
1000
,
0010
0000
1000
0001
,
0100
0000
0010
1000
,
0100
0000
0010
0001
,
1000
0000
0000
0000
,
0210
0300
0002
0003
,
2000
3000
0100
0100
,
0120
0030
0002
0003
,
2002
0000
0000
3003
,
0100
0100
1000
0010
,
0200
0000
0300
0000
,
0010
0010
1000
0001
,
2000
0000
3000
0000
,
0100
0100
1000
0001
,
0020
0000
0030
0000
,
0002
0003
2000
3000
,
0100
0100
0100
0100
,
0120
0030
0200
0300
,
1000
0001
0100
0000
,
0120
0030
1000
0000
,
0001
1000
0100
0000
,
2001
3000
0001
0000
,
0010
0001
0100
0000
,
1002
0003
0100
0000
,
0010
0100
0001
1000
,
0200
0300
0020
0030
,
1001
0000
0100
0100
,
2000
3000
0200
0300
,
0002
0003
0200
0300
,
2000
3000
0020
0030
,
0001
0001
0001
0000
,
0020
0030
2000
3000
,
0200
0300
0020
0030
,
0002
0003
2000
3000
,
0010
0010
0010
0000
,
0200
0000
0000
0000
,
0302
0000
0000
0000
,
2003
0000
0000
0000
,
3020
0000
0000
0000
,
2030
0000
0000
0000
,
3200
0000
0000
0000
,
0320
0000
0000
0030
,
2002
0000
0000
3003
,
0100
0100
1000
0010
,
0200
0310
0000
0000
,
0100
0100
0001
0010
,
0002
0103
0000
0000
,
0010
0010
0100
0001
,
2000
3100
0000
0000
,
2000
3000
0002
0003
,
0100
0100
0100
0000
,
0010
0010
1000
0001
,
0020
0130
0000
0000
,
0010
0010
0001
1000
,
0002
0103
0000
0000
,
0010
0010
0100
0001
,
2000
3001
0000
0000
,
0020
0030
0200
0300
,
1000
1000
1000
0000
,
0020
0030
2000
3000
,
0001
0001
0001
0000
,
0020
0030
0200
0300
,
1001
0000
0010
0010
,
0010
0000
0000
0000
;

//---------------dance-single - ----------------
#NOTES:
     dance-single:
     :
     Challenge:
     13:
     0.612,0.615,0.403,0.440,0.227:
0000
0000
0000
0000
,
0000
1010
0000
1001
0000
0101
0000
0110
,
0000
0000
0000
0000
,
1001
0000
1001
0000
1001
1000
0001
0100
,
0020
0000
0130
0001
1000
0100
1000
0010
,
0200
0010
0000
0001
0000
1000
1300
0100
,
0002
0000
1003
0010
0200
0000
0310
1000
,
0100
1000
0001
0000
1000
0010
0001
0010
,
0200
0000
0310
1000
0001
0010
0001
0100
,
0020
0100
0000
1000
0000
0001
0031
0010
,
2000
0000
3001
0100
0020
0000
0130
0001
,
0010
0001
1001
0000
1010
0000
0110
0000
,
0102
0000
0103
0100
0120
0000
1000
1030
,
2100
0000
3100
1000
0010
0100
0001
0000
,
2010
0000
3010
0010
0210
0000
0301
0001
,
1001
0000
0100
0010
1000
0001
1000
0100
0010
0001
1000
0001
,
0101
0000
0000
0100
0001
0000
0100
0000
0010
0000
0000
0010
1000
0000
0100
0000
,
2000
0000
3100
0010
0001
0100
0010
0100
,
0001
0000
0000
0001
0010
0000
0100
0000
1000
0000
0000
1000
0010
0000
0100
0000
,
0020
0000
1030
0100
1000
0001
0100
0010
,
1000
0000
0000
1000
0001
0000
0010
0000
0100
0000
0000
0100
0010
0000
0001
0000
,
0200
0000
0310
0100
0001
0100
0010
1000
,
0002
0000
1003
0100
0200
0000
0310
0000
,
0001
0100
0010
1000
0001
0100
0001
0000
0100
0000
1000
0000
,
1010
0000
0100
0001
1000
0000
0010
0000
1000
0000
0100
1000
0001
0000
0100
0000
,
0020
0000
0130
0001
1000
0100
1000
0010
,
0100
0000
0001
0010
0100
0000
1000
0000
0001
0000
1000
0100
0010
0000
0001
0000
,
0200
0000
0310
0100
0001
1000
0100
0010
,
0001
0000
1000
0100
0010
0000
0001
0000
1000
0000
0010
1000
0001
0000
0100
0000
,
0020
0000
1030
0100
1000
0001
0100
0010
,
0210
0000
0301
0100
1002
0000
0103
0000
,
1000
0000
0100
0000
0001
0000
0100
0000
1100
0000
0000
0101
0000
0000
1000
0000
,
1002
0000
0013
0001
2010
0000
3010
0100
,
0001
0000
0100
0000
1000
0000
0010
0000
0110
0000
0000
1001
0000
0000
1100
0000
,
0002
0000
0103
0010
2000
0000
3100
1000
,
0002
0000
0100
0010
0000
0010
1003
0000
,
0020
0000
1030
0100
2000
0000
3001
1000
,
0110
1001
1100
0101
,
2000
0000
3100
0001
0002
0000
0013
1000
,
2000
0000
0100
0001
0000
0001
3010
0000
,
0200
0000
0310
1000
0002
0000
0013
0100
,
1100
0000
0101
0000
1010
0001
0100
0010
,
0100
0000
0000
0001
0000
0000
1000
0000
0100
0000
0000
1000
0000
0000
0010
0000
,
0200
0000
0301
0200
0000
0310
0100
0001
,
1000
0000
0000
0100
0000
0000
1000
0000
0001
0000
0000
0010
0000
0000
0100
0000
,
2000
0000
3010
0200
0000
0301
0100
0010
,
1000
0000
0000
0100
0000
0000
1000
0000
0001
0000
0000
0010
0000
0000
0100
0000
,
2000
0000
3010
0200
0000
0301
0100
0010
,
2000
0000
0000
0001
0002
0000
3003
0000
,
0110
0000
1000
0100
0010
0001
0100
0010
1000
0001
1000
0010
,
0101
0000
0010
1000
0001
0000
0100
0000
0001
0000
0010
0001
1000
0000
0010
0000
,
0200
0000
0310
1000
0001
0010
0001
0100
,
0010
0000
1000
0100
0010
0000
0001
0000
1000
0000
0001
0010
0100
0000
1000
0000
,
0020
0000
0130
0010
1000
0001
0010
0100
,
1000
0000
0001
0010
0100
0000
1000
0000
0001
0000
0100
0001
1000
0000
0010
0000
,
0200
0000
0301
0010
0001
1000
0010
0100
,
0120
0000
1030
0010
2001
0000
3010
0000
,
0001
0000
0010
0000
1000
0000
0010
0000
0011
0000
0000
1010
0000
0000
0001
0000
,
0100
0000
0010
1000
0100
0000
1000
0100
1000
0000
0010
0100
0001
0000
1000
0001
,
2000
0000
3100
0000
0002
0100
0103
0000
,
0010
0000
0100
0001
0100
0000
0010
1000
0001
0000
1000
0100
1000
0000
0010
0100
,
0002
0000
0103
0000
2000
0010
3010
0000
,
0100
0000
0001
0100
0010
0000
1000
0001
0100
0000
0010
1000
0100
0000
1000
0001
,
2000
0000
3100
0000
0020
0100
0130
0000
,
0102
0000
0013
1000
2100
0000
3010
0000
,
0100
0000
0010
0000
0100
0000
0001
0000
0101
0000
0000
1100
0000
0000
1001
0000
,
2010
0000
3100
1000
1002
0000
0103
0010
,
0100
0000
0001
0000
1000
0000
0010
0000
1010
0000
0000
1001
0000
0000
0101
0000
,
1002
0000
0103
0010
2010
0000
3100
0000
,
1000
0000
0100
0000
0010
0000
0001
0000
0011
0000
0000
1100
0000
0000
0101
0000
;
