#TITLE:What Makes You Beautiful (Dave Aude Club Mix);
#SUBTITLE:;
#ARTIST:One Direction;
#TITLETRANSLIT:;
#SUBTITLETRANSLIT:;
#ARTISTTRANSLIT:;
#CREDIT:;
#BANNER:What Makes You Beautiful (Dave Aude Club Mix)-bn.png;
#BACKGROUND:What Makes You Beautiful (Dave Aude Club Mix)-bg.png;
#LYRICSPATH:;
#CDTITLE:;
#MUSIC:What Makes You Beautiful (Dave Aude Club Mix).mp3;
#OFFSET:-0.080;
#SAMPLESTART:60.040;
#SAMPLELENGTH:16.180;
#SELECTABLE:YES;
#BPMS:0.000=128.000,60.000=31.750,61.000=128.000,93.000=64.000,108.750=70.000,109.000=128.000;
#STOPS:139.000=0.220
,139.250=0.260
;
#BGCHANGES:;

//---------------dance-single - ----------------
#NOTES:
     dance-single:
     :
     Beginner:
     3:
     0.184,0.267,0.036,0.000,0.000: // measure 1
0000
0000
0000
0000
,  // measure 2
0000
0000
0000
0000
,  // measure 3
0100
0000
0001
0000
,  // measure 4
1000
1000
0100
0100
,  // measure 5
1000
0000
0010
0000
,  // measure 6
1000
0000
0001
0000
,  // measure 7
0010
0000
0100
0000
,  // measure 8
0010
0010
0001
0001
,  // measure 9
0010
0000
0001
0000
,  // measure 10
1000
0000
0010
0000
,  // measure 11
1000
0000
0100
0000
,  // measure 12
0010
0010
0100
0100
,  // measure 13
0010
0000
0001
0000
,  // measure 14
1000
0000
0010
0000
,  // measure 15
0100
0000
0001
0000
,  // measure 16
1001
0100
0000
0000
,  // measure 17
1000
0100
0000
0000
,  // measure 18
0010
0001
0000
0000
,  // measure 19
0100
0001
0000
0000
,  // measure 20
1000
0010
0000
0000
,  // measure 21
0100
0010
0000
0000
,  // measure 22
1000
0100
0000
0000
,  // measure 23
0010
0001
0000
0000
,  // measure 24
0000
1001
1000
0100
,  // measure 25
0010
0001
0100
0010
,  // measure 26
0010
1000
0001
1000
,  // measure 27
0100
0010
0001
1001
,  // measure 28
1001
0010
0010
0001
,  // measure 29
0010
0010
0000
0001
,  // measure 30
0000
1000
1000
0100
,  // measure 31
1000
1000
0000
0010
,  // measure 32
0000
0100
0100
0010
,  // measure 33
0100
0100
0000
0001
,  // measure 34
0000
0010
0000
0100
,  // measure 35
0000
1000
0100
1000
,  // measure 36
0010
0000
0100
0000
,  // measure 37
0001
0100
0001
0000
,  // measure 38
0010
0000
0001
0000
,  // measure 39
1000
0100
1000
0000
,  // measure 40
0010
0000
1000
0000
,  // measure 41
0001
0100
0001
0000
,  // measure 42
1000
0000
1000
0000
,  // measure 43
0100
0100
0100
0100
,  // measure 44
0100
0000
0010
0000
,  // measure 45
0001
0001
0001
0001
,  // measure 46
0001
0000
1000
0000
,  // measure 47
0010
0010
0010
0010
,  // measure 48
0010
0000
0100
0000
,  // measure 49
0001
0001
0001
0001
,  // measure 50
0001
0000
0010
0000
,  // measure 51
0100
0100
0100
0100
,  // measure 52
0100
0000
1000
0000
,  // measure 53
1000
0000
0010
0000
,  // measure 54
0100
0000
0001
0000
,  // measure 55
1000
0000
0001
0001
;

//---------------dance-single - ----------------
#NOTES:
     dance-single:
     :
     Easy:
     6:
     0.332,0.365,0.186,0.115,0.000:
0000
0000
0000
0000
,
0000
0000
0000
0000
,
0100
0000
0000
0001
0001
0000
0000
1000
,
1000
0100
0010
1001
,
0010
0000
0000
1000
1000
0000
0000
0001
,
0001
0000
0000
0010
0000
0010
0000
0010
,
0010
0000
0000
0100
0100
0000
0000
1000
,
1000
0001
0100
0110
,
1000
0000
0100
1000
0100
0000
1000
0000
,
0001
0000
0100
0001
0100
0000
0010
0000
,
1000
0000
0001
0010
0001
0000
0100
0000
,
0001
0000
1000
0100
1000
0000
0010
0000
,
1000
0000
0010
0100
0010
0000
1000
0000
,
0001
0000
0010
0100
0010
0000
0001
0000
,
1000
0000
0001
0100
0001
0000
1000
0000
,
0200
0310
0000
0001
,
0100
0010
0100
0000
0000
0000
0001
0000
,
1000
0100
1000
0000
0000
0000
0100
0000
,
0000
0000
0010
0010
0010
0000
0001
0000
,
1000
0010
0000
1000
,
0001
0100
0001
0000
0000
0000
0010
0000
,
0001
1000
0001
0000
0000
0000
0010
0000
,
0000
0000
0100
0100
0100
0000
1000
0000
,
0000
0000
0010
0010
1000
1000
0100
0010
,
0001
0000
0100
0100
0001
0001
0010
0001
,
1000
0000
0100
1000
0010
0100
0001
0010
,
0100
1000
0100
0100
0010
0010
0001
1000
,
1001
0010
0010
1000
,
1000
1100
1001
0101
,
0010
0100
0100
0001
,
0001
0011
1001
1100
,
1000
0010
0010
1000
,
1000
1010
1001
0110
,
1000
0200
0000
0020
,
0330
0000
0001
0100
0001
0100
0001
0000
,
0100
0010
1000
0100
,
1100
0000
1001
0000
0100
1000
0100
0000
,
0010
0001
1000
0010
,
1010
0000
0101
0000
0100
0010
0100
0000
,
0001
0100
0010
1000
,
1001
0000
0110
0000
1000
0100
1000
0000
,
0002
0000
2000
3003
,
0100
0010
0100
0010
0100
0000
0000
0000
,
0020
0000
0002
0033
,
0100
0010
0100
0010
0100
0000
0000
0000
,
0002
0000
2000
3003
,
0100
1000
0100
1000
0100
0000
0000
0000
,
2000
0000
0020
3030
,
0100
0001
0100
0001
0100
0000
0000
0000
,
0002
0000
2000
3003
,
0010
0100
0010
0100
0010
0000
0000
0000
,
1000
0100
0010
0110
,
0001
1000
0010
0101
,
0010
0001
0100
1010
,
0001
0000
1000
0000
0100
0000
0010
0100
;

//---------------dance-single - ----------------
#NOTES:
     dance-single:
     :
     Hard:
     14:
     0.661,0.804,0.479,0.186,0.391:
0000
0000
0000
0000
,
0000
0000
0000
0000
,
0010
0000
0100
0001
0010
0000
0100
0000
1000
0000
0010
0100
0001
0000
0010
0000
,
0100
0000
1000
0001
1000
0000
0100
0000
0110
0000
0000
0011
0000
0000
1100
0000
,
0001
0000
1000
0100
0010
0000
0001
0000
0100
0000
0010
0100
0001
0000
0010
0000
,
0100
0000
1000
0100
1000
0000
0001
0000
0100
0000
0010
0100
0001
0000
0010
0000
,
0100
0000
1000
0001
1000
0000
0100
0000
0010
0000
0001
0100
0010
0000
1000
0000
,
0100
0000
1000
0010
1000
0000
0100
0000
0110
0000
0000
0011
0000
0000
1100
0000
,
0010
0000
0000
1000
0100
0000
1000
0000
0001
0000
0000
0100
0010
0000
0100
0000
,
0001
0000
0000
0010
0100
0000
0010
0000
0001
0000
1000
0000
0100
0000
1000
0000
,
0010
0000
0000
0100
0001
0000
0100
0000
0010
0000
0000
1000
0100
0000
0001
0000
,
0100
0000
1000
0000
0010
0000
0100
0000
0110
0000
0000
1001
0000
0000
0110
0000
,
0100
1000
0010
0100
0001
0010
0100
1000
,
0010
0100
0001
0100
0010
1000
0100
0010
,
0001
1000
0100
1000
0010
0100
0001
0010
,
2002
0000
3003
0000
0100
0000
0000
0010
0100
0000
0000
0000
0001
0000
0000
0100
,
0001
0000
0100
0000
0010
0000
0000
1000
0100
0000
0000
0000
0010
0000
0000
0100
,
1000
0000
0010
0000
0100
0000
0000
0001
0100
0000
0010
0000
1000
0000
0000
0001
,
0010
0000
0100
0000
1000
0000
0001
0000
0100
0000
0000
0000
0010
0000
0000
0100
,
0010
0000
0100
0000
0001
0000
0000
0100
0010
0000
0000
0000
0001
0000
0000
1000
,
0100
0000
0010
0000
0001
0000
0000
0100
0010
0000
0000
0000
1000
0000
0000
0100
,
1000
0000
0010
0000
0100
0000
0000
0001
0010
0000
0100
0000
1000
0000
0000
0010
,
0100
0000
0010
0000
1010
0000
0000
0100
0010
0000
0000
0100
0001
0000
0000
1000
,
0020
0000
0000
0000
0230
0000
0301
1000
0200
0000
1300
0001
0200
0000
0310
0000
,
0110
0000
1001
0000
0020
0000
0031
0010
0200
0000
1300
0001
0200
0000
0310
0000
,
0100
0001
0001
0001
2000
0000
3010
1000
0200
0000
0310
0001
2000
0000
3010
0000
,
0100
0000
0000
0000
0001
0000
0000
0000
1000
0000
0100
0000
0010
0000
0001
0000
0100
0000
0010
0000
1000
0000
0001
0000
0010
0100
0010
0100
0010
0100
0010
0100
,
0010
0001
1000
0010
1010
0000
0100
0001
1000
0000
0100
0000
1100
0000
0010
0001
,
0100
0010
0210
0000
0310
0100
0001
0010
,
0100
0000
1000
0000
1001
0000
1000
0010
0100
0000
0001
0000
0011
0000
0100
0001
,
0100
0010
2010
0000
3100
1000
0010
0100
,
0001
0000
0010
0000
0110
0000
0010
0001
0100
0000
0010
0000
1010
0000
1000
0001
,
0010
0000
0100
0000
2100
0000
0000
3000
0010
0000
1000
0000
0001
0000
0010
0000
,
0100
1000
1100
0000
0110
0010
0011
0000
,
1001
0000
0000
0000
0010
0000
1000
0000
0001
0000
0100
0000
0110
1001
0101
0000
,
0010
0000
1000
0100
0010
0000
0001
1000
0001
0000
0100
0010
0100
0000
0001
0100
,
0002
0000
0103
0010
0100
0001
0010
0100
,
1000
0000
0010
1000
0010
0000
1000
0100
1000
0000
0001
0100
0001
0000
1000
0001
,
2000
0000
3010
1000
0001
0010
0100
1000
,
0001
0000
0010
0001
0100
0000
0010
1000
0100
0000
0010
0001
1000
0000
0100
0010
,
0002
0000
0103
0010
0100
0001
0010
0100
,
0110
0000
1100
0001
0101
0000
1010
1000
,
0001
0000
0010
0000
0100
0000
1000
0000
1100
0000
0000
0110
0000
0000
0011
0000
,
0100
0000
0110
0001
0100
0000
1002
0000
,
0013
0000
0001
0000
0100
0000
0010
0000
0110
0000
0000
0101
0000
0000
1100
0000
,
0100
0000
0110
0010
1001
0000
2100
0000
,
3010
0000
1000
0000
0001
0000
0100
0000
0010
0000
1000
0100
0000
0100
0010
0000
,
0001
0000
0110
0010
1002
0000
0103
0000
,
1000
0000
0010
0000
0100
0000
0001
0000
0010
0000
0100
1000
0000
1000
0010
0000
,
1010
0101
0011
1100
,
0001
0000
1000
0000
0100
0000
0010
0000
0011
0000
0000
1100
0000
0000
0101
0000
,
0010
0000
1000
0100
1000
0000
0010
0000
0100
0000
0001
1000
0001
0000
0010
0000
,
0100
0000
1000
0001
0100
0000
0010
0000
1000
0000
0001
0010
0100
0000
1000
0000
,
0001
0000
0010
0100
0010
0000
0001
0000
1000
0000
0010
0100
0010
0000
1000
0000
,
0001
0000
0100
0001
0100
0000
0010
0000
1000
0000
0001
1000
0001
0000
0110
0000
;

//---------------dance-single - ----------------
#NOTES:
     dance-single:
     :
     Medium:
     10:
     0.474,0.535,0.222,0.178,0.071:
0000
0000
0000
0000
,
0000
0000
0000
0000
,
1010
0000
0000
0100
0101
0000
0000
0010
,
0100
0010
1000
0100
0010
0001
1000
0000
,
1001
0000
0000
0010
1010
0000
0000
0100
,
0110
0000
0000
0101
0000
1001
0000
0100
,
1100
0000
0000
0010
0110
0000
0000
0001
,
0010
0100
1000
0100
0010
0001
1000
0000
,
0110
0000
1000
0001
0100
0000
0001
1000
,
0100
0020
0032
2003
,
3010
0000
1000
0001
0100
0000
0010
0100
,
0001
0100
0010
1000
0100
1000
0001
0000
,
2000
0000
3100
0010
0002
0000
0103
0010
,
1000
0000
0100
0000
0010
0001
1000
0000
,
0010
1000
0100
1000
0010
0100
0001
0010
,
0200
0310
0001
1000
,
0100
1000
0001
0000
0100
0000
0010
0000
,
1000
0010
0100
0000
0010
0100
0001
0000
,
0010
0100
1000
0001
1000
0000
0010
1000
,
0001
1000
0010
0000
0100
0000
0001
0000
,
0010
0001
0100
0000
0010
0000
0100
0000
,
0001
0100
0010
0000
1000
0001
0010
0000
,
0100
1000
0010
1000
0100
1000
0001
0010
,
0100
0000
0110
0001
1000
0001
0100
0010
,
1000
1100
0101
0010
0001
1000
0010
0100
,
0001
1001
1100
0010
0001
0100
0010
1000
,
0100
0000
0010
0000
0001
0100
0001
0100
0010
1000
0010
1000
0100
0010
0100
0010
,
0001
1000
0001
0000
0100
0000
0000
0100
0000
0000
0100
0000
0010
0000
0000
0010
,
0000
0010
2000
0000
3100
0020
0000
0001
,
0001
0030
0000
0000
0001
0000
0000
0001
0000
0000
0001
0000
1000
0000
0000
1000
,
0000
1000
0020
0000
0130
0002
0000
1000
,
1003
0000
0000
0000
0100
0000
0000
0100
0000
0000
0100
0000
1000
0000
0000
1000
,
0000
1000
0002
0000
0103
0020
0000
1000
,
1030
0000
0100
1000
0100
0010
0001
0100
,
0010
0000
0100
0000
0001
0000
0010
0000
0100
0000
1000
0000
1100
0110
0011
0000
,
0001
0100
0010
0100
0001
1000
0100
0010
,
0002
0000
0013
0002
0000
0103
0010
0100
,
0001
0010
0100
1000
0001
0100
0010
1000
,
0200
0000
1300
0200
0000
0310
0001
0100
,
0010
0100
0001
0010
1000
0010
0001
1000
,
0200
0000
0310
0002
0000
0103
0010
0100
,
0002
0000
0000
1000
1003
0000
0100
0000
,
1000
0010
0100
0001
0100
0010
1000
0000
,
0002
0000
0013
0100
0100
0000
0010
0001
,
1000
0100
1000
0010
0100
0001
0010
0000
,
1000
0000
0010
0001
0100
0000
0010
1000
,
0100
0000
1000
0001
0100
0000
1010
0000
,
0100
0001
0100
0010
1000
0001
1000
0000
,
0100
0000
0100
0000
0100
0000
0100
0000
0100
0000
0000
0100
0000
0000
0100
0000
,
0010
0000
0001
1000
0100
0000
0010
0000
,
0001
0000
0001
0000
0001
0000
0001
0000
0001
0000
0000
0001
0000
0000
0001
0000
,
0100
1010
0100
0011
,
0100
1010
0100
0011
,
0100
0010
1000
0000
0001
1000
0100
0000
,
0010
0001
1001
0000
0100
0010
0110
0000
;
