#TITLE:Up All Night;
#SUBTITLE:;
#ARTIST:One Direction;
#TITLETRANSLIT:;
#SUBTITLETRANSLIT:;
#ARTISTTRANSLIT:;
#CREDIT:;
#BANNER:Up All Night-bn.png;
#BACKGROUND:Up All Night-bg.png;
#LYRICSPATH:;
#CDTITLE:;
#MUSIC:Up All Night.mp3;
#OFFSET:-0.060;
#SAMPLESTART:96.720;
#SAMPLELENGTH:17.600;
#SELECTABLE:YES;
#BPMS:0.000=139.030;
#STOPS:76.000=1.300
;
#BGCHANGES:0.000=Up All Night.avi=1.000=1=0=0,
99999=-nosongbg-=1.000=0=0=0 // don't automatically add -songbackground-
;

//---------------dance-single - ----------------
#NOTES:
     dance-single:
     :
     Beginner:
     1:
     0.115,0.142,0.015,0.000,0.000:
0000
0000
0000
0000
,
0000
0000
0000
0000
,
0000
0000
0000
0000
,
0000
0000
0000
0000
,
1000
0000
1000
0000
,
0100
0000
0100
0000
,
0010
0000
0010
0000
,
0001
0000
0000
0000
,
0001
0000
0001
0000
,
1000
0000
1000
0000
,
0010
0000
0010
0000
,
0100
0000
0000
0000
,
0010
0000
0010
0000
,
0000
0010
0000
0000
,
1000
0000
1000
0000
,
0000
1000
0000
0000
,
0100
0000
0100
0000
,
0000
0100
0000
0000
,
0010
0000
0010
0000
,
0010
0000
0000
0001
,
0000
0001
0000
0001
,
0000
0001
0000
0001
,
0000
0001
0000
0000
,
0000
0000
0000
1000
,
0000
1000
0000
1000
,
0000
1000
0000
1000
,
0000
1000
0000
0000
,
0000
0010
0000
0000
,
0000
1000
0000
0000
,
0000
0010
0000
0000
,
0000
0100
0000
0000
,
0000
0000
0000
0001
,
0000
0001
0000
0001
,
0000
0001
0000
0001
,
0000
0001
0000
0000
,
0000
0100
0000
0000
,
0100
0100
0000
0000
,
0000
0001
0000
0000
,
0001
0001
0000
0000
,
0000
1001
0000
0000
,
0000
0100
0000
0000
,
0000
1000
0000
0000
,
0000
0010
0000
0010
,
0000
0010
0000
0000
,
0000
1000
0000
0000
,
0000
0001
0000
0000
,
0000
0100
0000
0100
,
0000
0100
0000
0000
,
0000
0000
0010
0010
,
0000
1000
0000
0000
,
0000
0000
0001
0001
,
0000
0010
0000
0000
,
0000
0000
0100
0100
,
0000
0010
0000
0001
,
0000
1000
0000
0000
,
0000
0010
0010
0010
,
0000
0000
0000
0000
,
0000
1000
0000
0000
,
0000
0001
0000
0000
,
0000
0100
0100
0100
,
0000
0000
0000
0000
,
0000
0100
0000
0000
,
0000
0001
0000
0000
,
0000
1000
0000
1000
,
0000
1000
0000
0000
,
0000
0001
0000
0001
,
0000
0001
0000
0000
,
0000
0010
0000
0010
,
0000
0010
0000
0000
,
0000
0100
0000
0100
,
0000
0100
0000
0000
,
0000
1001
0000
0000
,
0000
0100
0000
0100
,
0000
0100
0000
0000
,
0000
0010
0000
0010
,
0000
0010
0000
0000
;

//---------------dance-single - ----------------
#NOTES:
     dance-single:
     :
     Medium:
     6:
     0.359,0.453,0.444,0.113,0.000:
0000
0000
0000
0000
,
0000
0000
0000
0000
,
0000
0000
0000
0000
,
0000
0000
0000
0000
,
1000
0000
0100
0000
1000
1000
0100
0000
,
2000
3002
0203
0300
,
0010
0000
0100
0000
0001
0000
0010
0010
,
0001
0100
0010
0000
,
0100
0000
0001
0000
1000
0000
0010
0010
,
2000
3200
0320
0032
,
0003
0000
0100
0000
0010
0000
1000
1000
,
0100
1000
0001
0000
,
0100
0010
1000
0001
,
0000
0100
1001
0000
,
0010
1000
0001
0010
,
0000
0100
1001
0000
,
0010
1000
0100
0001
,
0000
0100
1010
0000
,
0100
0001
1000
0010
,
1001
0101
0101
0101
,
0010
0010
0000
0000
0100
0100
0000
0000
,
0001
0001
0000
0000
1000
1000
0000
0000
,
0100
0100
0000
0000
0000
0000
1000
0000
,
1000
0110
0110
0110
,
1000
1000
0000
0000
0010
0010
0000
0000
,
1000
1000
0000
0000
0100
0100
0000
0000
,
0010
0010
0000
0000
0000
0000
0001
0000
,
1000
0100
1100
0010
,
1000
0001
0000
0010
,
0001
0100
0101
0010
,
0100
0000
0001
0000
0000
0000
1000
0010
,
1000
0110
0110
0110
,
1000
1000
0000
0000
0100
0100
0000
0000
,
0001
0001
0000
0000
0000
0000
0000
0000
,
0100
0010
1000
0001
,
0000
1100
0101
1100
,
1010
1001
0000
0110
,
0101
1100
1010
1001
,
0110
1001
0000
0110
,
1100
0001
0100
0010
,
0100
0002
0203
0320
,
2030
3000
0100
1000
,
0010
0000
0100
0000
0001
1000
0001
0000
,
1001
0000
0010
0001
,
0100
0020
2030
3002
,
0203
0300
0010
0100
,
0001
0000
1000
0000
0100
0010
0100
0000
,
0110
1000
1000
0100
,
0001
0000
1000
0101
,
0000
0001
0001
0100
,
1000
0000
0001
1100
,
0000
0010
0010
0001
,
0100
0000
0010
0101
,
0000
0010
1000
0001
,
0100
0000
1001
0000
0000
0000
0100
0100
,
0100
1100
1100
1100
,
0010
0010
0000
0000
0001
0001
0000
0000
,
1000
1000
0000
0000
0010
0010
0000
0000
,
1000
1000
0000
0000
0000
0000
0100
0000
,
0010
0011
0011
0011
,
0100
0100
0000
0000
0001
0001
0000
0000
,
1000
1000
0000
0000
0010
0010
0000
0000
,
1000
1000
0000
0000
0000
0000
0001
0000
,
0100
0010
1010
0100
,
0001
1000
0000
0001
,
0010
0100
0110
0010
,
0001
0000
1000
0000
0000
0000
0010
0100
,
0010
0101
0101
0101
,
0010
0010
0000
0000
0100
0100
0000
0000
,
0001
0001
0000
0000
0000
0000
1000
0000
,
0100
0001
0100
1000
,
0010
0110
0101
1100
,
1001
1010
0000
0110
,
0101
1100
1001
0110
,
0011
0000
1010
0000
0000
0000
0001
1000
,
0001
1001
0000
0000
;

//---------------dance-single - ----------------
#NOTES:
     dance-single:
     :
     Hard:
     8:
     0.475,0.481,0.308,0.609,0.000:
0000
0000
0000
0000
,
0000
0000
0000
0000
,
0000
0000
0000
0000
,
0000
0000
0000
0000
,
0001
0000
0010
0001
0100
0000
0010
0100
,
0002
0103
2000
3010
,
0000
0000
0100
1000
0010
0000
0100
0010
,
2000
3010
0002
0103
,
0000
0000
0010
0100
0010
0000
1000
0100
,
2000
3002
0100
0103
,
0000
0000
0001
0100
0001
0000
1000
0010
,
2000
0000
3100
0000
0010
1000
0010
0000
,
0200
0302
2003
3100
,
0000
1000
0020
0000
0230
0000
0300
0000
,
0002
2003
3200
0320
,
0030
0100
2000
0000
3020
0000
0030
0000
,
2000
3002
0203
0302
,
0003
0010
0200
0000
2300
0000
3000
0000
,
0020
2030
3002
0203
,
0310
1001
0110
1001
,
1000
0200
0000
0300
0001
0020
0000
0030
,
0001
0200
0000
0300
1000
0020
0000
0030
,
2000
0002
0000
3003
0000
0000
0100
0010
,
0100
1001
0110
1001
,
0001
0020
0000
0030
1000
0200
0000
0300
,
1000
0020
0000
0030
0001
0200
0000
0300
,
0002
2000
0000
3003
0000
0000
0010
1000
,
0001
2000
0000
3002
0000
0003
0100
0010
,
0100
0002
0000
0003
0000
0000
0010
0001
,
0010
0200
0000
2300
0000
3000
0010
1000
,
0001
0200
0000
0300
0000
0000
0001
0100
,
0001
1001
0110
1001
,
1000
0200
0000
0300
0010
0002
0000
0003
,
0100
0020
0000
0000
1000
0000
1000
0000
,
0100
0000
0130
0000
1000
0000
0001
1000
,
0001
0110
1000
0001
,
1010
0000
0101
0000
0010
0000
0001
0100
,
1000
0110
0100
0101
,
1010
0000
0110
0000
0001
0000
0010
1000
,
0001
0000
0110
0000
1000
1000
0100
0000
,
1000
1000
0200
0000
0320
0000
0032
0000
,
0203
0000
0300
0000
0001
0001
0100
0000
,
0001
0001
0100
0000
0010
0100
0020
0000
,
0230
0000
0301
0000
1000
1000
0100
0000
,
1000
1000
0200
0000
0320
0000
0032
0000
,
0203
0000
0300
0000
0001
0001
0100
0000
,
0001
0001
0200
0000
0310
0100
0110
0000
,
1001
0000
0100
0010
0100
0010
0100
0010
,
0100
0000
0000
0001
1000
0001
1000
0000
,
0000
0000
0100
0010
0100
0010
0100
0010
,
0100
0000
0000
1000
0001
1000
0001
0000
,
0000
0000
0100
0010
0100
0010
0100
0010
,
0100
0000
0000
0001
1000
0001
1000
0000
,
0000
0000
0010
0100
0010
0100
0010
0100
,
0010
0000
1001
0000
0000
0010
0100
0001
,
1000
1001
0110
1001
,
0001
0020
0000
0030
1000
0200
0000
0300
,
1000
0020
0000
0030
0001
0200
0000
0300
,
0002
2000
0000
3003
0000
0000
0010
0100
,
0010
1001
0110
1001
,
1000
0200
0000
0300
0001
0020
0000
0030
,
0001
0200
0000
0300
1000
0020
0000
0030
,
2000
0002
0000
3003
0000
0000
0100
0001
,
1000
0002
0000
2003
0000
3000
0010
0100
,
0010
2000
0000
3000
0000
0000
0100
1000
,
0100
0020
0000
0032
0000
0003
0100
0001
,
1000
0020
0000
0030
0000
0000
1000
0010
,
1000
1001
0110
1001
,
0001
0020
0000
0030
0100
2000
0000
3000
,
0010
0200
0000
0000
0001
0000
0001
0000
,
0010
0310
0110
1000
,
1001
1100
0011
1000
,
0110
0000
1001
0000
0100
1000
0001
0000
,
0110
1001
1100
0101
,
0010
0001
0100
0000
0110
0000
0001
0100
,
1000
1001
0000
0000
;

//---------------dance-single - ----------------
#NOTES:
     dance-single:
     :
     Easy:
     3:
     0.204,0.226,0.075,0.045,0.000:
0000
0000
0000
0000
,
0000
0000
0000
0000
,
0000
0000
0000
0000
,
0000
0000
0000
0000
,
1000
0000
0100
0000
,
0010
0001
0100
0000
,
0010
0000
0100
0000
,
2002
3003
0000
0000
,
0100
0000
1000
0000
,
0010
1000
0100
0000
,
0010
0000
0001
0000
,
0220
0330
0000
0000
,
0001
0100
0010
1000
,
0000
0001
1000
0000
,
1000
0100
0010
0001
,
0000
1000
0001
0000
,
0100
0010
1000
0100
,
0000
1000
0100
0000
,
1000
0001
0100
0010
,
0100
0001
0001
0001
,
0000
0100
0000
0010
,
0000
1000
0000
0001
,
0000
1000
0000
0100
,
1000
0100
0100
0100
,
0000
1000
0000
0001
,
0000
0010
0000
0001
,
0000
0100
0000
0010
,
0000
1000
1000
0000
,
0000
0001
0001
0000
,
0000
0100
0100
0000
,
0000
0010
0010
0000
,
0000
0100
0100
0100
,
0000
0001
0000
0010
,
0000
0100
0000
1000
,
0000
0010
0000
0100
,
0000
0001
0001
0001
,
0100
0001
0000
0110
,
0000
1000
1000
1000
,
0100
1000
0000
0110
,
0000
0001
0000
0100
,
0000
0010
1000
0100
,
0000
1000
0000
0001
,
0000
0220
0330
0001
,
0000
0100
0000
0010
,
0000
1000
0100
0010
,
0000
0001
0000
1000
,
0000
0001
0000
0110
,
0000
0010
0010
0100
,
0001
0000
0100
0001
,
0000
0010
0010
0100
,
1000
0000
0100
1000
,
0000
0010
1000
0100
,
0010
0000
0001
0100
,
0000
0010
0100
0001
,
1000
1001
0000
0000
,
0000
0100
0100
0100
,
0000
1000
0000
0010
,
0000
1000
0000
0001
,
0000
0010
0000
0001
,
0000
1000
1000
1000
,
0000
0010
0000
1000
,
0000
0100
0000
0010
,
0000
0001
0000
0100
,
0000
0010
0010
0000
,
0000
0100
0000
0000
,
0000
0001
0001
0000
,
0000
1000
0000
0000
,
0000
0010
0010
0010
,
0000
1000
0000
0100
,
0000
0010
0000
0001
,
0000
1000
0000
0001
,
0000
0100
0100
0001
,
1000
0100
0000
0110
,
0000
1000
0001
0100
,
0010
0100
0000
0110
,
0000
0101
0000
0000
;

//---------------dance-single - ----------------
#NOTES:
     dance-single:
     :
     Challenge:
     12:
     0.589,0.538,0.354,0.166,0.181: // measure 1
0000
0000
0000
0000
,  // measure 2
0000
0000
0000
0000
,  // measure 3
0000
0000
0000
0000
,  // measure 4
0000
0000
0000
0000
,  // measure 5
0010
1000
0100
1000
0001
0010
0100
1000
,  // measure 6
0010
0000
0000
0010
0100
0000
0000
0100
0001
0000
0000
0001
1000
0000
0000
0000
,  // measure 7
0100
1000
0010
1000
0001
0010
0100
1000
,  // measure 8
0002
0000
0000
0000
1000
0000
1000
0000
1000
0003
0000
0000
1001
0000
0000
0000
,  // measure 9
0110
0010
0001
0100
0010
0100
0001
0010
,  // measure 10
0100
0000
0000
0100
1000
0000
0000
1000
0010
0000
0000
0010
0100
0000
0000
0000
,  // measure 11
0001
0100
0010
1000
0100
1000
0001
0010
,  // measure 12
0200
0000
0010
0010
0310
0000
0011
0000
,  // measure 13
1010
0010
0100
0001
1000
0010
1001
0000
,  // measure 14
0000
1000
0010
0100
0101
0000
0010
0000
,  // measure 15
0100
0001
0010
0100
1000
0001
1100
0000
,  // measure 16
0000
0010
0100
1000
1001
0000
0010
0000
,  // measure 17
1000
0001
0100
0010
1000
0001
0110
0000
,  // measure 18
0000
0100
0001
1000
1010
0000
1000
0000
,  // measure 19
0100
1000
0001
1000
0010
0100
0001
0010
,  // measure 20
0200
0300
0000
0000
0010
0001
0000
0000
0001
0100
0000
0000
0010
1000
0000
0000
,  // measure 21
0100
0010
0002
0000
0103
0010
2000
0000
,  // measure 22
3100
1000
0002
0000
1003
0100
0020
0000
,  // measure 23
0031
0010
0200
0000
1300
0010
0100
0001
,  // measure 24
0010
0000
0000
0000
0100
1000
0000
0000
0010
0100
0000
0000
0001
1000
0000
0000
,  // measure 25
0010
1000
0200
0000
1300
0001
2000
0000
,  // measure 26
3001
0010
0200
0000
0310
0001
2000
0000
,  // measure 27
3100
0010
0002
0000
0103
0010
0100
0001
,  // measure 28
0010
0100
1100
0000
1001
0000
0010
1000
,  // measure 29
0001
0100
0101
0000
1010
0000
0001
0100
,  // measure 30
0010
1000
0100
0001
0100
1000
0010
0100
,  // measure 31
0010
1000
0100
1000
0001
0010
0100
1000
,  // measure 32
0010
0000
0000
0000
0100
0001
0000
0000
1000
0100
0000
0000
0001
1000
0000
0000
,  // measure 33
0010
1000
0002
0000
0013
0100
2000
0000
,  // measure 34
3010
0100
0002
0000
0100
0000
0010
0010
,  // measure 35
1000
0000
0000
0000
0010
0000
0000
0000
0100
0003
0000
0000
0110
0000
0000
0000
,  // measure 36
1001
0000
0000
0000
0100
0000
0000
0001
0100
0000
0000
0010
1000
0000
0000
0100
,  // measure 37
0010
0000
0000
0001
1000
0000
0000
0000
0110
0000
0000
0000
1000
0000
0100
0000
,  // measure 38
0010
0000
0000
0000
0001
0000
0000
0100
0010
0000
0000
0100
0001
0000
0000
0010
,  // measure 39
0100
0000
0000
1000
0001
0000
0000
0000
1010
0000
0000
0000
1000
0000
0100
0000
,  // measure 40
0001
0000
0110
0000
0010
0001
0100
0010
,  // measure 41
0100
0000
0001
0000
1000
0100
0000
0000
0001
0100
0000
0000
0010
1000
0000
0000
,  // measure 42
0001
0100
0000
0000
0010
0000
1000
0000
0100
0000
1000
0000
0001
0000
0010
0000
,  // measure 43
0100
0000
1000
0000
0020
0000
0000
0000
0100
0000
0100
0030
0101
0000
1000
0000
,  // measure 44
1001
0000
0010
1000
0100
1000
0001
0010
,  // measure 45
0100
0000
1000
0000
0010
0100
0000
0000
0001
0100
0000
0000
0010
1000
0000
0000
,  // measure 46
0100
0010
0000
0000
0001
0000
0010
0000
0100
0000
0010
0000
0001
0000
1000
0000
,  // measure 47
0010
0100
0002
0000
0100
0103
1010
1000
,  // measure 48
1001
0000
0100
1000
0010
0100
0001
0010
,  // measure 49
0110
0110
0000
0001
0010
0100
1100
1100
,  // measure 50
0000
0000
0010
0001
1000
0010
0001
0010
,  // measure 51
1010
1010
0000
0100
0001
0010
0110
0110
,  // measure 52
0000
0000
0001
0010
0100
1000
0010
0100
,  // measure 53
0110
0110
0100
0001
0010
0100
0101
0101
,  // measure 54
0000
0011
1100
1001
,  // measure 55
0010
0100
0101
0000
0000
1000
0000
0100
,  // measure 56
0001
0000
0100
0000
1000
0100
0000
0000
0010
0001
0000
0000
0100
0010
0000
0000
,  // measure 57
0001
0100
0010
0100
0001
0010
0100
0010
,  // measure 58
0001
1000
0100
1000
0001
0010
0100
0010
,  // measure 59
0001
0100
0020
0000
0030
0000
0100
0001
,  // measure 60
0100
0000
0010
0000
1000
0100
0000
0000
0001
0010
0000
0000
0100
0010
0000
0000
,  // measure 61
0001
1000
0100
0010
0001
1000
0010
0001
,  // measure 62
0010
1000
0100
1000
0010
0100
0001
0010
,  // measure 63
0100
1000
0002
0000
0003
0000
0100
0010
,  // measure 64
0100
0001
1001
0000
1100
0000
0010
0001
,  // measure 65
1000
0010
0200
0000
0310
0000
0100
0001
,  // measure 66
0100
0010
1010
0000
1100
0000
0010
0001
,  // measure 67
1000
0001
0020
0000
0031
0000
0100
0001
,  // measure 68
1000
0000
0100
0000
0010
0001
0000
0000
1000
0100
0000
0000
0001
1000
0000
0000
,  // measure 69
0010
1000
0100
1000
0010
0100
0001
0010
,  // measure 70
1000
0010
0100
1000
0010
0100
0001
0010
,  // measure 71
0100
1000
0010
1000
0001
0100
0110
0000
,  // measure 72
0101
0000
0000
0000
1000
0000
0000
0100
0010
0000
0000
0001
0100
0000
0000
0010
,  // measure 73
1000
0000
0000
0001
0100
0000
0000
0000
1010
0000
0000
0000
0001
0000
1000
0000
,  // measure 74
0100
0000
0000
0000
0010
0000
0000
0001
1000
0000
0000
0100
0010
0000
0000
0001
,  // measure 75
0100
0000
0000
0010
1000
0000
0000
0000
0101
0000
0000
0000
1000
0000
0100
0000
,  // measure 76
0001
0010
1000
0000
0000
0000
0000
0000
;
