#TITLE:Tell Me A Lie;
#SUBTITLE:;
#ARTIST:One Direction;
#TITLETRANSLIT:;
#SUBTITLETRANSLIT:;
#ARTISTTRANSLIT:;
#CREDIT:;
#BANNER:Tell Me A Lie-bn.png;
#BACKGROUND:Tell Me A Lie-bg.png;
#LYRICSPATH:;
#CDTITLE:;
#MUSIC:Tell Me A Lie.mp3;
#OFFSET:-0.060;
#SAMPLESTART:89.580;
#SAMPLELENGTH:16.180;
#SELECTABLE:YES;
#BPMS:0.000=134.010;
#STOPS:;
#BGCHANGES:;

//---------------dance-single - ----------------
#NOTES:
     dance-single:
     :
     Beginner:
     1:
     0.101,0.137,0.000,0.000,0.000: // measure 1
0000
0000
0000
0000
,  // measure 2
0000
0000
0000
0000
,  // measure 3
1000
0000
0000
0000
,  // measure 4
0010
0000
0000
0000
,  // measure 5
0100
0000
0000
0000
,  // measure 6
0001
0000
0000
0000
,  // measure 7
0010
0000
0000
0000
,  // measure 8
0100
0000
0000
0000
,  // measure 9
1000
0000
1000
0000
,  // measure 10
1000
0000
1000
0000
,  // measure 11
0001
0000
0001
0000
,  // measure 12
0001
0000
0001
0000
,  // measure 13
0100
0000
0000
0000
,  // measure 14
0010
0010
0010
0000
,  // measure 15
0000
0000
0000
0000
,  // measure 16
1000
0000
1000
0000
,  // measure 17
1000
0000
0000
0000
,  // measure 18
0100
0100
0100
0000
,  // measure 19
0000
0000
0000
0000
,  // measure 20
0010
0000
0010
0000
,  // measure 21
0010
0000
0000
0000
,  // measure 22
0001
0000
0000
0000
,  // measure 23
1000
0000
0000
0000
,  // measure 24
0010
0000
0010
0000
,  // measure 25
0010
0000
0000
0000
,  // measure 26
1000
0000
0000
0000
,  // measure 27
0001
0000
0000
0000
,  // measure 28
0100
0000
0100
0000
,  // measure 29
0100
0000
0000
0000
,  // measure 30
0000
0000
0000
0000
,  // measure 31
0010
0000
0000
0000
,  // measure 32
1000
0000
0000
0000
,  // measure 33
0100
0000
0000
0000
,  // measure 34
1000
0000
0000
0000
,  // measure 35
0001
0000
0000
0000
,  // measure 36
0100
0000
0000
0000
,  // measure 37
0010
0000
0000
0000
,  // measure 38
0100
0100
0000
0000
,  // measure 39
0001
0000
0000
0000
,  // measure 40
1000
0000
0000
0000
,  // measure 41
0010
0000
0000
0000
,  // measure 42
1000
0000
0000
0000
,  // measure 43
0100
0000
0000
0000
,  // measure 44
0010
0000
0000
0000
,  // measure 45
0001
0000
0000
0000
,  // measure 46
1000
0000
0000
0000
,  // measure 47
0010
0000
0000
0010
,  // measure 48
1000
0000
0000
1000
,  // measure 49
0100
0000
0000
0100
,  // measure 50
0010
0000
0000
0000
,  // measure 51
0001
0000
0000
0000
,  // measure 52
0100
0100
0100
0000
,  // measure 53
0000
0000
0000
0000
,  // measure 54
0010
0000
0010
0000
,  // measure 55
0010
0000
0000
0000
,  // measure 56
1000
1000
1000
0000
,  // measure 57
0000
0000
0000
0000
,  // measure 58
0100
0000
0100
0000
,  // measure 59
0100
0000
0000
0000
,  // measure 60
0010
0000
0000
0000
,  // measure 61
0001
0000
0000
0000
,  // measure 62
1000
0000
0000
0000
,  // measure 63
0010
0000
0010
0000
,  // measure 64
1000
0000
1000
0000
,  // measure 65
0100
0000
0100
0000
,  // measure 66
0000
0000
0001
0001
;

//---------------dance-single - ----------------
#NOTES:
     dance-single:
     :
     Medium:
     7:
     0.377,0.386,0.242,0.083,0.000:
0000
0000
0000
0000
,
0000
0000
0000
0000
,
1000
0000
0100
0000
0001
0000
0010
0001
,
0100
0010
1000
0000
,
0001
0000
0100
0000
1000
0000
0010
1000
,
0100
0010
0001
0000
,
0100
0000
0010
0000
1000
0000
0100
1000
,
0010
0100
0001
0000
,
0010
0000
0001
0100
0000
0100
0010
0000
,
1000
0000
0100
0010
0000
0010
0001
0000
,
0100
0000
0010
1000
0000
1000
0100
0000
,
1000
0100
0001
1100
,
0101
0000
0010
0000
0100
0010
0100
0000
,
0001
0100
1000
0000
,
0010
0000
1000
0000
0100
1000
0100
0000
,
0011
1100
0011
1100
,
0000
0000
0000
0000
0010
0100
0010
0000
,
1000
0001
0100
0010
,
1000
0000
0010
0000
0001
0010
0100
1000
,
0001
1000
0110
0000
,
0002
0103
0010
0100
,
0002
0103
0010
1000
,
0200
0310
0100
1000
,
1010
1010
1100
1100
,
0010
1000
0010
0000
1000
0100
1000
0000
,
0001
0100
0001
0000
0100
0010
0100
0000
,
0001
0100
0010
1000
,
0002
0000
0003
0000
1000
0100
0010
0001
,
0100
0000
0000
0000
,
0010
0000
0000
0000
,
1000
0000
0100
0000
0001
0000
0010
0001
,
0100
0010
1000
0000
,
0001
0000
0100
0000
1000
0000
0010
1000
,
0100
0010
0001
0000
,
1000
0000
0010
0000
0100
0010
1000
0000
,
0001
0000
1000
0000
0100
0010
0001
0000
,
0200
0000
0310
0100
,
0001
0100
0010
0000
1000
0100
0010
0000
,
0001
0000
0100
0000
0010
0000
1000
0100
,
1000
0100
1100
1100
,
0010
0000
1000
0000
0001
0000
0100
0001
,
0100
0001
0101
0101
,
0010
0100
0010
1000
,
0100
0000
0010
0000
0001
1000
0100
0000
,
0010
0001
0100
0010
,
1000
0001
0100
0000
0010
0000
0010
0000
,
1000
0000
0100
1000
0000
1000
0010
0000
,
0100
0000
0001
0010
0000
0010
0100
0000
,
1000
0000
0010
0100
0000
0100
0001
0000
,
0100
0010
1000
1100
,
1001
0000
0010
0000
1000
0100
1000
0000
,
1100
1100
1100
0000
,
0010
0000
1000
0000
0001
0100
0001
0000
,
1010
0101
1010
0101
,
0000
0000
0000
0000
0010
0100
0001
0100
,
0010
1000
0001
1000
,
0100
0000
0100
0000
1000
0100
1000
0000
,
1010
1010
1001
1001
,
0200
0310
0100
0001
,
0020
0130
0010
0001
,
2000
3100
0010
0001
,
0100
0010
1000
0000
0100
1000
0001
0000
,
1000
0100
1000
0000
0010
0100
0010
0000
,
1000
0100
1000
0000
0001
0100
0001
0000
,
0100
0010
1000
0100
,
0120
0000
0000
0000
0031
0100
0010
2000
,
0000
3000
0000
0000
0000
0000
0000
0000
;

//---------------dance-single - ----------------
#NOTES:
     dance-single:
     :
     Hard:
     11:
     0.561,0.496,0.325,0.125,0.000:
0000
0000
0000
0000
,
0000
0000
0000
1001
,
0010
0100
0001
0100
0010
0000
1000
0100
,
1000
0000
0010
0000
0100
0001
0100
0000
,
0010
0100
0001
0100
0010
0000
1000
0100
,
1000
0001
1001
0101
,
2010
0100
3100
0010
,
1000
0100
1000
0001
0100
0000
0010
0000
,
1000
0100
0001
1000
0010
0001
1000
0100
,
1000
0100
0001
1000
0010
0001
1000
0100
,
1000
0100
0001
1000
0010
0001
1000
0100
,
1000
0100
0001
1000
0010
0001
1000
0100
,
1100
0000
0110
0000
0001
0100
0010
1000
,
1010
0010
0100
0000
0100
0001
1000
0000
,
1010
0000
0101
0000
0010
0100
0001
0100
,
0210
0301
1002
0103
,
1010
0000
0110
0000
1000
0100
1000
0001
,
1100
0100
0010
0000
1000
0010
0100
0000
,
0110
0000
0101
0000
1000
0010
0100
0001
,
0210
0301
0120
1030
,
0010
0001
0100
0010
0100
0001
1000
0100
,
1000
0010
0100
0001
1000
0100
1000
0010
,
0100
0001
0010
0100
0010
1000
0010
0001
,
1000
0100
1000
0010
0100
0001
1000
0000
,
0010
1000
0100
1000
0001
0100
0010
0100
,
0001
1000
0100
0010
0001
1000
0010
0100
,
0010
1000
0100
0010
0001
0010
0100
1000
,
0010
0001
0010
1000
0100
0010
0001
0000
,
0210
0001
0010
0301
,
2010
0100
3001
0110
,
0001
0100
1000
0100
0000
0010
1000
0100
,
0001
0100
1000
0010
0000
0100
0001
0100
,
0010
1000
0100
0001
0000
1000
0001
0010
,
1000
0010
0100
1000
0000
0010
0100
0001
,
0010
1000
0010
0100
0000
1000
0100
0001
,
0100
1000
0010
0100
0000
0001
0100
1000
,
0100
0010
1000
0100
0000
1000
0010
0001
,
0010
0100
0001
1000
0000
0100
1000
0001
,
0100
0000
0110
0000
0001
0000
0100
0010
,
1000
0100
1000
0000
0010
1000
0001
0000
,
0100
0000
0101
0000
1000
0000
0010
1000
,
0001
1000
0100
0010
0001
0100
0010
0000
,
0100
0001
0100
0010
1000
0000
1001
0000
,
0100
0000
1000
0000
0100
1000
0100
1000
,
0002
0103
2000
3100
,
0010
0000
0100
0001
0100
0010
1000
0000
,
0001
0100
1000
0001
0010
1000
0001
0100
,
0001
0100
1000
0001
0010
1000
0001
0100
,
0001
0100
1000
0001
0010
1000
0001
0100
,
0001
0100
1000
0001
0010
1000
0001
0100
,
0101
0000
0110
0000
1000
0010
0100
0001
,
0101
0100
0010
0000
0010
1000
0001
0000
,
0101
0000
1010
0000
0100
0010
1000
0010
,
0120
1030
2001
3010
,
0101
0000
0110
0000
0001
0010
0001
1000
,
1001
1000
0100
0000
0001
0100
0010
0000
,
0110
0000
1010
0000
0001
0100
0010
1000
,
0120
1030
0210
0301
,
0100
1000
0010
0100
0010
1000
0001
0010
,
0001
0100
0010
1000
0001
0010
0001
0100
,
0010
1000
0100
0010
0100
0001
0100
1000
,
0001
0010
0001
0100
0010
1000
1001
0000
,
0100
0001
0010
0001
1000
0010
0100
0010
,
1000
0001
0010
0100
1000
0001
0100
0010
,
0100
0001
0010
0100
1000
0100
0010
0001
,
0200
0000
0000
0000
0010
0010
0010
0002
,
0000
0303
0000
0000
0000
0000
0000
0000
;

//---------------dance-single - ----------------
#NOTES:
     dance-single:
     :
     Easy:
     5:
     0.292,0.357,0.183,0.008,0.000:
0000
0000
0000
0000
,
0000
0000
0000
0000
,
1000
0100
1000
0010
,
0100
0001
1000
0001
,
0010
0001
0100
0010
,
1000
0100
1000
0010
,
0200
0000
0000
0000
,
0310
0100
0001
0000
,
0100
0000
0000
0100
0000
0000
0001
0000
,
1000
0000
0000
1000
0000
0000
0100
0000
,
0010
0000
0000
0010
0000
0000
0001
0000
,
1000
0000
0000
1000
0000
0000
0000
0000
,
0010
1000
0100
0100
,
0010
0001
0101
0000
,
0010
0010
0100
0001
,
1000
1100
0100
1100
,
0000
0000
0010
1000
,
0001
0100
0010
0110
,
0000
0001
0100
0010
,
1000
1100
0001
0101
,
0010
0100
0001
0010
,
0100
1000
0010
0100
,
0010
1000
0100
0010
,
0001
1000
0010
0010
,
1000
0100
1000
0001
,
0100
0010
0100
0001
,
0010
0100
1000
0010
,
0000
0000
0000
0000
0100
0001
0100
0001
,
0000
0000
0000
0000
,
0000
0000
0000
0000
,
0001
1000
0100
0010
,
0001
0100
0010
0110
,
0000
0010
0100
0001
,
0100
0010
1000
1100
,
0000
0100
1000
0010
,
1000
0001
0100
0101
,
0000
0010
0100
0001
,
1000
0100
0010
0110
,
0000
0100
1000
0010
,
0100
0001
1000
1001
,
0000
0010
1000
0100
,
0010
0001
0100
0101
,
0000
0010
0100
0001
,
0010
0100
1000
1100
,
0000
0010
1000
0001
,
0100
0010
0100
0000
,
0001
0000
0000
0001
0000
0000
0100
0000
,
0010
0000
0000
0010
0000
0000
1000
0000
,
0100
0000
0000
0100
0000
0000
0010
0000
,
0001
0000
0000
0001
0000
0000
1000
0000
,
0100
0100
1000
0010
,
0100
0001
1000
1000
,
0001
0100
0010
1000
,
1100
1100
1001
1001
,
0001
0100
0010
0100
,
0001
0010
0100
1000
,
0010
0100
0001
0100
,
0110
0110
1001
1001
,
0100
1000
0010
0100
,
0010
0010
1000
1000
,
0100
1000
0001
0010
,
0001
0100
0010
0010
,
0100
0001
1000
0100
,
0010
0001
0100
0010
,
1000
1100
0000
0100
,
0000
0000
0010
0000
0001
0000
1000
0001
;
