#TITLE:Stole My Heart;
#SUBTITLE:;
#ARTIST:One Direction;
#TITLETRANSLIT:;
#SUBTITLETRANSLIT:;
#ARTISTTRANSLIT:;
#CREDIT:;
#BANNER:Stole My Heart-bn.png;
#BACKGROUND:Stole My Heart-bg.png;
#LYRICSPATH:;
#CDTITLE:;
#MUSIC:Stole My Heart.mp3;
#OFFSET:-0.780;
#SAMPLESTART:49.071;
#SAMPLELENGTH:16.180;
#SELECTABLE:YES;
#BPMS:0.000=127.020;
#STOPS:;
#BGCHANGES:;

//---------------dance-single - ----------------
#NOTES:
     dance-single:
     :
     Beginner:
     2:
     0.167,0.200,0.000,0.090,0.000: // measure 1
0000
0000
0000
0000
,  // measure 2
0000
0000
0000
0000
,  // measure 3
0000
0000
0000
0000
,  // measure 4
0000
0000
0000
0000
,  // measure 5
0010
0000
0010
0000
,  // measure 6
1000
0000
1000
0000
,  // measure 7
0100
0000
0100
0000
,  // measure 8
1000
0000
1000
0000
,  // measure 9
0001
0000
0000
0000
,  // measure 10
0100
0100
0100
0000
,  // measure 11
0001
0000
1000
0000
,  // measure 12
0010
0010
0010
0000
,  // measure 13
0100
0000
0001
0000
,  // measure 14
1000
1000
1000
0000
,  // measure 15
0010
0000
1000
0000
,  // measure 16
0100
0100
0100
0000
,  // measure 17
0010
0000
0001
0000
,  // measure 18
1000
1000
1000
0000
,  // measure 19
0100
0100
0100
0000
,  // measure 20
1000
1000
1000
0000
,  // measure 21
0001
0001
0001
0000
,  // measure 22
0020
0030
0001
0000
,  // measure 23
0200
0300
0010
0000
,  // measure 24
2000
3000
0100
0000
,  // measure 25
0020
0030
0001
0000
,  // measure 26
0200
0000
0300
0000
,  // measure 27
0010
0010
0010
0000
,  // measure 28
1000
0000
0001
0000
,  // measure 29
0100
0100
0100
0000
,  // measure 30
0001
0000
1000
0000
,  // measure 31
0010
0010
0010
0000
,  // measure 32
0100
0000
0001
0000
,  // measure 33
1000
1000
1000
0000
,  // measure 34
0100
0000
0010
0000
,  // measure 35
0002
0003
0000
0000
,  // measure 36
0100
0000
0010
0000
,  // measure 37
2000
3000
0000
0000
,  // measure 38
0100
0000
1000
0000
,  // measure 39
0020
0030
0000
0000
,  // measure 40
0100
0000
0001
0000
,  // measure 41
0020
0030
0000
0000
,  // measure 42
0001
0000
1000
0000
,  // measure 43
0100
0100
0100
0000
,  // measure 44
1000
1000
1000
0000
,  // measure 45
0010
0010
0010
0000
,  // measure 46
0100
0100
0100
0000
,  // measure 47
0001
0001
0001
0000
,  // measure 48
0010
0010
0010
0000
,  // measure 49
0100
0100
0100
0000
,  // measure 50
1000
1000
1000
1000
,  // measure 51
1000
0000
0000
0000
;

//---------------dance-single - ----------------
#NOTES:
     dance-single:
     :
     Medium:
     8:
     0.389,0.450,0.360,0.100,0.000:
0000
0000
0000
0000
,
0000
0000
0000
0000
,
0000
0000
0000
0000
,
0000
0000
0000
0000
,
1000
0000
1000
0000
1000
0100
0010
0000
,
0010
0000
0010
0000
0010
0001
0100
0000
,
0100
0000
0100
0000
0100
0001
1000
0000
,
1000
0000
1000
0000
1000
0001
0100
0000
,
0000
0000
0000
0000
0000
0000
0010
1000
,
0100
1000
1010
0000
0001
0000
1000
0000
,
0010
1000
0100
0000
1000
0100
0001
0000
,
0010
0001
0100
0000
0010
0000
0110
0000
,
0001
0100
1000
1010
,
1100
0100
1000
0100
0001
0000
0010
0000
,
0001
0000
0100
0000
0010
0100
0001
0100
,
0010
1000
0001
0000
1000
0000
0110
0000
,
1000
0000
0101
0000
0010
1000
0100
0000
,
0010
1000
0100
1000
0100
1000
0010
0000
,
1000
0001
1000
0001
0100
0001
1000
0000
,
0010
0100
0010
0000
0100
0000
1001
0000
,
1100
0000
0101
0000
0010
0001
1000
0000
,
0120
0000
0100
0000
0001
0000
0130
1000
,
0002
0000
0100
0000
0010
0000
1003
0100
,
2000
0000
0010
0000
0100
0000
3010
0100
,
0002
0100
0010
0100
,
2000
0000
0000
3003
,
0110
0000
1000
0000
0100
0000
0010
0001
,
0100
0000
0010
0000
0100
0000
0001
0100
,
1000
0000
0100
0000
0010
0000
1000
0100
,
0010
0000
0001
0000
1000
0001
1000
0010
,
0100
0000
0010
0000
1000
0000
0001
0010
,
0100
0000
1000
0000
0001
0000
1000
0010
,
0100
0000
0010
0000
1000
0000
0100
1000
,
0010
0100
0001
0010
,
0100
0010
0100
0020
0000
0000
0030
0000
,
0001
0100
0010
0000
1000
0001
1000
0000
,
0100
1000
0100
2000
0000
0000
3000
0000
,
0010
1000
0010
0000
0100
0010
0100
0000
,
0001
1000
0001
0200
0000
0000
0300
0000
,
0010
0100
0001
0000
0010
0010
0001
1000
,
0100
0100
1000
0020
0000
0000
0030
0000
,
0100
0010
1000
0000
0100
1000
0001
0000
,
1010
0101
0011
1100
,
1001
0110
0101
1100
,
1010
1001
0110
0101
,
1100
1001
0110
1001
,
1100
0000
0011
0000
0100
1000
0001
0000
,
1010
0000
0101
0000
0010
0001
0100
0000
,
0110
0101
1100
0011
,
1000
0100
0010
0001
0200
0000
0310
0000
,
1001
0000
0000
0000
;

//---------------dance-single - ----------------
#NOTES:
     dance-single:
     :
     Hard:
     13:
     0.546,0.550,0.250,0.130,0.430:
0000
0000
0000
0000
,
0000
0000
0000
0000
,
0000
0000
0000
0000
,
0000
0000
0000
0000
,
0010
0000
0000
0000
1000
0000
0000
0000
0001
0000
0000
0100
0010
0000
0000
0000
,
0100
0000
0000
0000
0001
0000
0000
0000
0010
0000
0000
0100
1000
0000
0000
0000
,
0010
0000
0000
0000
1000
0000
0000
0000
0001
0000
0000
0100
0010
0000
0000
0000
,
0100
0000
0000
0001
0000
0000
1000
0000
0000
0001
0000
0000
1000
0000
0100
0000
,
1000
0000
0000
0000
0000
0000
0000
0000
0000
0000
0000
0000
0010
0000
0100
0001
,
1000
0000
0100
0000
1000
0000
0000
0000
0010
0000
0000
0100
0010
0000
0000
0000
,
0100
0000
0001
0000
0100
0000
0010
0000
1000
0000
0000
0100
1000
0000
0010
0000
,
0100
0000
0001
0000
1000
0000
0000
0000
0010
0000
0000
0100
0010
0000
0000
0000
,
0100
0000
0000
0000
0001
0000
0000
0000
1000
0000
0000
0100
1000
0000
0000
0000
,
0010
0000
1000
0000
0001
0000
0000
0000
0100
0000
0000
0010
0100
0000
0000
0000
,
0001
0000
0000
0000
0100
0000
0010
0000
0100
0000
0000
0001
0100
0000
0010
0000
,
0100
0000
0001
0000
1000
0000
0000
0000
0100
0000
0000
1000
0100
0000
0000
0000
,
1000
0000
0000
0000
0010
0000
0000
0000
0100
0000
0000
0010
0100
0000
0001
1000
,
0001
0000
0000
0100
0010
0000
0100
0000
0001
0000
0000
0100
0010
0000
0100
0000
,
0001
0000
0000
1000
0100
0000
1000
0000
0001
0000
0000
1000
0100
0000
1000
0000
,
0010
0000
0000
0100
0010
0000
0100
0000
0001
0000
0000
0100
0010
0000
1000
0000
,
0001
0000
0000
0010
0100
0000
1000
0000
0001
0000
0000
1000
0100
0000
1000
0000
,
0020
0000
0230
0000
0302
0000
1003
0100
,
0020
0000
0032
0000
2003
0000
3010
1000
,
0002
0000
0203
0000
0320
0000
0130
0001
,
2000
0000
3200
0000
0320
0000
0031
1000
,
0200
0000
0000
0000
0000
0010
0010
0310
,
0110
0000
0100
1000
0001
0000
0100
0000
0010
0000
0100
0001
1000
0000
0010
0000
,
1010
0000
0000
0100
0000
0000
0110
0000
0000
0001
0000
0000
0101
0000
0100
0000
,
0010
0000
0100
0001
0100
0000
0010
0000
1000
0000
0001
1000
0100
0000
0010
0000
,
0110
0000
0000
1000
0000
0000
1100
0000
0000
0001
0000
0000
0101
0000
0010
0000
,
0100
0000
0001
0100
0010
0000
1000
0000
0001
0000
1000
0100
0010
0000
0001
0000
,
0101
0000
0000
0010
0000
0000
0110
0000
0000
0001
0000
0000
1100
0000
1000
0000
,
0010
0000
0100
0010
1000
0000
0001
0000
1000
0000
0100
0010
0001
0000
0100
0000
,
0110
0000
0000
0001
0000
0000
1100
0000
0000
0001
0000
0000
0110
0000
0001
0010
,
0001
0000
1000
0000
0100
0000
1100
0000
0000
0110
0000
0000
1001
0000
0000
0000
,
0010
1000
0100
0000
1000
0000
0001
0000
1000
0010
0100
0000
0001
0000
1000
0000
,
0010
0000
0100
0000
0001
0000
0101
0000
0000
1100
0000
0000
1001
0000
0000
0000
,
0010
1000
0100
0000
1000
0000
0001
0000
0100
0010
0100
0000
0001
0000
1000
0000
,
0010
0000
1000
0000
0001
0000
1100
0000
0000
1001
0000
0000
0110
0000
0000
0000
,
0001
0100
0010
0000
0100
0000
0001
0000
1000
0100
0010
0000
0001
0000
1000
0000
,
0001
0010
1000
0000
0010
0000
0011
0000
0000
1100
0000
0000
0101
0000
0000
0000
,
0010
0100
0001
0000
1000
0000
0010
0000
1000
0001
0100
0000
1000
0000
0100
0000
,
0010
0000
0010
1000
0000
1000
0100
0000
0100
0010
0000
0010
0001
0000
1000
0000
,
0001
0000
0001
1000
0000
1000
0010
0000
0010
0100
0000
0100
0001
0000
0010
0000
,
0100
0000
0100
1000
0000
1000
0010
0000
0010
0100
0000
0100
0001
0000
1000
0000
,
0010
0000
0010
1000
0000
1000
0001
0000
0001
0010
0000
0010
0100
0000
1000
0000
,
0010
0000
0100
0010
0000
0100
0001
0000
1000
0100
0000
0010
0001
0000
1000
0000
,
0010
0000
1000
0001
0000
0100
0010
0000
1000
0100
0000
0010
0001
0000
0100
0000
,
0010
0000
0100
0001
0000
0010
1000
0000
0010
0001
0000
1000
0100
0000
0010
0000
,
0001
0000
1000
0100
0000
0010
0001
0000
0100
0010
0000
0100
0001
0000
1000
0100
,
0001
0000
0000
0000
;

//---------------dance-single - ----------------
#NOTES:
     dance-single:
     :
     Easy:
     5:
     0.307,0.300,0.200,0.060,0.000:
0000
0000
0000
0000
,
0000
0000
0000
0000
,
0000
0000
0000
0000
,
0000
0000
0000
0000
,
1000
0010
0100
1010
,
0100
0001
1000
0101
,
0010
0100
0001
1010
,
0100
0010
1000
1100
,
0002
0000
0000
0003
,
0100
0010
1000
0100
,
1000
0001
0100
0010
,
1000
0100
1000
0000
0010
0000
1000
0000
,
0001
0100
0010
0110
,
0100
0001
1000
0100
,
0010
0001
1000
0010
,
0100
0001
0100
0000
0010
0000
1000
0000
,
0001
0010
0100
0110
,
1000
0100
1000
0010
,
1000
0001
0100
0010
,
1000
0001
0100
0000
0010
0000
0100
0000
,
0001
0010
0100
0000
,
2100
0100
3100
0000
,
0102
0100
0103
0000
,
0120
0100
0130
0000
,
2001
0100
3100
0000
,
1002
0100
0103
0000
,
0010
1000
0100
1000
,
1100
0100
0010
0001
,
0101
0010
0100
0001
,
1000
0001
1000
0000
0001
1000
0001
0000
,
0100
0010
1000
0001
,
0101
0010
0100
0001
,
1100
0001
1000
0010
,
1010
0000
0100
0000
0010
1000
0010
0000
,
1000
0100
1000
0000
0100
0000
0100
0000
,
1000
0001
0100
0010
,
0100
0000
0100
0000
0001
1000
0001
0000
,
0010
0100
1000
0001
,
0100
0000
0100
0000
0010
1000
0010
0000
,
0100
0001
1000
0100
,
1000
0000
1000
0000
0001
0100
0010
0000
,
1000
0001
1000
0100
,
1000
0000
0001
0000
1000
0100
0010
0000
,
0001
1000
0010
0110
,
1000
0001
1000
0100
,
0010
0001
0100
0110
,
0001
0100
0010
1000
,
0001
0000
1000
0000
0100
1000
0001
0000
,
0100
0010
0100
0101
,
0010
0000
1000
0000
0001
1000
0100
0000
,
1010
0000
0000
0000
;
