#TITLE:Stand Up;
#SUBTITLE:;
#ARTIST:One Direction;
#TITLETRANSLIT:;
#SUBTITLETRANSLIT:;
#ARTISTTRANSLIT:;
#CREDIT:;
#BANNER:Stand Up-bn.png;
#BACKGROUND:Stand Up-bg.png;
#LYRICSPATH:;
#CDTITLE:;
#MUSIC:Stand Up.mp3;
#OFFSET:-0.060;
#SAMPLESTART:30.791;
#SAMPLELENGTH:16.180;
#SELECTABLE:YES;
#DISPLAYBPM:125;
#BPMS:0.000=124.940,175.000=127.380,176.000=125.000;
#STOPS:;
#BGCHANGES:;

//---------------dance-single - ----------------
#NOTES:
     dance-single:
     :
     Beginner:
     1:
     0.102,0.148,0.022,0.000,0.000: // measure 1
0000
0000
0000
0000
,  // measure 2
0000
0000
0000
0000
,  // measure 3
0000
0000
0000
0000
,  // measure 4
0000
0000
0000
0000
,  // measure 5
0000
0000
0000
0000
,  // measure 6
0000
0000
0000
0000
,  // measure 7
0000
0000
0000
0000
,  // measure 8
0000
0000
0000
0000
,  // measure 9
1000
0000
0010
0000
,  // measure 10
1000
0000
0000
0000
,  // measure 11
0010
0000
0100
0000
,  // measure 12
0010
0000
0000
0000
,  // measure 13
0100
0000
0001
0000
,  // measure 14
0100
0000
0000
0000
,  // measure 15
0001
0000
1000
0000
,  // measure 16
0000
0100
0000
0100
,  // measure 17
0100
0000
0000
0000
,  // measure 18
1000
0000
1000
0000
,  // measure 19
1000
0000
0000
0000
,  // measure 20
0010
0000
0010
0000
,  // measure 21
0010
0000
0000
0000
,  // measure 22
0100
0000
0000
0000
,  // measure 23
0010
0000
0000
0000
,  // measure 24
1000
0000
0000
0000
,  // measure 25
0001
0000
0000
0000
,  // measure 26
0010
0000
0010
0000
,  // measure 27
0010
0000
0000
0000
,  // measure 28
0001
0000
0001
0000
,  // measure 29
0001
0000
0000
0000
,  // measure 30
1000
0000
0000
0000
,  // measure 31
0010
0000
0000
0000
,  // measure 32
0100
0000
0000
0000
,  // measure 33
0110
0000
0000
0000
,  // measure 34
1000
0000
1000
0000
,  // measure 35
1000
0000
0000
0000
,  // measure 36
0010
0000
0010
0000
,  // measure 37
0010
0000
0000
0000
,  // measure 38
0100
0000
0000
0000
,  // measure 39
0001
0000
0000
0000
,  // measure 40
1000
0000
0000
0000
,  // measure 41
0000
0001
0000
0001
,  // measure 42
0000
0001
0000
0001
,  // measure 43
0000
1000
0000
1000
,  // measure 44
0000
1000
0000
0000
,  // measure 45
0110
0000
0100
0000
,  // measure 46
0100
0000
0010
0000
,  // measure 47
1000
0000
0100
0000
,  // measure 48
1000
0000
0001
0000
,  // measure 49
0010
0000
0010
0000
,  // measure 50
0001
0000
1000
0000
,  // measure 51
0010
0000
0010
0000
,  // measure 52
1000
0000
0100
0000
,  // measure 53
0100
0000
1000
0000
,  // measure 54
0001
0000
0001
0000
,  // measure 55
0001
0000
0100
0000
,  // measure 56
0010
0000
1000
0000
,  // measure 57
1000
0000
1000
0000
,  // measure 58
0100
0000
1000
0000
,  // measure 59
0010
0000
0010
0000
,  // measure 60
0100
0000
0100
0000
,  // measure 61
0110
0000
0000
0000
,  // measure 62
1000
0000
1000
0000
,  // measure 63
1000
0000
0000
0000
,  // measure 64
0010
0000
0010
0000
,  // measure 65
0010
0000
0000
0000
,  // measure 66
0100
0000
0100
0000
,  // measure 67
0100
0000
0000
0000
,  // measure 68
0001
0000
0001
0000
,  // measure 69
0010
0000
0000
0000
;

//---------------dance-single - ----------------
#NOTES:
     dance-single:
     :
     Medium:
     7:
     0.337,0.373,0.225,0.254,0.000:
0000
0000
0000
0000
,
0000
0000
0000
0000
,
0000
0000
0000
0000
,
0000
0000
0000
0000
,
0010
0000
1000
0000
,
0100
0000
0010
0000
,
0001
0000
1000
0000
,
0001
0000
0100
0000
,
0010
0000
1000
0000
0100
1000
0100
0000
,
1000
0000
0010
0000
0100
0001
0100
0000
,
0010
0000
1000
0000
0001
1000
0001
0000
,
0010
0000
0100
0000
1000
0100
1000
0000
,
0010
1000
0001
0100
,
0010
0010
0100
0100
,
0001
0100
0010
1000
,
0000
1100
1100
0000
0000
1001
1001
0000
,
0010
0000
0010
0000
1000
0100
1000
0000
,
0010
0100
1001
0000
,
0001
0000
0001
0000
0010
0100
0010
0000
,
0001
1000
0110
0000
,
2000
0000
3100
0000
1000
1000
0100
0000
,
0020
0000
0031
0000
0010
0010
0001
0000
,
0100
0010
1000
0001
,
1000
0000
0100
0000
0010
0001
0100
0000
,
0110
0001
0100
0010
,
1000
0100
1000
0000
0110
0000
0000
0000
,
0011
0000
1000
0000
0100
1000
0100
0000
,
0010
0000
0001
1000
0001
0000
0000
0000
,
0100
0010
1000
0100
,
0010
0001
0100
0010
,
2000
0000
3100
0000
0010
0001
0100
0000
,
0020
0000
0130
0000
0001
0100
0010
0000
,
2002
0000
0000
3003
,
0100
0000
1000
0000
0010
0100
0001
0000
,
2020
0000
0000
3030
,
0001
0000
1000
0000
0100
0010
0001
0000
,
0220
0330
2000
3000
,
0002
0003
0100
0010
,
2000
3000
0020
0030
,
0100
0000
0001
0000
1000
0100
1000
0000
,
0000
1100
0000
0110
,
0000
0000
0010
0001
0100
0000
0101
0000
,
0000
0110
0000
1010
,
0000
0000
0100
1000
0001
0000
1001
0000
,
0100
0000
1000
0100
1000
0000
0010
0100
,
0010
2000
3020
0230
,
0302
0000
0013
0100
0010
0000
0001
0010
,
0001
0200
0320
2030
,
3002
0000
1003
0100
1000
0000
0010
0100
,
0010
2000
3020
0230
,
0010
0010
0010
0310
,
0001
0100
0010
0000
1000
0100
0010
0000
,
1001
1001
0100
1000
,
0010
0100
0110
0000
,
0101
0101
0010
1000
,
0001
0010
1100
0000
,
0110
0000
0110
0000
1000
0100
0010
0000
,
1001
0000
1001
0000
0010
0100
0001
0000
,
0200
0000
0310
0000
1000
0100
0010
0000
,
0001
0010
0100
0000
1000
0000
0001
0000
,
0210
0001
0010
0301
,
0000
0000
0010
0100
0001
0000
1000
0000
,
1200
0010
1000
0310
,
0000
0000
0100
0010
0100
1000
0001
0000
,
0200
0310
2000
3100
,
0010
0001
0200
0320
,
2030
0100
0100
3100
,
0010
0000
0001
0000
0100
0010
1000
0000
,
0202
0000
0303
0000
;

//---------------dance-single - ----------------
#NOTES:
     dance-single:
     :
     Hard:
     10:
     0.406,0.448,0.283,0.174,0.000:
0000
0000
0000
0000
,
0000
0000
0000
0000
,
0000
0000
0000
0000
,
0000
0000
0000
0000
,
0000
0000
0000
0000
,
0000
0000
0000
0000
,
0000
0000
0000
0000
,
0000
0000
0000
0000
,
0010
0000
1000
0100
1000
0001
0100
0010
,
0010
0000
0100
0001
0100
0010
1000
0001
,
0001
0000
0010
0001
1000
0100
1000
0010
,
0010
0000
0100
0001
0100
1000
0100
0010
,
0010
0000
1000
0000
0001
0000
0100
0010
,
0100
0001
1000
0010
0000
0100
0001
1000
,
0000
1100
0100
0010
,
0000
0110
0110
0000
0000
0011
0011
0000
,
1000
0000
1000
0000
0100
1000
0100
0010
,
0000
0001
0100
0010
0110
0000
1001
0000
,
0001
0000
0001
0000
0010
0001
0010
0100
,
0000
1000
0010
0100
0110
0000
1010
0000
,
0200
0000
0310
0000
1000
0100
1000
0001
,
0100
0000
0010
1000
0010
0100
0001
1000
,
0000
0010
0100
0100
0001
0001
1000
0100
,
0010
0000
1000
0001
0100
0010
1000
0000
,
1010
1100
0101
0011
,
0100
0010
1000
0001
1001
0000
1001
0000
,
0110
1100
1010
0101
,
0010
0001
1000
0010
0110
0000
0110
0000
,
2000
0000
3100
0000
1000
0100
1000
0100
,
0020
0000
0130
0000
0010
0100
0010
0100
,
0020
0000
0031
0000
0010
0001
0010
0001
,
0000
0110
0000
0001
0000
1000
0000
0010
,
2000
0100
0100
0010
,
0001
0000
0010
0010
0010
0000
3100
0000
,
0002
0100
0010
0010
,
1000
0000
0100
0100
0100
0000
1003
0000
,
0210
0301
2100
3001
,
0012
1003
0210
0301
,
0010
1000
0100
1000
0010
0100
0001
0010
,
0100
0010
0001
1000
0010
0100
0001
0000
,
0000
1000
0000
0100
,
0000
0001
0010
1001
,
0000
0010
0000
1000
,
0000
0001
0100
0110
,
1001
0000
1000
0100
0001
0000
0001
0100
,
1000
0000
0010
1000
0100
1000
0001
0010
,
0100
0000
1000
0010
0001
0000
0001
0010
,
1000
0000
0010
0001
0100
0010
0100
0001
,
1000
0000
0100
1000
0001
0000
0100
0001
,
1000
0000
0010
1000
0100
1000
0001
0100
,
0020
0000
0130
0000
1000
0000
0100
0001
,
1000
1100
0011
1001
,
0010
0100
0010
0100
0001
1000
0010
0200
,
0000
0310
0100
0001
1000
0001
1000
0000
,
0100
1000
0100
1000
0010
0100
0001
0020
,
0000
0031
0100
0010
1000
0100
1000
0000
,
0010
1000
0001
0100
0010
0100
0001
0010
,
0100
0000
1000
0100
1000
0010
0100
0001
,
0020
0000
0130
0000
0001
0010
0100
2000
,
0000
0000
3100
1000
0010
0100
0002
0000
,
1003
0000
0110
0100
0100
0000
0110
0010
,
0020
0030
1000
0001
,
1000
0000
0110
0100
0100
0000
0110
0010
,
0020
0030
0101
1010
,
0100
0000
1000
0000
0010
0100
0001
0000
,
0010
0100
1000
0000
0010
0100
0001
0000
,
2000
3100
0002
0103
,
2000
3010
0002
0013
,
2200
0000
3300
0000
;

//---------------dance-single - ----------------
#NOTES:
     dance-single:
     :
     Easy:
     3:
     0.195,0.247,0.022,0.131,0.000:
0000
0000
0000
0000
,
0000
0000
0000
0000
,
0000
0000
0000
0000
,
0000
0000
0000
0000
,
0000
0000
0000
0000
,
0000
0000
0000
0000
,
0000
0000
0000
0000
,
0000
0000
0000
0000
,
1000
0010
0100
0100
,
0010
1000
0001
0001
,
0010
0001
1000
1000
,
0100
1000
0010
0010
,
0100
0000
0000
0000
,
0010
0100
0001
1000
,
0100
0000
1000
0000
,
0000
0100
0100
0000
0000
1000
1000
0000
,
0010
0010
0100
0001
,
1000
0200
0010
0310
,
0001
0010
0100
1000
,
0010
2000
0001
3001
,
0000
0000
0010
0001
,
0100
0000
0010
1000
,
0100
0000
1000
0100
,
0010
0000
0001
0000
,
0100
0010
0100
0001
,
2000
0100
3100
0000
,
1000
0010
0100
0001
,
0020
0100
0130
0000
,
0000
0000
0010
0001
,
1000
0000
0100
1000
,
0010
0000
1000
0010
,
0100
0000
0001
0000
,
2002
0000
0000
3003
,
0100
0100
0100
0000
,
0220
0000
0330
0000
,
0010
0010
0010
0000
,
0002
0003
2000
3000
,
0020
0030
2000
3000
,
0200
0300
0020
0030
,
0001
1000
0001
0000
,
0000
0100
0000
0010
,
0000
1000
0001
0100
,
0000
0001
0000
0010
,
0000
0100
1000
0010
,
0000
0100
0010
0100
,
0010
0000
1000
0000
,
0001
0010
0100
0010
,
0100
0000
0010
0000
,
0001
1000
0100
1000
,
0100
0000
0010
0000
,
0001
0000
0100
0000
,
0010
0000
1000
0000
,
0100
0100
1000
0020
,
0130
0000
0000
0000
,
0010
0010
0100
0002
,
0013
0000
0000
0000
,
0001
0001
0100
0020
,
1030
0000
0100
0000
,
1000
1000
0100
0020
,
0031
0000
0100
0000
,
0010
1000
0010
1000
,
0010
0000
0000
0000
,
0100
0001
0100
0001
,
0100
0000
0000
0000
,
0001
0010
0001
0010
,
0001
0000
0000
0000
,
0010
0000
0100
0000
,
1000
0000
0010
0000
,
0110
0000
0000
0000
;
