#TITLE:Save You Tonight;
#SUBTITLE:;
#ARTIST:One Direction;
#TITLETRANSLIT:;
#SUBTITLETRANSLIT:;
#ARTISTTRANSLIT:;
#CREDIT:;
#BANNER:Save You Tonight-bn.png;
#BACKGROUND:Save You Tonight-bg.png;
#LYRICSPATH:;
#CDTITLE:;
#MUSIC:Save You Tonight.mp3;
#OFFSET:-0.080;
#SAMPLESTART:45.080;
#SAMPLELENGTH:12.180;
#SELECTABLE:YES;
#BPMS:0.000=128.010;
#STOPS:;
#BGCHANGES:;

//---------------dance-single - ----------------
#NOTES:
     dance-single:
     :
     Beginner:
     1:
     0.102,0.155,0.032,0.000,0.000: // measure 1
0000
0000
0000
0000
,  // measure 2
0000
0000
0000
0000
,  // measure 3
0000
0000
0000
0000
,  // measure 4
0000
0000
0000
0000
,  // measure 5
1000
0000
0000
0000
,  // measure 6
0010
0000
0000
0000
,  // measure 7
0100
0000
0000
0000
,  // measure 8
0001
0000
0000
0000
,  // measure 9
0000
0000
0010
0000
,  // measure 10
0010
0000
0001
0000
,  // measure 11
0001
0000
0000
0000
,  // measure 12
0100
0000
0000
0000
,  // measure 13
0000
0000
0010
0000
,  // measure 14
0010
0000
1000
0000
,  // measure 15
1000
0000
0000
0000
,  // measure 16
0100
0000
0000
0000
,  // measure 17
0110
0000
0000
0000
,  // measure 18
1000
0000
0001
0000
,  // measure 19
1000
0000
0000
0000
,  // measure 20
0010
0000
0000
0000
,  // measure 21
0110
0000
0000
0000
,  // measure 22
0001
0000
0100
0000
,  // measure 23
0001
0000
0000
0000
,  // measure 24
1000
1000
1000
0000
,  // measure 25
0100
0000
1000
0000
,  // measure 26
0100
0000
0100
0000
,  // measure 27
0010
0000
0001
0000
,  // measure 28
0010
0000
0010
0000
,  // measure 29
0001
0000
0000
0000
,  // measure 30
1000
0000
0000
0000
,  // measure 31
0100
0100
0000
0000
,  // measure 32
1000
1000
0000
0000
,  // measure 33
0010
0000
0000
0000
,  // measure 34
1000
0000
0000
0000
,  // measure 35
0001
0000
0000
0000
,  // measure 36
0010
0000
0000
0000
,  // measure 37
0100
0000
1000
0000
,  // measure 38
0100
0000
0000
0000
,  // measure 39
1000
0000
0000
0000
,  // measure 40
0001
0000
0000
0000
,  // measure 41
0010
0000
0001
0000
,  // measure 42
0010
0000
0000
0000
,  // measure 43
0100
0000
0000
0000
,  // measure 44
1000
0000
0000
0000
,  // measure 45
0001
0000
0000
0000
,  // measure 46
0100
0000
0000
0000
,  // measure 47
0010
0000
0010
0000
,  // measure 48
0010
0000
0000
0000
,  // measure 49
1000
0000
0000
0000
,  // measure 50
1001
0000
0000
0000
,  // measure 51
0100
0000
1000
0000
,  // measure 52
0100
0000
0000
0000
,  // measure 53
1000
0000
0000
0000
,  // measure 54
0010
0000
0000
0000
,  // measure 55
0100
0000
0010
0000
,  // measure 56
0100
0000
0000
0000
,  // measure 57
0001
0001
0001
0000
,  // measure 58
0010
0000
0001
0000
,  // measure 59
0100
0000
0000
0000
,  // measure 60
0010
0000
1000
0000
,  // measure 61
0100
0000
0100
0000
,  // measure 62
1000
0000
0000
0000
,  // measure 63
0010
0000
0000
0000
,  // measure 64
0100
0100
0000
0000
,  // measure 65
0001
0001
0000
0000
,  // measure 66
1001
0000
0000
0000
;

//---------------dance-single - ----------------
#NOTES:
     dance-single:
     :
     Medium:
     6:
     0.298,0.309,0.127,0.151,0.000:
0000
0000
0000
0000
,
0000
0000
0000
0000
,
0000
0000
0000
0000
,
0000
0000
0000
0000
,
1000
0000
0100
1000
0000
0000
0010
0000
,
0100
0000
0010
0100
0000
0000
0001
0000
,
0010
0000
0001
0010
0000
0000
0100
0000
,
1000
0000
0100
1000
0000
0000
0010
0000
,
1000
0000
0000
0000
0100
1000
0001
0100
,
0000
0010
0000
1000
0000
0001
0000
1001
,
0000
0000
0000
0000
,
0000
0000
0000
0100
0000
0000
1000
0000
,
0010
0000
0000
0000
1000
0001
1000
0010
,
0000
0100
0000
0001
0000
1000
0000
1001
,
0000
0000
0000
0000
,
0100
0000
1000
0100
0000
0000
1000
0000
,
0020
0000
0000
0000
0000
0000
0130
0002
,
0000
0000
0000
0000
0013
0100
0010
0002
,
0000
2000
0000
0000
3003
0000
0000
0000
,
0100
0100
1000
0000
,
0020
0000
0000
0000
0000
0000
1030
0200
,
0000
0000
0000
0000
1300
0001
0100
0020
,
0000
0200
0000
0000
0000
0000
0330
0000
,
0001
1000
0001
1000
0001
1000
0000
0000
,
0100
0100
1000
0010
,
0100
0000
0001
0000
0010
0001
0101
0000
,
0010
0100
0001
0001
,
0010
0000
0001
0000
1000
0010
1010
0000
,
0200
0000
0000
0000
0310
0000
1000
0001
,
1000
0000
0100
0000
0010
0001
0010
0000
,
0002
0103
0010
1000
,
0100
0010
0001
0011
,
1100
0000
0000
0110
,
1000
0100
0010
0001
,
0100
0000
0010
0000
1000
0100
1000
0000
,
0010
1000
0001
0010
,
0100
0010
0001
0100
0000
0010
0000
0000
,
0100
0010
1000
0001
,
0010
0100
0010
0000
0001
1000
0001
0000
,
0100
0010
1000
0001
,
1000
0100
1000
0010
0000
0100
0000
0000
,
1001
0000
0000
0000
0010
1000
0001
0100
,
0000
0010
0000
0100
0000
0110
0000
0101
,
0000
0000
0000
0000
,
0010
0000
0000
0100
0000
0000
0001
0000
,
1001
0000
0000
0000
0010
1000
0100
1000
,
0000
0010
0000
1000
0000
0100
0000
0010
,
0000
0000
0000
0100
,
0010
0100
1000
0001
,
2010
0000
0000
0000
0000
0000
3010
0200
,
0000
0000
0000
0000
0301
0010
0100
0020
,
0000
0002
0000
0000
0000
0000
0033
0000
,
0100
0010
0100
0001
,
2000
0000
0000
0000
0000
0000
3001
0200
,
0000
0000
0000
0000
0310
1000
0100
0020
,
0000
0002
0000
0000
0000
0000
0033
0000
,
0100
0010
0100
0010
0100
0010
0000
0000
,
1000
0001
0100
0100
,
0010
1000
0100
1100
,
0010
1000
0001
0001
,
0010
0001
0100
0101
,
2000
0000
0000
0000
3001
0000
0010
0100
,
1000
0000
0001
0000
1000
0100
0010
0001
,
0010
0100
1000
0000
0010
0000
1000
0000
,
0010
0000
0110
0000
1001
0000
0100
1000
,
0010
0000
0000
0000
;

//---------------dance-single - ----------------
#NOTES:
     dance-single:
     :
     Hard:
     9:
     0.402,0.438,0.278,0.103,0.000:
0000
0000
0000
0000
,
0000
0000
0000
0000
,
0000
0000
0000
0000
,
0000
0000
0000
0000
,
0100
0000
0001
0100
0000
0000
0010
1000
,
0000
0100
0000
0010
0000
0001
0000
0200
,
0000
0300
0000
0002
0000
0003
0000
0000
,
1000
0100
0001
2000
0000
3010
0000
0000
,
0100
0000
0100
0000
0010
1000
0100
0110
,
0000
0001
0000
1100
0000
0001
0000
0100
,
0100
0000
0001
0100
0010
0100
0001
0000
,
1000
0000
0100
0010
0100
1000
0001
0000
,
1000
0000
1000
0000
0100
1000
0001
0101
,
0000
0010
0000
1010
0000
0100
0000
0010
,
0010
0000
0100
0001
1000
0100
0010
0000
,
0001
0000
0100
0010
0100
0001
1000
0000
,
0110
0000
0000
1000
0000
0000
0100
0000
,
0000
0001
0000
0000
0010
0000
1001
0000
,
0100
0000
0000
0001
0000
0000
1000
0000
,
0000
0010
0000
0000
0100
0000
1010
0000
,
0001
0000
0000
0100
0000
0000
1000
0000
,
0000
0010
0000
0000
0100
0000
1001
0000
,
0010
1000
0100
1000
0010
0100
0001
0100
,
0010
0010
0010
0010
0010
0010
0000
0000
,
0210
0000
0301
0000
1000
0100
0010
0002
,
0000
0103
0010
2000
0000
0000
3100
0000
,
2010
0000
3001
0000
0100
0010
0100
0002
,
0000
0103
0010
1010
0000
1001
0000
0000
,
1001
0000
0100
0000
0001
0100
1000
0000
,
1010
0000
0001
0000
1000
0100
0001
0010
,
1000
0010
0001
0000
1000
0100
1000
0000
,
0001
0100
0001
0000
0110
0000
1001
0001
,
0100
0010
1000
0110
,
0001
0000
1000
0000
0100
1000
0001
0000
,
0100
0000
0010
0100
0010
1000
0001
1000
,
0100
0000
0010
0000
0001
0010
0100
0000
,
1000
0100
1000
0010
0100
0010
1000
0000
,
0001
0000
1000
0000
0001
0010
0100
0010
,
0001
1000
0010
0000
1000
0100
0001
0100
,
1000
0000
0010
0000
0100
0010
1000
0000
,
0001
0010
1000
0010
0001
1000
0100
0000
,
0010
0000
0010
0000
0001
0100
0010
0110
,
0000
1000
0000
0101
0000
1000
0100
1000
,
0010
0000
1000
0000
0010
0100
0001
0000
,
0010
0100
1000
0000
0001
1000
0010
0000
,
0101
0000
0001
0000
0100
0010
0100
0001
,
0000
1001
0000
1100
0000
0011
0000
0100
,
0010
0100
0001
0000
0010
0100
1000
0000
,
0010
1000
0100
0000
1000
0001
0100
0000
,
0110
0000
0000
0001
0000
0000
0100
0000
,
0000
0010
0000
0000
1000
0000
0101
0000
,
0010
0000
0000
0100
0000
0000
1000
0000
,
0000
0001
0000
0000
1000
0000
0110
0000
,
1000
0000
0000
0001
0000
0000
0010
0000
,
0000
0001
0000
0000
0100
0000
0110
0000
,
0001
0100
0010
1000
0001
0010
0100
1000
,
0001
0001
0001
0001
0001
0001
0000
0000
,
0120
0000
1030
0000
0001
0010
0100
2000
,
0000
3010
0100
0002
0000
0000
0013
0000
,
0102
0000
1003
0000
0010
0100
0010
2000
,
0000
3010
0100
0101
0000
1001
0000
0000
,
1001
0000
0010
0000
1000
0010
0001
0000
,
0101
0000
1000
0000
0001
0010
1000
0100
,
0001
0100
1000
0000
0001
0010
0001
0000
,
1000
0010
1000
0000
0110
0000
1001
0100
,
1000
0000
0000
0000
;

//---------------dance-single - ----------------
#NOTES:
     dance-single:
     :
     Easy:
     3:
     0.204,0.232,0.095,0.000,0.000:
0000
0000
0000
0000
,
0000
0000
0000
0000
,
0000
0000
0000
0000
,
0000
0000
0000
0000
,
1000
0000
0100
0000
,
1000
0010
1000
0001
,
0100
0000
0010
0000
,
0100
0000
0001
0000
,
1001
0000
0100
0000
,
1000
0100
1000
0010
,
0100
0000
0010
0000
,
0100
0000
0001
0000
,
1001
0000
0010
0001
,
0100
0010
1000
0100
,
1000
0000
0010
0000
,
1000
0000
0001
0000
,
0100
0000
0000
0000
,
0010
0000
1000
0000
,
0100
0000
0000
0000
,
1000
0000
0001
0000
,
0010
0000
0000
0000
,
0001
0000
0100
0000
,
0010
0010
1000
1000
,
0100
0010
0001
0000
,
1000
1000
0001
0100
,
1000
1000
0010
1000
,
0100
0100
0010
0001
,
0100
0100
0010
1000
,
0001
0001
0010
0100
,
0001
0001
0010
1000
,
0010
0100
0001
1000
,
0100
0010
0001
0000
,
0110
0000
0000
0000
,
1000
0000
0100
0000
,
1000
0100
0010
0000
,
0001
0000
1000
0000
,
0010
0100
0010
0100
,
0001
0000
0100
0000
,
0010
0000
1000
0100
,
1000
0000
0010
0000
,
1000
0001
0100
0000
,
0110
0000
1000
0010
,
0100
0001
0010
0100
,
1000
0000
0000
0000
,
0100
0000
1000
0000
,
0110
0000
0001
0100
,
0010
1000
0100
0010
,
0001
0000
0010
0000
,
0100
0000
1000
0000
,
1010
0000
0000
0000
,
0110
0000
0000
0000
,
1001
0000
0000
0000
,
0011
0000
0000
0000
,
1100
0000
0010
0000
,
1000
0000
0001
0000
,
0100
0100
0010
0010
,
1000
0001
0100
0000
,
0010
0010
1000
0001
,
0010
0010
0100
1000
,
0001
0001
0100
1000
,
0001
0001
0010
0100
,
1000
1000
0100
0001
,
1000
1000
0010
0100
,
0010
1000
0100
0010
,
0001
0100
0000
0110
,
0110
0000
0000
0000
;
