#TITLE:Same Mistakes;
#SUBTITLE:;
#ARTIST:One Direction;
#TITLETRANSLIT:;
#SUBTITLETRANSLIT:;
#ARTISTTRANSLIT:;
#CREDIT:;
#BANNER:Same Mistakes-bn.png;
#BACKGROUND:Same Mistakes-bg.png;
#LYRICSPATH:;
#CDTITLE:;
#MUSIC:Same Mistakes.mp3;
#OFFSET:-0.080;
#SAMPLESTART:42.724;
#SAMPLELENGTH:16.180;
#SELECTABLE:YES;
#BPMS:0.000=90.030;
#STOPS:;
#BGCHANGES:;

//---------------dance-single - ----------------
#NOTES:
     dance-single:
     :
     Beginner:
     1:
     0.096,0.106,0.011,0.000,0.000: // measure 1
0000
0000
0000
0000
,  // measure 2
0000
0000
0000
0000
,  // measure 3
0000
0000
0000
0000
,  // measure 4
0000
0000
0000
0000
,  // measure 5
1000
0000
0010
0000
,  // measure 6
0100
0000
0001
0000
,  // measure 7
0010
0000
0100
0000
,  // measure 8
1000
0000
0010
0010
,  // measure 9
0010
0000
1000
0000
,  // measure 10
0100
0000
0010
0000
,  // measure 11
0001
0000
1000
0000
,  // measure 12
0010
0000
0100
0100
,  // measure 13
0100
0000
0001
0000
,  // measure 14
0001
0000
1000
0000
,  // measure 15
1000
0000
0010
0000
,  // measure 16
0010
0000
0000
0000
,  // measure 17
1001
0000
0100
0000
,  // measure 18
1000
0000
0010
0000
,  // measure 19
0100
0000
0001
0000
,  // measure 20
0010
0000
0100
0000
,  // measure 21
1000
0000
0010
0000
,  // measure 22
1000
0000
0001
0000
,  // measure 23
0100
0000
0010
0000
,  // measure 24
0100
0100
0100
0000
,  // measure 25
0001
0000
1000
0000
,  // measure 26
0010
0000
1000
0000
,  // measure 27
0100
0000
0010
0000
,  // measure 28
0001
0000
1000
0000
,  // measure 29
0010
0000
1000
0000
,  // measure 30
0001
0000
1000
0000
,  // measure 31
0010
0000
0100
0000
,  // measure 32
0001
0001
0001
0000
,  // measure 33
1000
0000
0000
0000
;

//---------------dance-single - ----------------
#NOTES:
     dance-single:
     :
     Medium:
     4:
     0.229,0.248,0.089,0.155,0.000:
0000
0000
0000
0000
,
0000
0000
0000
0000
,
0000
0000
0000
0000
,
0000
0000
0000
0000
,
2000
0000
3010
0000
0100
0100
0010
0000
,
0200
0000
0301
0000
0010
0010
0001
0000
,
0020
0000
0031
0000
1000
1000
0010
0000
,
2000
0000
3100
0000
0010
0010
0100
0000
,
0012
0103
0010
0100
,
2100
3010
0100
0001
,
2010
3001
0010
0100
,
0012
0000
0103
0000
0010
0100
0010
0000
,
1000
0000
0100
0000
1000
0001
1000
0010
,
0100
0000
0000
0000
0010
0100
0010
1000
,
0000
0000
0000
0000
0001
0010
0001
0100
,
0000
0000
0000
0000
0000
0010
0100
0010
,
1000
1000
0001
0001
,
0000
0100
0000
0010
1000
0000
0100
0000
,
0010
0010
0100
0100
,
0000
1000
0000
0001
0100
0000
0010
0000
,
1000
1000
0001
0001
,
0010
0000
0100
0000
1000
0100
0010
0000
,
2002
0000
3003
0000
,
0100
0100
1000
1000
0010
0000
0100
0000
,
0110
0001
0100
0010
,
0000
1000
0000
0100
1000
0000
0010
0000
,
1010
0100
0001
1000
,
0000
0001
0000
0010
0100
0000
0010
0000
,
0002
0100
0103
0010
,
1000
0100
1000
0000
0010
0100
0010
0000
,
2020
0000
3030
0100
,
1000
0100
0010
0001
0010
0100
2000
0000
,
3001
0000
0000
0000
;

//---------------dance-single - ----------------
#NOTES:
     dance-single:
     :
     Hard:
     7:
     0.321,0.306,0.188,0.243,0.000:
0000
0000
0000
0000
,
0000
0000
0000
0000
,
1000
0100
0100
0010
,
0001
0100
0100
0010
,
2000
0000
3001
0000
0100
0100
0010
0010
,
0200
0000
0301
0000
0010
0010
0001
0001
,
2000
0000
3100
0000
1000
1000
0010
0010
,
0200
0000
0310
0000
0100
0001
1000
0000
,
0200
0000
1300
0000
0010
1000
0100
1000
,
0002
0000
0103
0000
0010
0100
0001
1000
,
0200
0000
0310
0000
0001
0010
0100
1000
,
0200
0000
1300
0000
0010
1000
0001
0000
,
0200
0000
0310
0100
0001
1000
0100
2200
,
0000
3300
0000
0000
0100
1000
0001
0202
,
0000
0303
0000
0000
0010
0100
0001
2002
,
0000
3003
0000
0000
0000
1000
1000
0010
,
1010
0000
0110
0000
0101
0000
1000
0001
,
0000
0110
0000
0001
0100
1000
0010
0000
,
1100
0000
1001
0000
1010
0000
0100
0010
,
0000
0101
0000
0010
1000
0001
0100
0000
,
0110
0000
1001
0000
1100
0000
0010
0100
,
0001
0001
1000
1000
0200
0000
0010
0000
,
2300
0100
0100
3100
,
0010
1000
0100
1000
0001
0100
0020
0000
,
0130
0001
0100
0001
1000
0100
1000
0000
,
0010
0100
0000
0001
1000
0001
0100
0000
,
0010
1000
0010
1000
0001
0100
0001
0100
,
0000
0010
0000
0100
0001
1000
0100
0000
,
1100
0000
1001
0000
0110
0000
0001
0100
,
0010
0100
0100
0001
0001
1000
0200
0000
,
2300
0010
0100
3010
,
0100
1000
0001
0100
0010
1000
0002
0000
,
2003
0000
3000
0000
;

//---------------dance-single - ----------------
#NOTES:
     dance-single:
     :
     Easy:
     2:
     0.194,0.230,0.055,0.177,0.000:
0000
0000
0000
0000
,
0000
0000
0000
0000
,
0000
0000
0000
0000
,
0000
0000
0000
0000
,
0100
0100
0010
1000
,
0001
0001
0010
0100
,
1000
1000
0010
1000
,
0100
0100
0010
0001
,
0100
0100
0001
1000
,
0010
0010
1000
0001
,
0100
0100
0001
0010
,
0100
0100
1000
0010
,
0200
0300
0020
1030
,
0200
0300
0020
0031
,
2000
3000
0010
2000
,
0002
0000
3003
0100
,
0110
1000
0100
1000
,
0010
0100
0001
0000
,
0110
0001
0100
0010
,
0100
0001
1000
0000
,
0200
0310
0020
0031
,
0002
0103
0200
0310
,
1000
0001
1000
0010
,
0100
0001
0100
0000
,
1010
0100
0010
1000
,
0001
0010
0100
0000
,
0011
0100
0010
0100
,
0001
1000
0010
0000
,
2000
3001
0002
0013
,
0020
0130
0200
1300
,
0020
0000
0130
0100
,
0001
1000
0100
0010
,
1100
0000
0000
0000
;
