#TITLE:More Than This;
#SUBTITLE:;
#ARTIST:One Direction;
#TITLETRANSLIT:;
#SUBTITLETRANSLIT:;
#ARTISTTRANSLIT:;
#CREDIT:;
#BANNER:More Than This-bn.png;
#BACKGROUND:More Than This-bg.png;
#LYRICSPATH:;
#CDTITLE:;
#MUSIC:More Than This.mp3;
#OFFSET:-0.060;
#SAMPLESTART:78.520;
#SAMPLELENGTH:17.600;
#SELECTABLE:YES;
#DISPLAYBPM:76.000;
#BPMS:0.000=76.020,82.500=78.220,84.000=76.020;
#STOPS:;
#BGCHANGES:0.000=More Than This.avi=1.000=1=0=0,
99999=-nosongbg-=1.000=0=0=0 // don't automatically add -songbackground-
;

//---------------dance-single - ----------------
#NOTES:
     dance-single:
     :
     Medium:
     2:
     0.145,0.151,0.024,0.186,0.000:
0000
0000
0000
0000
,
0000
0000
0000
0000
,
0000
0000
0000
0000
,
0000
0000
0000
0000
,
0200
0000
0000
0310
,
0020
0000
0000
1030
,
2000
0000
0000
3001
,
0002
0000
0203
0000
,
0310
0000
1000
0100
,
0020
0030
0001
0100
,
0020
0030
1000
0001
,
0200
0000
0020
0330
,
1000
0100
1000
0001
,
0200
0300
0010
0010
,
0100
0001
1000
0100
,
2000
3000
0010
0000
,
0100
0001
1000
0010
,
2000
3000
0001
0001
,
0100
0010
0100
0001
,
2000
3000
0100
0010
,
2002
0000
0000
3003
,
0010
0000
0100
0000
,
0001
0000
0000
0000
,
0010
0000
0100
0000
,
1000
0000
0000
0000
,
0010
1000
0100
0010
,
0002
0000
0003
0000
0100
0100
0100
0000
,
0001
1000
0100
1000
,
0020
0030
1000
0100
,
1000
0001
1000
0100
,
0020
0000
0030
0000
0001
0001
0001
0000
,
0100
0010
1000
0001
,
2000
3000
0100
1000
,
0110
0001
0100
0010
,
2000
0000
3000
0000
0100
0100
0100
0000
,
1000
0001
1000
0010
,
0200
0300
0010
0010
,
2002
3003
0000
0000
;

//---------------dance-single - ----------------
#NOTES:
     dance-single:
     :
     Hard:
     5:
     0.191,0.213,0.024,0.186,0.000: // measure 1
0000
0000
0000
0000
,  // measure 2
0000
0000
0000
0000
,  // measure 3
0000
0000
0000
0000
,  // measure 4
0000
0000
0000
0000
,  // measure 5
0200
0001
0000
0310
,  // measure 6
2000
0001
0000
3010
,  // measure 7
0002
0100
0000
1003
,  // measure 8
0020
0100
2030
3100
,  // measure 9
0020
0000
0001
0031
,  // measure 10
0200
0000
0010
0310
,  // measure 11
2000
0000
0100
3100
,  // measure 12
0010
0000
0100
0000
1000
0100
0001
0000
,  // measure 13
1000
1000
0001
0000
0100
0100
0010
0000
,  // measure 14
1000
0001
0100
0000
0020
0000
0030
0000
,  // measure 15
0100
0000
0001
0000
1000
0100
1000
0000
,  // measure 16
0020
0030
2000
3001
,  // measure 17
0100
0100
0010
0000
1000
1000
0100
0000
,  // measure 18
0002
0000
0003
0000
0010
0000
0001
0100
,  // measure 19
0020
0000
0030
0000
1000
0001
1000
0010
,  // measure 20
0200
0300
0002
0003
,  // measure 21
0220
0000
0000
0330
,  // measure 22
1000
0000
0001
0000
,  // measure 23
0100
0000
0000
0000
,  // measure 24
0010
0000
1000
0000
,  // measure 25
0001
0000
0000
0000
1000
0100
0001
0100
,  // measure 26
1000
0000
1010
0000
0010
0100
0010
0000
,  // measure 27
1000
1000
0100
0000
0001
1000
0001
0000
,  // measure 28
0100
0010
0100
0000
0010
1000
0100
1000
,  // measure 29
0002
0000
0003
0000
1000
0000
0000
0010
,  // measure 30
0010
1000
0100
1000
0001
0100
0010
0010
,  // measure 31
0100
0000
0000
0000
0001
0001
1000
1000
,  // measure 32
0100
0000
1000
0000
0010
0010
1000
0001
,  // measure 33
0100
0000
0010
0000
0100
0010
1000
0000
,  // measure 34
0100
0100
0001
1000
0100
0100
1000
0001
,  // measure 35
1000
0000
0100
0000
1000
0010
0100
0001
,  // measure 36
2000
0000
3000
0000
0010
0010
0010
0000
,  // measure 37
2000
3000
0002
0003
,  // measure 38
0220
0000
0330
0000
;

//---------------dance-single - ----------------
#NOTES:
     dance-single:
     :
     Easy:
     1:
     0.107,0.136,0.008,0.251,0.000:
0000
0000
0000
0000
,
0000
0000
0000
0000
,
0000
0000
0000
0000
,
0000
0000
0000
0000
,
2000
0000
0000
3000
,
0020
0000
0000
0030
,
0200
0000
0000
0300
,
0002
0000
0000
0003
,
0020
0000
0000
0030
,
0200
0000
0000
0300
,
2000
0000
0000
3000
,
0002
0000
0000
0003
,
0100
0000
0010
0000
,
1000
0000
0100
0100
,
0100
0000
1000
0000
,
0001
0000
0010
0000
,
0001
0000
0100
0000
,
0010
0000
0100
0100
,
0100
0000
0001
0000
,
1000
0000
0100
0000
,
0000
0000
0000
0000
,
1000
0000
1000
0000
,
1000
0000
0000
0000
,
0010
0000
0010
0000
,
0010
0000
0000
0000
,
0200
0300
0002
0003
,
2000
3000
0100
0100
,
0200
0300
2000
3000
,
0020
0030
2000
3000
,
0002
0003
0020
0030
,
0002
0003
1000
1000
,
2000
3000
0020
0030
,
2000
3000
0002
0003
,
0200
0300
0002
0003
,
2000
3000
0010
0010
,
0020
0030
2000
3000
,
0002
0003
2000
3000
,
0220
0330
0000
0000
;

//---------------dance-single - ----------------
#NOTES:
     dance-single:
     :
     Beginner:
     1:
     0.071,0.090,0.008,0.000,0.000:
0000
0000
0000
0000
,
0000
0000
0000
0000
,
0000
0000
0000
0000
,
0000
0000
0000
0000
,
0001
0000
0000
0000
,
0100
0000
0000
0000
,
0010
0000
0000
0000
,
1000
0000
0000
0000
,
0100
0000
0000
0000
,
0010
0000
0000
0000
,
0001
0000
0000
0000
,
1000
0000
0000
0000
,
0010
0000
0100
0000
,
0001
0000
0010
0010
,
0010
0000
0001
0000
,
1000
0000
0100
0000
,
1000
0000
0010
0000
,
0100
0000
0010
0010
,
0010
0000
1000
0000
,
0001
0000
0010
0000
,
0000
0000
0000
0000
,
0001
0000
0001
0000
,
0001
0000
0000
0000
,
0100
0000
0100
0000
,
0100
0000
0000
0000
,
0010
0000
1000
0000
,
0001
0000
0010
0010
,
0010
0000
0001
0000
,
0100
0000
0001
0000
,
1000
0000
0100
0000
,
1000
0000
0001
0001
,
0001
0000
0100
0000
,
0001
0000
1000
0000
,
0010
0000
1000
0000
,
0001
0000
0100
0100
,
0100
0000
0001
0000
,
1000
0000
0001
0000
,
0110
0000
0000
0000
;
