#TITLE:Moments;
#SUBTITLE:;
#ARTIST:One Direction;
#TITLETRANSLIT:;
#SUBTITLETRANSLIT:;
#ARTISTTRANSLIT:;
#CREDIT:;
#BANNER:Moments-bn.png;
#BACKGROUND:Moments-bg.png;
#LYRICSPATH:;
#CDTITLE:;
#MUSIC:Moments.mp3;
#OFFSET:-1.080;
#SAMPLESTART:61.011;
#SAMPLELENGTH:16.180;
#SELECTABLE:YES;
#BPMS:0.000=75.005,74.000=77.905,76.000=150.185;
#STOPS:;
#BGCHANGES:;

//---------------dance-single - ----------------
#NOTES:
     dance-single:
     :
     Beginner:
     1:
     0.101,0.136,0.000,0.000,0.000: // measure 1
0000
0000
0000
0000
,  // measure 2
0000
0000
0000
0000
,  // measure 3
0100
0000
0010
0000
,  // measure 4
1000
0000
0001
0000
,  // measure 5
0010
0000
0100
0000
,  // measure 6
1000
0000
0100
0000
,  // measure 7
0010
0000
0001
0000
,  // measure 8
0100
0000
0100
0000
,  // measure 9
0001
0000
1000
0000
,  // measure 10
0010
0000
0010
0000
,  // measure 11
1000
0000
0100
0100
,  // measure 12
0100
0000
1000
0000
,  // measure 13
0010
0000
0100
0000
,  // measure 14
0001
0000
0010
0000
,  // measure 15
0100
0000
1000
0000
,  // measure 16
0010
0010
0010
0000
,  // measure 17
0100
0100
0100
0000
,  // measure 18
0001
0001
0001
0000
,  // measure 19
1000
1000
1000
0000
,  // measure 20
0100
0000
0000
0000
,  // measure 21
1000
0000
0000
0000
,  // measure 22
0010
0000
0000
0000
,  // measure 23
0100
0000
0001
0000
,  // measure 24
0010
0000
0000
0000
,  // measure 25
0100
0000
0000
0000
,  // measure 26
1000
0000
0000
0000
,  // measure 27
0100
0000
1000
0000
,  // measure 28
0010
0000
0000
0000
,  // measure 29
1000
0000
0000
0000
,  // measure 30
0001
0000
0000
0000
,  // measure 31
0010
0000
0001
0000
,  // measure 32
0100
0000
0100
0000
,  // measure 33
0010
0000
0010
0000
,  // measure 34
1000
0000
1000
0000
,  // measure 35
0001
0000
0001
0000
,  // measure 36
0100
0000
0100
0000
,  // measure 37
0010
0000
1000
0000
,  // measure 38
0100
0000
0000
0000
;

//---------------dance-single - ----------------
#NOTES:
     dance-single:
     :
     Medium:
     5:
     0.266,0.253,0.095,0.147,0.000:
0000
0000
0000
0000
,
0000
0000
0000
0000
,
1000
0000
0100
0000
0010
0001
0100
0020
,
0000
0130
0000
0000
0001
0100
0010
2000
,
0000
3100
0000
0000
1000
0100
0010
0001
,
0200
0000
0302
0000
,
2003
0000
3010
1000
,
0100
0100
1000
0010
,
0001
0000
0001
0000
0100
1000
0010
0100
,
0001
0100
0010
0100
,
0001
0000
1000
0000
0100
0100
1000
1000
,
0100
0010
0001
1000
,
0020
0000
0030
0000
0100
0010
1000
0100
,
0020
0031
0002
0103
,
0200
0310
0020
1030
,
1100
0000
0010
0000
1000
0100
0010
0000
,
0001
2000
3020
0030
,
0110
0000
0001
0000
0100
0001
0010
0000
,
0100
2000
3200
0310
,
1001
0100
1000
0010
,
0100
0000
0010
0000
1000
0100
1000
0000
,
0010
1000
0001
0010
,
0100
0000
1000
0000
0001
0100
0001
0000
,
1010
0100
0001
0010
,
0100
0000
1000
0000
0010
0100
0010
0000
,
1000
0001
0010
0100
,
1000
0000
0001
0000
0100
0001
0100
0000
,
0110
0001
0100
0010
,
1000
0000
0001
0000
1000
0100
1000
0000
,
0010
1000
0001
0010
,
0100
0000
1000
0000
0010
0100
0010
0000
,
1001
0100
0010
1000
,
0100
0000
0010
0000
0001
0010
0100
0000
,
1000
0000
0001
0000
1000
0100
0010
0000
,
0001
0100
0010
1000
,
0100
0000
0000
1000
0000
0000
0010
0000
,
0110
0000
0000
0101
0000
0000
0010
0000
,
1100
0000
0000
0000
;

//---------------dance-single - ----------------
#NOTES:
     dance-single:
     :
     Hard:
     9:
     0.341,0.331,0.137,0.074,0.032:
0000
0000
0000
0000
,
0000
0000
0000
0000
,
1000
0000
0000
0010
0100
0000
0000
0000
0001
0000
0000
0010
0100
0000
0000
0000
,
1000
0000
0001
0000
1000
0010
0100
0010
,
1000
0000
0100
0000
0010
0001
1000
0001
,
0100
0000
0000
0010
0100
0000
0000
0000
0001
0000
0000
0100
0001
0000
0000
0000
,
1000
0000
0000
0100
1000
0000
0000
0000
0010
0000
0000
1000
0010
0000
0000
0000
,
0200
0000
0310
0000
1000
0100
0010
0001
,
0100
0000
0001
0000
0010
0001
1000
0010
,
0100
0000
0010
0000
1000
0100
1000
0001
,
0100
0000
0010
0000
0100
0001
0010
0100
,
2000
3100
2000
3001
,
0020
0000
0030
0000
0100
1000
0001
0000
,
0200
0300
0002
0003
,
2000
0000
3000
0000
0010
1000
0100
0000
,
1100
0100
0010
0001
1000
0010
0100
0010
,
1000
1000
0001
0010
0100
0100
0010
0001
,
1000
0010
0100
0001
0010
0100
0010
0001
,
1000
0100
0010
0001
0110
0000
0000
0000
,
1000
0100
0010
0001
0100
0010
0100
0000
,
0001
0000
0001
0100
0010
0000
1001
0000
,
0100
1000
0010
1000
0001
0010
0100
0000
,
1000
0000
1000
0100
0010
0000
1001
0000
,
0010
1000
0100
0000
1000
0001
0100
0000
,
0110
0000
0001
0100
1000
0100
0001
0000
,
0010
0000
0001
0010
0100
0010
0001
0000
,
1000
0000
1000
0001
0010
0000
0101
0000
,
0010
0100
0010
1000
0100
1000
0001
0100
,
0010
0100
0001
0010
0100
1000
0001
0000
,
1000
0100
1000
0010
0100
0010
1000
0001
,
0010
1000
0010
0100
1000
0010
0100
0000
,
0001
0000
1100
0000
0010
0100
0001
0000
,
0110
0000
0000
1000
0100
0000
1001
0000
,
0010
0000
0101
0000
0010
1000
0001
0000
,
1000
0100
0001
0000
1000
0010
0100
0001
,
0101
0000
0000
0110
0000
0000
1001
0000
,
0100
1000
1000
0010
0100
0001
0010
0100
,
0100
0000
0000
0000
;

//---------------dance-single - ----------------
#NOTES:
     dance-single:
     :
     Easy:
     3:
     0.200,0.233,0.032,0.200,0.000:
0000
0000
0000
0000
,
0000
0000
0000
0000
,
0100
0100
0001
1000
,
0010
0010
1000
0100
,
1000
1000
0001
0100
,
0020
0030
0200
0300
,
0002
0003
2000
3000
,
0010
1000
0100
0000
,
1000
0100
0010
0000
,
0001
0100
0010
0000
,
0100
0001
2000
3200
,
0310
0000
0002
0003
,
2000
3000
0100
0100
,
0200
0300
2000
3000
,
0010
0010
0200
0301
,
2000
0100
3200
0010
,
0320
0001
0032
0000
,
0103
0010
1000
0100
,
0110
0001
0101
0000
,
0010
0100
0001
0100
,
0010
1000
0100
0000
,
1000
0100
0010
0001
,
1000
0010
0100
0000
,
0010
1000
0001
1000
,
0100
0010
0001
0000
,
0010
0001
0100
0010
,
1000
0100
1000
0000
,
0010
1000
0100
0010
,
0001
0100
0010
0000
,
0100
0010
1000
0010
,
0100
0001
1000
0000
,
0002
0000
0003
0000
,
2000
0000
3000
0000
,
0200
0000
0310
0000
,
0002
0000
0103
0000
,
0010
0100
0001
1000
,
0100
0100
0100
0100
,
0110
0000
0000
0000
;
