#TITLE:I Wish;
#SUBTITLE:;
#ARTIST:One Direction;
#TITLETRANSLIT:;
#SUBTITLETRANSLIT:;
#ARTISTTRANSLIT:;
#CREDIT:;
#BANNER:I Wish-bn.png;
#BACKGROUND:I Wish-bg.png;
#LYRICSPATH:;
#CDTITLE:;
#MUSIC:I Wish.mp3;
#OFFSET:-0.480;
#SAMPLESTART:46.960;
#SAMPLELENGTH:17.560;
#SELECTABLE:YES;
#DISPLAYBPM:124;
#BPMS:0.000=123.920,95.000=120.000,96.000=123.920;
#STOPS:;
#BGCHANGES:;

//---------------dance-single - ----------------
#NOTES:
     dance-single:
     :
     Beginner:
     1:
     0.098,0.123,0.010,0.000,0.000: // measure 1
0000
0000
0000
0000
,  // measure 2
0000
0000
0000
0000
,  // measure 3
0000
0000
0000
0000
,  // measure 4
0000
0000
0000
0000
,  // measure 5
0100
0000
0100
0000
,  // measure 6
0010
0000
0000
0000
,  // measure 7
1000
0000
1000
0000
,  // measure 8
0100
0000
0000
0000
,  // measure 9
0010
0000
0010
0000
,  // measure 10
0001
0000
0000
0000
,  // measure 11
0100
0000
0100
0000
,  // measure 12
0001
0000
0000
0000
,  // measure 13
1001
0000
0000
0000
,  // measure 14
0100
0000
0100
0000
,  // measure 15
0100
0000
0000
0000
,  // measure 16
1000
0000
1000
0000
,  // measure 17
1000
0000
0000
0000
,  // measure 18
0010
0000
0010
0000
,  // measure 19
0010
0000
0000
0000
,  // measure 20
0100
0000
0100
0000
,  // measure 21
0001
0000
0000
0000
,  // measure 22
1000
1000
0000
0000
,  // measure 23
0010
0000
0000
0000
,  // measure 24
0100
0000
0001
0001
,  // measure 25
0001
0000
0000
0000
,  // measure 26
0010
0000
0100
0000
,  // measure 27
1000
0000
0000
0000
,  // measure 28
0010
0000
1000
0000
,  // measure 29
0001
0000
0000
0000
,  // measure 30
0100
0000
0001
0000
,  // measure 31
1000
0000
0000
0000
,  // measure 32
0100
0000
0100
0100
,  // measure 33
0100
0000
0000
0000
,  // measure 34
1000
0000
0001
0000
,  // measure 35
0010
0000
0000
0000
,  // measure 36
0001
0000
1000
0000
,  // measure 37
0010
0000
0010
0000
,  // measure 38
1000
0000
0000
0000
,  // measure 39
0100
0000
0100
0000
,  // measure 40
0010
0000
0000
0000
,  // measure 41
0001
0000
0001
0000
,  // measure 42
1000
0000
1000
0000
,  // measure 43
0010
0000
0010
0000
,  // measure 44
0010
0000
0000
0000
,  // measure 45
0000
0000
0000
0000
,  // measure 46
0000
0000
0000
0000
,  // measure 47
1000
0000
0000
0000
,  // measure 48
0010
0000
0000
0000
,  // measure 49
0001
0000
0000
0000
;

//---------------dance-single - ----------------
#NOTES:
     dance-single:
     :
     Medium:
     5:
     0.303,0.344,0.072,0.246,0.000:
0000
0000
0000
0000
,
0000
0000
0000
0000
,
0000
0000
0000
0000
,
0000
0000
0000
0000
,
0100
0001
0100
0010
,
1000
0000
0100
0000
0010
0100
0010
0100
,
1000
0010
1000
0001
,
0100
0000
0010
0000
0100
0001
0100
0001
,
1000
0100
0010
0001
,
0100
0010
1000
0010
,
0200
0010
0310
1000
,
0002
0000
0003
0000
1000
0100
1000
0100
,
0010
0001
0100
0010
,
1000
0000
0100
0000
1000
0100
0001
0000
,
0010
0001
0100
0010
,
1000
0000
0001
0000
0010
0001
0100
0000
,
0010
1000
0001
0010
,
1000
0000
0010
0000
0001
1000
0100
0000
,
0010
0001
0100
0010
,
2000
0000
3100
0000
0010
0001
0100
0000
,
0020
0130
2000
3100
,
0020
0130
2000
3100
,
0002
0000
2003
0000
,
3100
0000
0000
0010
0100
0000
1100
0000
,
0201
0010
0010
0310
,
0001
0000
0100
0000
0010
1000
0100
0000
,
2000
0100
0100
3100
,
0010
1000
0001
0000
0100
0000
0010
0000
,
2010
0100
0100
3010
,
0100
0001
0010
0100
0010
0001
1000
0000
,
0002
0000
0100
0000
0100
0000
0010
0003
,
0100
0000
0000
0010
0100
0000
1001
0000
,
0120
0000
0000
0000
,
0031
0010
0100
1000
0100
0010
0001
0000
,
0120
0000
0000
0000
,
1030
0100
0010
0001
0010
0100
1000
0000
,
0020
0000
0130
0000
0001
0100
0010
0000
,
2000
0000
3000
0000
0100
0010
0100
0000
,
2000
0000
0000
0000
3100
0010
0001
0000
,
0200
0000
0000
0000
0310
0100
0001
0000
,
0020
0000
0130
0000
1000
0001
0100
0000
,
0020
0000
0000
0000
0130
0001
1000
0000
,
2001
0000
3020
0000
,
0230
0000
0000
0000
,
0300
0000
0000
0000
,
0000
0000
0000
0000
,
0001
0000
1000
0100
,
0001
0000
0010
0100
,
1000
0000
0000
0000
;

//---------------dance-single - ----------------
#NOTES:
     dance-single:
     :
     Hard:
     8:
     0.332,0.347,0.092,0.184,0.000:
0000
0000
0000
0000
,
0000
0000
0000
0000
,
0000
0000
0000
0000
,
0000
0000
0000
0000
,
0000
0000
0100
1000
0000
0010
0000
0100
,
0000
0000
0010
0000
0100
0001
0100
0001
,
0000
0000
0100
0001
0000
1000
0000
0100
,
0000
0000
1000
0000
0010
1000
0010
1000
,
0000
0000
0010
0100
0000
0001
0000
1000
,
0000
0000
0001
0000
0010
0100
0010
0000
,
0001
1000
0100
1000
,
0010
0000
0100
0001
1000
0100
1000
0010
,
0100
0000
0001
1000
0000
1000
0001
0000
,
0100
0000
0010
0000
1000
0001
0010
0100
,
1000
0000
0010
0100
0000
0100
0010
0000
,
1000
0000
0001
0000
0100
0010
0100
0001
,
1000
0000
0010
1000
0000
1000
0100
0000
,
1000
0000
0001
0000
0100
0010
0100
0000
,
0001
0000
0100
0010
0100
0000
0001
0000
,
1000
0000
0100
0000
1000
0100
0001
0000
,
0100
0000
0100
0000
1000
0001
0100
0000
,
0010
0000
0010
0000
1000
0001
0100
0000
,
1000
0000
1000
0000
0100
0001
1000
0000
,
0110
0000
0001
0000
0100
1000
0010
0000
,
0210
0010
0001
0310
,
0100
0001
0100
0000
0001
1000
0001
0000
,
2100
0010
0100
3010
,
1000
0100
1000
0000
0001
0100
0001
0000
,
0020
0000
0130
0000
0001
0100
0010
0000
,
2000
0000
3100
0000
1000
0100
0010
0000
,
0021
0100
0100
0031
,
2000
0100
3010
1001
,
0210
0010
0001
0310
,
1000
0100
1000
0000
0001
1000
0001
0000
,
0120
0100
0001
0130
,
1000
0100
1000
0000
0001
0100
0001
0000
,
2000
0000
3100
0000
1000
0010
0100
0000
,
0002
0000
0013
0000
0001
0100
0010
0000
,
0200
0010
0001
0310
,
2002
0000
0000
3003
0100
1000
0100
1000
,
0001
0000
0100
0000
0010
0100
0001
0000
,
2010
0000
0100
0000
3001
1000
0100
0010
,
0002
0100
0203
0010
,
0320
0000
0000
0000
,
0000
0000
0030
0000
,
0000
0000
0000
0000
,
0001
0000
1000
0100
,
0001
0000
0000
0000
0100
0001
0010
0000
,
2000
0000
0000
3000
0000
0000
0000
0000
;

//---------------dance-single - ----------------
#NOTES:
     dance-single:
     :
     Easy:
     4:
     0.230,0.270,0.143,0.225,0.000:
0000
0000
0000
0000
,
0000
0000
0000
0000
,
0000
0000
0000
0000
,
0000
0000
0000
0000
,
0100
0001
0100
1000
,
0010
0000
0110
0110
,
1000
0100
0001
0010
,
1000
0000
0110
0110
,
1000
0010
0100
0001
,
0100
0010
1000
0001
,
2000
0000
3000
0000
,
0000
0000
0100
0100
,
1000
0100
0010
0001
,
0100
0000
0010
0110
,
1000
0010
1000
0001
,
0100
0000
0001
0101
,
0010
0001
1000
0100
,
1000
0000
0010
1010
,
0100
0010
1000
0001
,
1000
0000
0100
0110
,
2000
3100
1000
0010
,
0200
0310
0100
0001
,
0020
0000
0200
0000
,
0330
0000
0010
0110
,
2002
0000
0000
3003
,
0200
1000
0310
0000
,
0002
0000
0000
0003
,
0200
0001
0310
0000
,
2000
0000
3010
0100
,
0020
0000
0130
0001
,
0020
0000
0130
1000
,
0002
0000
0003
0000
,
0220
0000
0000
0330
,
2000
0100
3010
0000
,
0002
0000
0000
0003
,
0020
0100
0031
0000
,
0100
0010
1000
0100
,
1000
0000
0010
1000
,
0001
0100
0010
0100
,
0001
0000
0010
0001
,
1000
0100
0010
0001
,
0100
0000
0010
0000
,
2010
0000
3020
0000
,
0200
0000
0000
0000
,
0000
0000
0330
0000
,
0000
0000
0000
0000
,
0010
0000
0010
1000
,
0100
0000
1100
0011
,
0100
0000
0000
0000
;
