#TITLE:I Want;
#SUBTITLE:;
#ARTIST:One Direction;
#TITLETRANSLIT:;
#SUBTITLETRANSLIT:;
#ARTISTTRANSLIT:;
#CREDIT:;
#BANNER:I Want-bn.png;
#BACKGROUND:I Want-bg.png;
#LYRICSPATH:;
#CDTITLE:;
#MUSIC:I Want.mp3;
#OFFSET:-0.080;
#SAMPLESTART:75.040;
#SAMPLELENGTH:17.560;
#SELECTABLE:YES;
#DISPLAYBPM:128.000;
#BPMS:0.000=128.010,91.000=136.490,92.000=128.010;
#STOPS:;
#BGCHANGES:0.000=I Want.avi=1.000=1=0=0,
99999=-nosongbg-=1.000=0=0=0 // don't automatically add -songbackground-
;

//---------------dance-single - ----------------
#NOTES:
     dance-single:
     :
     Beginner:
     2:
     0.129,0.183,0.081,0.000,0.000:
0000
0000
0000
0000
,
0000
0000
0000
0000
,
0000
0000
0000
0000
,
0000
0000
0000
0000
,
1000
0000
0010
0000
,
0100
0000
0010
0000
,
1000
0000
0001
0000
,
0010
0000
0000
0000
,
0100
0000
1000
0000
,
0001
0000
1000
0000
,
0010
0000
1000
0000
,
0001
0000
0000
0000
,
0100
0000
0001
0000
,
0010
0000
0100
0000
,
1000
0000
0010
0000
,
0110
0000
0000
0000
,
1000
0000
0000
0001
,
0001
0000
0000
0000
,
0010
0000
0000
0100
,
0100
0000
0000
0000
,
1000
0000
0000
0010
,
0010
0000
0000
0000
,
1001
0000
0000
0000
,
0110
0000
0000
0000
,
1000
0000
1000
0000
,
0010
0000
0100
0000
,
0010
0000
1000
0000
,
0001
0000
0010
0000
,
0001
0000
0001
0000
,
1000
0000
0100
0000
,
1000
0000
0010
0000
,
0100
0100
0100
0100
,
0100
0000
0000
0000
,
0000
0000
0010
0010
,
0010
0000
0000
0000
,
0000
0000
1000
1000
,
1000
0000
0000
0000
,
0000
0000
0001
0001
,
0001
0000
0000
0000
,
1001
0000
0110
0000
,
1001
0000
0000
0000
,
0100
0000
1000
0000
,
0010
0000
0000
0000
,
1000
0000
0001
0000
,
0100
0000
0000
0000
,
0001
0000
0010
0010
,
0010
0000
0000
0000
,
0001
0000
1000
0000
,
0100
0000
0000
0000
,
1000
0000
0010
0000
,
0100
0000
0000
0000
,
0010
0000
1001
0000
,
1001
0000
0000
0000
;

//---------------dance-single - ----------------
#NOTES:
     dance-single:
     :
     Medium:
     9:
     0.431,0.471,0.272,0.312,0.337:
0000
0000
0000
0000
,
0000
0000
0000
0000
,
0000
0000
0000
0000
,
0000
0000
0000
0000
,
1000
1000
0001
0001
,
0100
0100
0010
0010
,
2000
3200
0320
0032
,
0103
0010
2002
3003
,
0010
1000
0100
0010
,
0001
0100
0010
1000
,
0100
0000
0100
1000
0000
0000
0010
0000
0010
0100
0000
0000
,
0002
0203
0320
2030
,
3100
0000
0000
0010
0000
0000
0001
1000
0001
1000
0000
0000
,
0010
0000
0000
0100
0000
0000
0010
0100
0010
0100
0000
0000
,
0001
0000
0000
0100
0000
0000
0010
1000
0010
1000
0000
0000
,
0100
0000
0100
1000
0000
0000
0010
0000
0010
0100
0000
0000
,
0001
0000
1000
0000
0000
0001
1000
0000
0000
0001
0000
1000
,
0000
0000
0100
0020
0000
0000
0032
0000
0000
0203
0000
0000
,
0310
0000
1000
0000
0000
0010
1000
0000
0000
0010
0000
1000
,
0000
0000
0100
0020
0000
0000
0032
0000
0000
2003
0000
0000
,
3100
0000
0010
0000
0000
0100
0010
0000
0000
0100
0000
0010
,
0000
0000
0001
0200
0000
0000
0320
0000
0000
1030
0000
0000
,
0110
0001
0100
0010
,
1000
0000
0100
0000
0001
0000
0010
0000
1000
0000
0100
0000
,
0011
0000
0000
0100
0000
0010
0100
0000
0000
0001
0000
0100
,
0001
0000
0000
0010
0000
0100
0010
0000
0000
0200
0000
0000
,
1300
0010
2000
3100
,
0020
0031
0110
1001
,
0100
0000
0000
1000
0000
0100
1000
0000
0000
0010
0000
0100
,
0010
0000
0000
0100
0000
0001
0100
0000
0000
0010
0000
0100
,
0001
0000
0000
0010
0000
0100
1000
0000
0000
0010
0000
0000
,
1000
0000
1000
0100
0000
0000
0010
0000
0010
0001
0000
0000
,
0100
0000
0010
0000
0000
1000
0010
0000
0000
0100
0000
0010
,
0000
0000
1000
0020
0000
0000
0230
0000
0000
0302
0000
0000
,
0013
0000
0100
0000
0000
0010
0001
0000
0000
0010
0000
0100
,
0000
0000
0010
0002
0000
0000
0203
0000
0000
0320
0000
0000
,
1030
0000
0001
0000
0000
1000
0100
0000
0000
1000
0000
0001
,
0000
0000
1000
0200
0000
0000
0320
0000
0000
0031
0000
0000
,
0220
0000
0330
0000
,
0001
0010
0001
0010
0001
0010
0100
1000
0100
1000
0100
1000
,
0010
0000
0000
0100
0000
0000
0001
0000
0000
0010
0000
0100
,
1000
0100
0110
1001
,
0010
0000
0000
1000
0000
0000
0001
0000
0000
0010
0000
0001
,
0100
0010
1010
0101
,
0010
0000
0000
0001
0000
0000
1000
0000
0000
0100
0000
1000
,
0010
0100
0110
1001
,
0110
0011
1100
1001
,
1010
0000
0000
0001
0000
0001
0100
0000
0010
1000
0000
0000
,
1010
1100
0101
0011
,
1001
0000
0000
0010
0000
0010
0100
0000
0001
0100
0000
0000
,
1010
1100
0011
1100
,
0101
0000
0010
0100
0000
0100
0001
0000
0001
0010
0000
0100
,
1000
0000
0000
0000
;

//---------------dance-single - ----------------
#NOTES:
     dance-single:
     :
     Hard:
     12:
     0.521,0.552,0.513,0.121,0.669: // measure 1
0000
0000
0000
0000
,  // measure 2
0000
0000
0000
0000
,  // measure 3
0000
0000
0000
0000
,  // measure 4
0000
0000
0000
0000
,  // measure 5
0010
0010
0100
0100
,  // measure 6
0001
0001
1000
1000
,  // measure 7
0100
1100
0001
0101
,  // measure 8
0020
0100
0130
0000
,  // measure 9
0001
0000
0001
0100
0000
0000
0010
0000
0100
0010
0000
0000
,  // measure 10
1000
0000
1000
0100
0000
0000
0010
0000
0100
0010
0000
0000
,  // measure 11
0001
0000
0001
1000
0000
1000
0100
0000
0100
0010
0000
0010
,  // measure 12
0001
0100
0110
1001
,  // measure 13
0010
0000
1000
0010
0000
0000
0100
0001
0100
0010
0000
0000
,  // measure 14
1000
0000
1000
0001
0000
0000
0010
0000
0010
0100
0000
0000
,  // measure 15
1000
0000
1000
0001
0000
0001
0010
0000
0010
0100
0000
0100
,  // measure 16
1000
0001
1000
0001
1000
0001
0100
0010
0100
0010
0100
0010
,  // measure 17
1000
0000
1100
0000
0000
0001
0101
0000
0000
0010
0000
0110
,  // measure 18
0000
0000
0001
1000
0000
0100
0010
0000
0100
1000
0000
0000
,  // measure 19
0010
0000
0110
0000
0000
0001
0101
0000
0000
1000
0000
1100
,  // measure 20
0000
0000
0001
1000
0000
0010
0100
0000
0001
0010
0000
0000
,  // measure 21
0100
0000
1100
0000
0000
0010
0110
0000
0000
1000
0000
1010
,  // measure 22
0000
0000
0001
0100
0000
0100
0010
0000
1000
0001
0000
1000
,  // measure 23
0200
0000
0000
0310
0000
0000
1000
0100
0010
0001
0000
0000
,  // measure 24
0110
0000
1100
0000
0101
0000
0011
0000
1010
0000
0101
0000
,  // measure 25
0010
0000
1000
0010
0000
1000
0200
0000
0000
0310
0000
0001
,  // measure 26
2000
0000
0000
3010
0000
0100
0002
0000
0000
0013
0001
0100
,  // measure 27
0020
0000
0000
1030
0000
1000
0010
0100
0001
0100
0010
1000
,  // measure 28
0002
0000
0000
1003
0000
1000
0200
0000
0000
2300
0000
0000
,  // measure 29
3010
0000
0000
0110
0000
0100
0001
0000
0000
1010
0000
1000
,  // measure 30
0001
0000
0000
1000
0000
0100
1000
0000
1000
0010
0000
0100
,  // measure 31
0002
0013
0200
1300
,  // measure 32
0010
1000
0100
0010
0001
0100
0010
1000
0001
1000
0010
0100
,  // measure 33
0001
0000
0100
0000
0000
1000
0100
0000
0000
0001
0000
0100
,  // measure 34
0000
0000
1000
0100
0000
0000
0110
0000
0000
1001
0000
0000
,  // measure 35
0001
0000
0010
0000
0000
1000
0010
0000
0000
0001
0000
0010
,  // measure 36
0000
0000
1000
0010
0000
0000
1001
0000
0000
0110
0000
0000
,  // measure 37
1000
0000
0100
0000
0000
0001
0100
0000
0000
1000
0000
0100
,  // measure 38
0000
0000
0001
0100
0000
0000
1100
0000
0000
0101
0000
0000
,  // measure 39
1001
1001
0010
0010
,  // measure 40
1000
0100
0001
0100
1000
0010
0001
0010
1000
0001
0100
0010
,  // measure 41
1000
0000
1100
0000
0000
0010
0110
0000
0000
0001
0000
0101
,  // measure 42
0000
0000
0010
1000
0000
0100
1000
0000
0001
0100
0000
0000
,  // measure 43
0010
0000
0110
0000
0000
1000
1100
0000
0000
0001
0000
0101
,  // measure 44
0000
0000
0010
0100
0000
0100
1000
0000
1000
0001
0000
0000
,  // measure 45
1010
0000
1001
0000
0000
0100
0101
0000
0000
1100
0000
1001
,  // measure 46
0000
0000
0100
0010
0000
1000
0100
0000
1000
0001
0000
0010
,  // measure 47
0100
0000
1100
0000
0000
0001
0101
0000
0000
0010
0000
0110
,  // measure 48
0000
0000
0001
1000
0000
0100
1000
0000
0010
0100
0000
0000
,  // measure 49
1000
0000
1100
0000
0000
0010
0110
0000
0000
0001
0000
0101
,  // measure 50
0000
0000
1000
0100
0000
0100
0010
0000
0001
1000
0000
0000
,  // measure 51
1010
0000
1001
0000
0000
0100
0110
0000
0000
1100
0000
1001
,  // measure 52
0000
0000
1000
0100
0000
1000
0010
0000
0100
0001
0000
0001
,  // measure 53
0020
0030
0000
0000
;

//---------------dance-single - ----------------
#NOTES:
     dance-single:
     :
     Easy:
     5:
     0.316,0.366,0.262,0.171,0.096:
0000
0000
0000
0000
,
0000
0000
0000
0000
,
0000
0000
0000
0000
,
0000
0000
0000
0000
,
1000
0010
0100
0100
,
0010
1000
0001
0000
,
0010
0001
0100
0100
,
0010
1000
0001
0000
,
2000
3100
0010
0001
,
0200
0310
1000
0000
,
0002
0013
0001
0100
,
0020
1030
0100
0000
,
2000
3010
0100
0001
,
0020
0130
0010
0000
,
0002
0103
0010
1000
,
1100
0110
0011
0000
,
0100
0000
0100
0000
0000
0000
0010
0000
0000
1000
0000
0000
,
0001
0010
0011
1001
,
0100
0000
0100
0000
0000
0000
1000
0000
0000
0010
0000
0000
,
0100
0010
1010
1001
,
1000
0000
1000
0000
0000
0000
0100
0000
0000
1000
0000
0000
,
0001
0010
0011
1100
,
1001
0000
0010
0000
,
0100
0000
0100
0000
0100
0000
0001
0000
0001
0000
0001
0000
,
1000
0100
0010
0001
,
0100
0010
1000
0200
,
1300
0010
1000
0001
,
0020
0032
2003
3200
,
0310
0001
0100
0010
,
0100
0001
1000
0100
,
2000
3100
0010
0001
,
0200
0320
2030
3002
,
0103
0000
0100
0000
0000
0000
0100
0000
0000
0100
0000
0100
,
0000
0000
0000
0000
,
0001
0000
0001
0000
0000
0000
0001
0000
0000
0001
0000
0001
,
0000
0000
0000
0000
,
1000
0000
1000
0000
0000
0000
1000
0000
0000
1000
0000
1000
,
0000
0000
0110
1001
,
0110
0000
0000
0000
,
0001
0010
0100
1000
,
0100
0000
0100
0000
0000
0000
1000
0000
0000
0010
0000
0000
,
0100
0001
0101
1010
,
0001
0000
0001
0000
0000
0000
0100
0000
0000
0001
0000
0000
,
1000
0100
1100
1010
,
0100
0000
0100
0000
0000
0000
0010
0000
0000
1000
0000
0000
,
0001
0010
0011
1100
,
0010
0000
0010
0000
0000
0000
1000
0000
0000
0001
0000
0000
,
0100
0010
0110
1001
,
0001
0000
0001
0000
0000
0000
0010
0000
0000
0001
0000
0000
,
0100
0010
0110
1010
,
1000
0000
1000
0000
0000
0000
0100
0000
0000
1000
0000
0000
,
0010
0100
0110
1001
,
0110
0000
0000
0000
;
