#TITLE:I Should Have Kissed You;
#SUBTITLE:;
#ARTIST:One Direction;
#TITLETRANSLIT:;
#SUBTITLETRANSLIT:;
#ARTISTTRANSLIT:;
#CREDIT:;
#BANNER:I Should Have Kissed You-bn.png;
#BACKGROUND:I Should Have Kissed You-bg.png;
#LYRICSPATH:;
#CDTITLE:;
#MUSIC:I Should Have Kissed You.mp3;
#OFFSET:-0.460;
#SAMPLESTART:30.301;
#SAMPLELENGTH:17.600;
#SELECTABLE:YES;
#DISPLAYBPM:140;
#BPMS:0.000=140.000,72.000=142.260,73.000=140.000;
#STOPS:;
#BGCHANGES:;

//---------------dance-single - ----------------
#NOTES:
     dance-single:
     :
     Beginner:
     1:
     0.156,0.248,0.013,0.000,0.000: // measure 1
0000
0000
0000
0000
,  // measure 2
0000
0000
0000
0000
,  // measure 3
1000
0000
0000
0000
,  // measure 4
0100
0000
0000
0000
,  // measure 5
0010
0000
0000
0000
,  // measure 6
0001
0000
0000
0000
,  // measure 7
0100
0000
0000
0000
,  // measure 8
0010
0000
0000
0000
,  // measure 9
1000
0000
0000
0000
,  // measure 10
0100
0000
0000
0000
,  // measure 11
1000
1000
0000
0000
,  // measure 12
0010
0010
0000
0000
,  // measure 13
0100
0100
0000
0000
,  // measure 14
0001
0001
0000
0000
,  // measure 15
0010
0010
0000
0000
,  // measure 16
0100
0100
0000
0000
,  // measure 17
1000
1000
0000
0000
,  // measure 18
0001
0000
0000
0000
,  // measure 19
0100
0100
0000
0000
,  // measure 20
0010
0000
1000
0000
,  // measure 21
0100
0000
0010
0000
,  // measure 22
0001
0000
0000
0000
,  // measure 23
1000
0000
0010
0000
,  // measure 24
1000
0000
0001
0000
,  // measure 25
0000
0100
0100
0000
,  // measure 26
0000
0000
0000
0000
,  // measure 27
0001
0001
0000
0000
,  // measure 28
0010
0000
0100
0000
,  // measure 29
1000
0000
0010
0000
,  // measure 30
1000
0000
0001
0000
,  // measure 31
0100
0000
0100
0000
,  // measure 32
0010
0000
1000
0000
,  // measure 33
0000
0001
0001
0000
,  // measure 34
1000
1000
1000
0000
,  // measure 35
0010
0010
0010
0010
,  // measure 36
0010
0010
0010
0000
,  // measure 37
0100
0100
0100
0100
,  // measure 38
0100
0100
0100
0000
,  // measure 39
0001
0001
0001
0001
,  // measure 40
0001
0001
0001
0000
,  // measure 41
1000
1000
1000
1000
,  // measure 42
1000
1000
1000
0000
,  // measure 43
1001
0000
0000
0000
;

//---------------dance-single - ----------------
#NOTES:
     dance-single:
     :
     Medium:
     6:
     0.345,0.358,0.105,0.118,0.000:
0000
0000
0000
0000
,
0000
0000
0000
0000
,
1000
0010
0100
0100
,
0010
1000
0001
1001
,
0000
0100
1000
0010
,
0100
0000
0010
0000
1000
0100
1000
0100
,
1000
0010
0100
0001
,
0010
0001
0100
0110
,
0000
0001
0100
0010
,
1000
0000
0001
0000
0010
0100
0010
0100
,
0010
0000
0000
0001
0000
0000
1000
0000
,
0000
0010
0000
0000
0100
0100
0100
0000
,
0001
0000
0000
0010
0000
0000
0001
0000
,
0000
1000
0000
0000
0010
0010
0010
0000
,
1000
0000
0000
0001
0000
0000
0010
0000
,
0000
0001
0000
0000
0100
0100
0100
0000
,
0001
0000
0000
1000
0000
0000
0100
0000
,
0220
0000
0000
0330
,
0001
1001
0100
1000
,
0010
0000
0100
0000
0001
0100
0010
0000
,
1000
1100
0010
1000
,
0001
0000
0000
0000
0010
0100
1000
0000
,
0020
0130
0001
1000
,
0200
1300
0010
0100
,
0001
0000
1000
0100
0010
0000
0001
0200
,
0000
0000
0000
0000
0310
0100
0010
0000
,
2010
3001
0100
0001
,
0010
0100
1000
0001
,
0020
0000
0031
0000
0100
0000
0010
0100
,
0001
0010
0100
1000
,
0200
0310
0001
0100
,
0020
1030
0100
1000
,
0001
0000
0100
0010
1000
0000
0100
0000
,
0010
0001
0100
0001
0010
0100
1000
0000
,
0010
0100
0000
0001
0100
0000
0000
0000
,
1000
0100
0010
0001
0000
1000
0000
0000
,
0010
1000
0000
0010
0100
0000
0000
0000
,
0010
1000
0100
0010
0000
0001
0000
0000
,
0010
0001
0000
1000
0100
0000
0000
0000
,
0010
0001
1000
0100
0000
1000
0000
0000
,
0010
0100
0000
0010
1000
0000
0000
0000
,
0001
1000
0010
0100
0000
1001
0000
0000
,
0110
0000
0000
0000
;

//---------------dance-single - ----------------
#NOTES:
     dance-single:
     :
     Hard:
     10:
     0.441,0.468,0.315,0.052,0.000:
0000
0000
0000
0000
,
0000
0000
0000
0000
,
0010
0000
1000
0000
0100
0000
0010
0001
,
0100
0000
0010
0000
0100
0000
0001
0100
,
1000
0000
0010
0000
1000
0000
0001
0010
,
0100
0000
1000
0000
0100
1000
1000
1000
,
0010
0000
0100
0000
0001
0000
0010
0100
,
1000
0000
0001
0000
1000
0000
0100
0010
,
0001
0000
0100
0000
0010
0000
1000
0010
,
0100
0000
0001
0000
0010
0100
0100
0100
,
0010
0000
0000
0001
0000
0000
0100
0000
,
0000
0010
0000
0000
1000
0100
1100
0000
,
0010
0000
0000
1000
0000
0000
0001
0000
,
0000
0010
0000
0000
0001
0100
0101
0000
,
0010
0000
0000
0100
0000
0000
0001
0000
,
0000
1000
0000
0000
0100
0010
0110
0000
,
0100
0000
1000
0100
0000
0001
0100
0000
,
1000
0001
1000
0000
0010
0100
0010
0000
,
1010
0000
0101
0000
0010
0001
0100
0000
,
0010
0000
0100
0000
1000
0010
0100
0000
,
1010
0000
0101
0000
0010
0001
1000
0000
,
0100
0000
0010
0001
0100
0000
0001
0010
,
0100
1100
0001
0101
,
0010
0000
0100
0010
0001
0000
0100
0000
,
0010
1000
0100
0000
1000
0000
0110
0000
,
0001
0000
0110
0000
1000
0010
0100
0000
,
0001
0100
0010
1000
0010
1000
0010
0000
,
0100
0010
0100
0000
0001
0100
0001
0000
,
1000
0100
0010
0001
0010
0001
1000
0000
,
0100
1000
0010
0000
0100
0001
1000
0000
,
0010
0110
1000
1100
,
0001
0100
1000
0000
0100
0000
0101
0000
,
0010
0000
0110
0000
0001
1000
0100
0000
,
0010
1001
1100
0101
,
0010
0100
0001
0100
0010
1000
0002
0000
,
1003
0100
1000
0100
0000
1001
0000
0000
,
0010
1000
0001
1000
0100
0010
0200
0000
,
1300
0001
0010
0001
0000
0101
0000
0000
,
0010
0100
0001
0100
0010
1000
0002
0000
,
0013
0100
1000
0001
0000
1010
0000
0000
,
0100
0010
0100
0001
0010
0100
2000
0000
,
3100
0010
0001
1001
0000
1010
0000
0000
,
0110
0000
0000
0000
;

//---------------dance-single - ----------------
#NOTES:
     dance-single:
     :
     Easy:
     4:
     0.240,0.276,0.118,0.026,0.000:
0000
0000
0000
0000
,
0000
0000
0000
0000
,
1000
0000
0010
0000
,
1000
0000
0100
0000
,
0010
0000
0001
0000
,
1000
0000
0010
0010
,
0010
0000
1000
0000
,
0001
0000
1000
0000
,
0100
0000
1000
0000
,
0001
0000
0100
0100
,
0100
0000
1010
0000
,
0100
0000
0011
0000
,
0100
0000
1100
0000
,
0100
0000
0101
0000
,
1000
0100
0010
0000
,
0001
1000
0100
0000
,
0010
0001
0100
0020
,
0200
0000
0000
0330
,
0001
0100
0010
0100
,
0010
1000
0100
0000
,
1000
0100
0010
0100
,
0010
0001
0100
0000
,
0010
1000
0100
0000
,
1000
0100
0010
0000
,
0001
0100
0010
1000
,
0001
0000
0010
0010
,
0100
1000
0100
0000
,
1000
0000
0010
0100
,
0010
0000
1000
0001
,
0100
0000
0001
0010
,
0100
1000
0100
1000
,
0010
0000
0100
0010
,
1000
0000
0001
0000
,
0010
0001
0100
0000
,
0010
0100
0010
0110
,
0100
0010
0100
0000
,
0001
1000
0001
1001
,
1000
0001
1000
0000
,
0100
1000
0100
1100
,
1000
0100
1000
0000
,
0001
0010
0001
0011
,
0010
0001
0010
0000
,
1001
0000
0000
0000
;

//---------------dance-single - ----------------
#NOTES:
     dance-single:
     :
     Challenge:
     12:
     0.589,0.579,0.302,0.262,0.013:
0000
0000
0000
0000
,
0000
0000
0000
0000
,
1000
0010
0100
0001
0010
0100
1000
1100
,
0000
0010
1000
0001
1000
0010
0100
0110
,
0000
0001
0010
0001
0100
0010
1000
1010
,
0000
0100
1000
0001
0010
0100
0100
0100
,
0010
0001
1000
0010
0100
0001
1000
1100
,
0000
0010
1000
0001
0100
0010
1000
1010
,
0000
0100
0001
0010
0100
0010
0001
0101
,
0000
0010
1000
0001
0100
0010
0010
0010
,
0110
0000
1001
0000
0100
1000
0001
0001
,
0100
0100
0010
1000
0100
1000
0001
0000
,
1100
0000
0101
0000
0010
0001
0100
0100
,
0010
0010
1000
0100
1000
0001
0010
0000
,
2002
0000
3003
0000
0100
1000
0100
1000
,
0001
0001
0001
0000
0100
0010
1000
0000
,
0100
1000
0010
1000
0001
0100
0010
1000
,
0100
0000
0100
0000
0100
0000
0010
0000
0001
0000
0100
0000
0010
1000
0010
1000
,
0010
0000
2001
0000
3100
1000
0010
0000
,
0100
0001
0010
0001
0100
0010
0000
2020
,
0000
3030
0100
0001
0010
0100
1000
0001
,
0000
0100
1000
0100
0010
1000
0100
0020
,
0000
0000
0031
0010
0100
1000
0001
0200
,
0000
0000
0310
0100
0001
1000
0100
0010
,
0110
0000
1000
0100
0001
0000
1000
0001
,
0200
0000
0310
0100
0001
0100
0010
1000
,
1010
0000
2100
0000
3010
1000
0001
0000
,
0100
0010
0100
0001
0010
0100
0000
0022
,
0000
0033
0100
0010
0100
0001
0010
0100
,
1000
0000
0010
0000
1000
0100
0001
0100
,
2000
0000
3010
0100
0001
0100
0010
0000
,
1000
0100
1000
0001
1000
0001
0010
0000
,
0001
0100
0010
0000
1000
0100
0010
0000
,
0001
0100
1000
0001
0010
1000
0001
0000
,
0010
1000
0100
1000
0001
0100
2002
3003
,
0100
1000
0010
0100
0010
1000
0010
0000
,
0001
0100
0010
1000
0100
0010
2002
3003
,
0010
1000
0100
0010
0100
0010
1000
0000
,
0001
0100
0010
1000
0001
0100
2020
3030
,
0100
0001
0010
0100
0010
0001
1000
0000
,
0100
1000
0010
0100
0001
1000
0202
0303
,
0010
0100
0001
0010
0100
1000
0110
0100
,
1100
0000
0000
0000
;
