#TITLE:Gotta Be You;
#SUBTITLE:;
#ARTIST:One Direction;
#TITLETRANSLIT:;
#SUBTITLETRANSLIT:;
#ARTISTTRANSLIT:;
#CREDIT:;
#BANNER:Gotta Be You-bn.png;
#BACKGROUND:Gotta Be You-bg.png;
#LYRICSPATH:;
#CDTITLE:;
#MUSIC:Gotta Be You.mp3;
#OFFSET:-0.420;
#SAMPLESTART:68.140;
#SAMPLELENGTH:17.600;
#SELECTABLE:YES;
#BPMS:0.000=84.990;
#STOPS:95.500=0.620
;
#BGCHANGES:-0.600=Gotta Be You.avi=1.000=1=0=0,
99999=-nosongbg-=1.000=0=0=0 // don't automatically add -songbackground-
;

//---------------dance-single - ----------------
#NOTES:
     dance-single:
     :
     Beginner:
     1:
     0.039,0.057,0.000,0.000,0.000:
0000
0000
0000
0000
,
0000
0000
0000
0000
,
0000
0000
0000
0000
,
0000
0000
0000
0000
,
1000
0000
0000
0000
,
0100
0000
0000
0000
,
0010
0000
0000
0000
,
0001
0000
0000
0000
,
0100
0000
0000
0000
,
0010
0000
0000
0000
,
1000
0000
0000
0000
,
1000
0000
0000
0000
,
0100
0000
0000
0000
,
0010
0000
0000
0000
,
0001
0000
0000
0000
,
0100
0000
0000
0000
,
0010
0000
0000
0000
,
1000
0000
0000
0000
,
0010
0000
0000
0000
,
0010
0000
0000
0000
,
0100
0000
0000
0000
,
0001
0000
0000
0000
,
0001
0000
0000
0000
,
0100
0000
0000
0010
,
0000
0100
0000
0000
,
0000
1000
0000
0000
,
0000
0010
0000
0000
,
0000
0100
0000
0000
,
0000
0001
0000
0000
,
0000
0010
0000
0000
,
0000
0100
0000
0000
,
0000
1000
0000
0010
,
0010
0000
0000
0000
;

//---------------dance-single - ----------------
#NOTES:
     dance-single:
     :
     Medium:
     4:
     0.186,0.198,0.097,0.071,0.000:
0000
0000
0000
0000
,
0000
0000
0000
0000
,
0000
0000
0000
0000
,
0000
0000
0000
0000
,
0010
0100
0001
2000
,
3000
0100
2000
3000
,
0010
1000
0001
0020
,
0030
0001
0020
0030
,
0001
0100
1000
0100
,
0001
0010
1000
0010
,
0001
1000
0100
0010
,
0001
0100
0010
1000
,
0001
0010
0100
0000
1000
0100
0010
0000
,
0001
0010
0100
0000
1000
0100
0010
0000
,
0001
0100
0010
0000
1000
0010
0100
0000
,
1001
0000
0000
0100
0100
0010
0010
0000
,
2001
3100
0010
1000
,
0010
0000
0100
0000
0001
0010
0010
0000
,
0201
0310
0100
0001
,
1000
0000
0001
0000
0010
0100
0100
0000
,
2010
3100
1000
0001
,
0010
0000
0001
0000
0100
0010
0010
0000
,
2001
3100
0010
0001
,
0100
0000
0010
0000
1000
0100
0100
0110
,
0000
0000
1001
0000
0010
0000
0100
0010
,
0010
0000
0100
0000
0001
0000
0010
0100
,
0100
0000
1100
0000
0010
0000
1000
0001
,
0001
0000
0100
0000
0010
0000
0100
0001
,
0001
0000
0110
0000
0001
0000
1000
0100
,
0100
0000
0010
0000
0001
0000
0100
0010
,
0010
0000
1100
0000
0001
0000
1000
0100
,
0100
0000
0010
0000
0001
0000
0100
0001
,
1100
0000
0000
0000
;

//---------------dance-single - ----------------
#NOTES:
     dance-single:
     :
     Hard:
     7:
     0.255,0.269,0.071,0.133,0.000: // measure 1
0000
0000
0000
0000
,  // measure 2
0000
0000
0000
0000
,  // measure 3
0000
0000
0000
0000
,  // measure 4
0000
0000
0000
0000
,  // measure 5
1000
0100
1000
0001
,  // measure 6
0100
0000
0010
0000
0100
0001
1000
0000
,  // measure 7
0200
0300
2000
3000
,  // measure 8
0020
0030
0002
0003
,  // measure 9
1000
0100
1000
0000
0001
0100
0001
0000
,  // measure 10
0100
0010
0100
0000
0010
1000
0010
0000
,  // measure 11
1000
1000
0100
0000
1000
1000
0001
0000
,  // measure 12
0010
0010
0100
0000
0010
0010
0001
0000
,  // measure 13
0200
0001
0301
0000
2000
0100
3100
0000
,  // measure 14
0020
1000
1030
0000
2000
0001
3001
0000
,  // measure 15
0002
0100
0103
0000
2000
0010
3010
0000
,  // measure 16
0200
0010
0310
1000
0100
0010
0001
0100
,  // measure 17
2001
0000
3010
1000
0100
1000
0010
0100
,  // measure 18
0001
0000
0100
0001
1000
0100
0010
0001
,  // measure 19
1002
0000
0103
0010
1000
0100
1000
0001
,  // measure 20
0100
0000
0010
0100
0001
1000
0100
0010
,  // measure 21
2001
0000
3010
1000
0001
0100
0010
0100
,  // measure 22
0001
0000
0010
0001
1000
0100
0010
0001
,  // measure 23
1002
0000
0103
0010
0100
1000
0100
0001
,  // measure 24
1000
0100
0010
0000
1001
0000
0110
0000
,  // measure 25
0000
0000
0101
0100
1000
0100
0001
0100
,  // measure 26
1000
0100
0001
0010
0100
1000
0001
0100
,  // measure 27
0010
1000
0100
0001
0100
1000
0100
0001
,  // measure 28
0100
1000
0100
0010
0001
1000
0010
0100
,  // measure 29
0001
0000
0010
1000
0010
0001
0010
0100
,  // measure 30
0010
0001
1000
0100
1000
0010
0100
0001
,  // measure 31
1000
0100
0010
1000
0010
0001
0010
0100
,  // measure 32
0010
0001
0100
0010
1000
0100
0010
0001
,  // measure 33
0110
0000
0000
0000
;

//---------------dance-single - ----------------
#NOTES:
     dance-single:
     :
     Easy:
     2:
     0.116,0.127,0.071,0.177,0.000:
0000
0000
0000
0000
,
0000
0000
0000
0000
,
0000
0000
0000
0000
,
0000
0000
0000
0000
,
2000
0000
3020
0000
,
0230
0000
0320
0000
,
2030
0000
3002
0000
,
0023
0000
0230
0000
,
1300
1000
0001
0001
,
0100
0100
0010
0000
,
1000
1000
0001
0001
,
1000
1000
0100
0000
,
0010
0010
0001
0001
,
0100
0100
0010
0000
,
1000
1000
0010
0010
,
0100
0000
0110
0000
,
2002
0000
0000
0000
,
0000
3003
0000
0100
,
0220
0000
0000
0000
,
0000
0330
0001
0001
,
2002
0000
0000
0000
,
0000
0000
3003
0100
,
0220
0000
0000
0000
,
0000
0330
0000
1001
,
0000
0120
0000
0100
,
0000
0100
0000
0130
,
1000
0020
0000
0100
,
0000
0100
0000
0130
,
0001
0020
0000
0001
,
0000
0001
0000
0031
,
0010
0200
0000
1000
,
0000
1000
0000
1300
,
1100
0000
0000
0000
;
