#TITLE:Gotta Be You (Steve Smart & Westfunk Remix);
#SUBTITLE:;
#ARTIST:One Direction;
#TITLETRANSLIT:;
#SUBTITLETRANSLIT:;
#ARTISTTRANSLIT:;
#CREDIT:;
#BANNER:Gotta Be You (Steve Smart & Westfunk Remix)-bn.png;
#BACKGROUND:Gotta Be You (Steve Smart & Westfunk Remix)-bg.png;
#LYRICSPATH:;
#CDTITLE:;
#MUSIC:Gotta Be You (Steve Smart & Westfunk Remix).mp3;
#OFFSET:-0.060;
#SAMPLESTART:51.620;
#SAMPLELENGTH:17.600;
#SELECTABLE:YES;
#BPMS:0.000=128.000;
#STOPS:;
#BGCHANGES:;

//---------------dance-single - ----------------
#NOTES:
     dance-single:
     :
     Beginner:
     1:
     0.121,0.151,0.024,0.000,0.000: // measure 1
0000
0000
0000
0000
,  // measure 2
0000
0000
0000
0000
,  // measure 3
0000
0000
0000
0000
,  // measure 4
0100
0100
0100
0100
,  // measure 5
0100
0000
0001
0000
,  // measure 6
1000
0000
0010
0000
,  // measure 7
1000
0000
0100
0000
,  // measure 8
0010
0000
0001
0000
,  // measure 9
0100
0000
0001
0000
,  // measure 10
1000
0000
0010
0000
,  // measure 11
1000
0000
0100
0000
,  // measure 12
0010
0000
0000
0000
,  // measure 13
0001
0000
0001
0000
,  // measure 14
1000
0000
1000
0000
,  // measure 15
0010
0000
0010
0000
,  // measure 16
1000
0000
1000
0000
,  // measure 17
0100
0000
0100
0000
,  // measure 18
0010
0000
0010
0000
,  // measure 19
0001
0000
0001
0000
,  // measure 20
1000
0000
0000
0000
,  // measure 21
0010
0010
0000
0000
,  // measure 22
0010
0000
0100
0000
,  // measure 23
0001
0001
0000
0000
,  // measure 24
0001
0000
0010
0000
,  // measure 25
0100
0100
0000
0000
,  // measure 26
0010
0000
0100
0000
,  // measure 27
1000
1000
0000
0000
,  // measure 28
1001
0000
0000
0000
,  // measure 29
0110
0000
0000
0000
,  // measure 30
0100
0100
0000
0000
,  // measure 31
0001
0000
0000
0000
,  // measure 32
1000
1000
0000
0000
,  // measure 33
0100
0000
0000
0000
,  // measure 34
0010
0010
0000
0000
,  // measure 35
0001
0000
0000
0000
,  // measure 36
1000
1000
0000
0000
,  // measure 37
0010
0000
0000
0000
,  // measure 38
1000
1000
0000
0000
,  // measure 39
0100
0000
0000
0000
,  // measure 40
0010
0010
0000
0000
,  // measure 41
0001
0000
0000
0000
,  // measure 42
0100
0100
0000
0000
,  // measure 43
0001
0000
0000
0000
,  // measure 44
1000
1000
0000
0000
,  // measure 45
0010
0000
0000
0000
,  // measure 46
1000
0000
0000
0000
,  // measure 47
0100
0000
0000
0000
,  // measure 48
0010
0000
0000
0000
,  // measure 49
0001
0001
0000
0001
,  // measure 50
0000
1000
0000
1000
,  // measure 51
0000
0010
0000
0010
,  // measure 52
0000
0100
0000
0100
,  // measure 53
0100
0000
0000
0000
,  // measure 54
0001
0000
0000
0000
,  // measure 55
1000
0000
0000
0000
,  // measure 56
0100
0000
0000
0000
,  // measure 57
1000
0000
1000
0000
,  // measure 58
1000
0000
1000
0000
,  // measure 59
0001
0000
0000
0000
,  // measure 60
0010
0000
0000
0000
,  // measure 61
1001
0000
0000
0010
,  // measure 62
0010
0000
0000
0010
,  // measure 63
0010
0000
0000
0010
,  // measure 64
0010
0000
0000
0000
;

//---------------dance-single - ----------------
#NOTES:
     dance-single:
     :
     Medium:
     8:
     0.399,0.416,0.312,0.224,0.000:
0000
0000
0000
0000
,
0000
0000
0000
0000
,
0000
0000
0000
0000
,
0001
1000
0001
1000
0001
1000
0001
1000
,
0100
0010
0001
0100
,
0010
1000
0001
1100
,
0010
1000
0001
0010
,
0001
0100
0010
0101
,
0010
1000
0100
0000
0010
0001
0100
0000
,
0010
1000
0001
1001
,
0100
0010
1000
0001
,
0010
0100
1000
0110
,
1000
0010
0100
0000
0100
0100
0001
0000
,
0010
0001
0100
0000
0001
0001
0100
0000
,
0020
1000
0130
0001
,
0002
0010
0103
0010
,
0100
0010
1000
0000
0100
0100
1000
0000
,
0100
1000
0001
0000
0100
0100
0001
0000
,
2000
3100
0010
0001
,
0200
0010
0310
0000
,
1001
1001
0100
0100
,
1001
1001
0010
0010
,
1001
1001
0100
0100
,
1001
1001
0010
0010
,
0001
0100
0010
0000
1000
0000
0001
0000
,
1000
0100
0010
0000
0001
0000
0100
0000
,
0010
1000
0000
0100
,
0010
0001
0010
0001
1000
0100
1000
0100
,
0020
0100
0100
0130
,
0110
1001
0110
1001
,
0200
0010
0010
0310
,
0110
1001
0110
1001
,
2000
0001
0001
3001
,
1001
0110
1001
0110
,
0002
1000
1000
1003
,
0110
1001
0110
1001
,
0200
0000
0310
0000
0100
0010
0100
0000
,
0002
0000
0103
0000
0001
0100
0001
0000
,
2000
0000
3100
0000
1000
0100
1000
0000
,
0020
0000
0130
0000
0010
0100
0010
0000
,
2000
0000
3100
0000
1000
0001
1000
0000
,
0020
0000
0130
0000
0001
0100
0001
0000
,
0020
0000
0031
0000
1000
0100
1000
0000
,
0002
0000
0103
0000
0010
0100
0010
0000
,
1000
0100
0000
0011
,
0000
0100
0000
1010
,
0100
1000
0001
0110
,
1000
0001
0010
1100
,
0010
1000
0001
0000
0100
0001
0010
0000
,
0100
0000
1000
0000
0001
0100
0101
0000
,
0010
0100
0001
1000
,
0100
1000
0010
0000
0100
0010
0110
0000
,
0001
0100
0010
0000
1000
1000
0100
0000
,
0010
0100
1000
0000
0010
0010
0100
0000
,
0002
0100
0103
0000
,
2000
0100
3010
0000
,
1000
0100
0010
0000
0001
1000
0001
0000
,
0100
0010
1000
0000
0010
0010
0100
0000
,
0020
0100
0130
1000
,
0002
1000
1003
0000
,
0220
0000
0330
0000
1000
0100
0010
0000
,
0022
0000
0033
0000
0010
0001
0100
0000
,
0202
0000
0303
0000
0010
1000
0100
0000
,
2200
0000
3300
0000
0010
1000
0001
0000
,
0110
0001
0100
1000
,
0010
0000
0000
0000
;

//---------------dance-single - ----------------
#NOTES:
     dance-single:
     :
     Hard:
     12:
     0.556,0.518,0.088,0.096,0.316:
0000
0000
0000
0000
,
0000
0000
0000
0000
,
0000
0000
0000
0000
,
0010
0100
0010
0100
0010
0100
0010
0000
,
0100
0000
0001
0000
1000
0000
0000
0000
0100
1000
0000
1000
0000
0000
0010
0000
,
0100
0000
0001
0000
1000
0000
0000
0000
0001
0010
0000
0010
0000
0000
0001
0000
,
0100
0000
0010
0000
1000
0000
0000
0000
0100
0010
0000
0010
0000
0000
0100
0000
,
1000
0000
0010
0000
0100
0000
0000
0000
0001
0010
0000
0010
0000
0000
0001
0000
,
1000
0000
0100
0000
0000
0010
0000
0000
0001
1000
0000
0100
0000
0000
1000
0000
,
0000
0000
0010
0000
0000
0100
0000
0000
0001
0010
0000
0100
0000
0000
0010
0000
,
0000
0000
0001
0000
0000
0100
0000
0000
0010
1000
0000
0100
0000
0000
1000
0000
,
0000
0000
0001
0000
0000
0010
0000
0000
1000
0010
0000
0001
0000
0000
0100
0010
,
0100
0001
0100
0010
1000
0100
1000
0001
,
0000
0000
1000
0100
1000
0000
0010
0000
0100
0000
0001
0000
0010
0000
0010
0000
,
0002
0000
0000
0000
0103
0000
0010
0000
1000
0100
0000
1000
0000
0000
0001
0000
,
0000
0000
0100
0000
0010
0000
0100
0000
0001
1000
0000
0100
0000
0000
1000
0000
,
0010
0100
0010
0000
1000
0000
0100
0000
1000
0000
0001
0000
0010
0000
0100
0000
,
0000
0000
0010
0001
0010
0000
0100
0000
1000
0001
1000
0000
0010
0000
0100
0000
,
0001
1000
0100
0000
1000
0100
0010
0001
,
0101
0000
0000
0110
0000
0000
1010
0000
0000
0000
0100
0000
0001
0000
2000
0000
,
0010
0000
3000
0000
0100
0001
0000
0000
0001
0100
0010
0000
1000
0000
0200
0000
,
0000
0000
0310
0000
0001
0100
0000
0000
0010
1000
0100
0000
1000
0000
0002
0000
,
0000
0003
0010
0000
0001
0100
0000
0000
0010
1000
0001
0000
0100
0000
2000
0000
,
0000
0000
3100
0000
0010
1000
0000
0000
0100
0010
0001
0000
1000
0000
0010
0000
,
0100
0000
0001
0100
1000
0000
0010
1000
,
0100
0010
0001
1000
0001
0000
1000
0100
,
0020
0001
0000
0100
,
1030
0010
0001
0100
1000
0100
0010
1000
,
1100
1000
0001
0100
0010
0100
0001
0010
,
1000
0010
0001
1000
0010
0100
0001
0000
,
0101
0100
0010
0100
0001
0010
0100
1000
,
0010
1000
0001
0010
0100
1000
0010
0000
,
0110
0100
0001
0100
0010
1000
0100
0010
,
0001
1000
0010
1000
0001
0100
0010
0000
,
1100
1000
0010
0100
0001
0010
0100
0010
,
0001
1000
0010
0100
0001
1000
0010
0000
,
0100
0000
0001
0100
0001
0000
1000
0000
0100
0000
1000
0010
1000
0000
0001
0000
,
0100
0000
0010
0100
0010
0000
0100
0000
0001
0000
1000
0000
1001
0000
0000
0000
,
0100
0000
1000
0100
1000
0000
0010
0000
0100
0000
0001
1000
0001
0000
0100
0000
,
0010
0000
1000
0100
1000
0000
0001
0000
0010
0000
0100
0000
0110
0000
0000
0000
,
0001
0000
1000
0000
0100
1000
0100
0000
1000
0000
0010
0000
0100
0010
0100
0000
,
0001
0000
0010
0000
0100
1000
0100
0000
0010
0000
0001
0000
0011
0000
0000
0000
,
0100
0000
1000
0000
0001
1000
0001
0000
0100
0000
0010
0000
1000
0100
1000
0000
,
0010
0000
0100
0000
0001
0010
0001
0000
0100
0000
0010
0000
1100
0000
0000
0000
,
0001
0000
1000
0000
0100
1000
0000
0000
1000
0010
0000
0010
0100
0000
0001
0000
,
0000
0000
0010
0000
0100
1000
0000
0000
0001
0100
0000
0100
0010
0000
1000
0000
,
0000
0000
0001
0000
0010
0100
0000
0000
0100
0010
0000
0001
0100
0000
0010
0000
,
0000
0000
1000
0000
0100
1000
0000
0000
0010
0100
0000
0100
0010
0000
1000
0000
,
0000
0000
0010
0000
0100
0001
0000
0000
0010
0100
0000
0100
1000
0000
0001
0000
,
0000
0000
0010
0000
0001
0100
0000
0000
0010
1000
0000
1000
0100
0000
0010
0000
,
0000
0000
0001
0000
1000
0100
0000
0000
0010
0001
0000
0001
0100
0000
0010
0000
,
0000
0000
1000
0000
0001
0100
0000
0000
0010
1000
0000
1000
0100
0000
0010
0100
,
0010
0001
1000
0100
1000
0010
0100
0001
,
0000
0000
1000
0100
1000
0000
0001
0100
0001
0000
0010
0000
0100
0000
1000
0000
,
0010
0100
0010
1000
0100
1000
0001
0000
,
0010
0001
0100
0010
0100
0001
1000
0000
,
0010
0000
0100
0000
0001
0100
0001
0000
0100
0000
0010
0000
1000
0000
0000
0000
,
0100
0000
1000
0000
0001
0000
1000
0100
1000
0000
0010
0000
0100
0000
0000
0000
,
0001
0010
0100
0010
1000
0010
0001
1000
,
0100
0010
0001
0100
0010
1000
0001
1000
,
0200
0000
0010
0000
0310
0001
0100
0010
,
2000
0000
0010
0000
3001
1000
0100
0010
,
0002
0000
0100
0000
0013
0100
1000
0001
,
0200
0000
0010
0000
0301
0100
0010
2000
,
0002
0000
0000
3003
;

//---------------dance-single - ----------------
#NOTES:
     dance-single:
     :
     Easy:
     5:
     0.278,0.312,0.088,0.112,0.000:
0000
0000
0000
0000
,
0000
0000
0000
0000
,
0000
0000
0000
0000
,
0100
0010
0100
0010
0100
0010
0100
0010
,
0100
0001
1000
0000
,
0100
1000
0001
0000
,
0010
0001
0100
0000
,
0010
1000
0100
0000
,
0020
0001
0031
0000
,
0200
0010
0310
0000
,
2000
0100
3100
0000
,
0002
1000
1003
0000
,
0010
1000
0100
0100
,
1000
0001
0100
0100
,
0010
1000
0001
0000
,
0010
0001
1000
0000
,
0010
1000
0001
0001
,
0010
0001
0100
0100
,
0010
1000
0100
0000
,
1000
0100
0010
0000
,
0002
1000
1003
0100
,
2000
0001
3001
0010
,
0002
0000
1000
0000
1000
0003
0010
0000
,
2000
0001
3001
0010
,
0100
0001
0010
0100
,
1000
0010
0100
0100
,
0010
1000
0000
0001
,
0010
0001
0010
0001
0010
0001
0010
0001
,
0010
0100
1000
0100
,
0010
0001
1001
0000
,
0010
1000
0001
0100
,
0010
0100
0101
0000
,
0010
0001
1000
0100
,
1000
0010
1010
0000
,
0100
0010
1000
0001
,
1000
0100
0110
0000
,
1001
1001
0100
0100
,
1000
1000
0010
0000
,
0110
0110
1000
1000
,
0001
0001
0010
0000
,
0001
0100
0010
1000
,
0100
0010
0001
0000
,
1000
0001
0100
0010
,
1000
0001
1001
0000
,
0100
0100
0000
1000
,
0000
0010
0000
0100
,
0100
0001
0000
0010
,
0000
0100
0000
1000
,
1000
0010
0000
1000
,
0000
0001
0000
0100
,
0100
0010
0000
0100
,
0002
0000
1003
0000
,
0100
0100
1000
0010
,
0100
0001
0010
0100
,
1000
1000
1100
0000
,
0001
0001
0101
0000
,
0010
0000
0100
0000
0001
0001
0001
0000
,
0010
0000
0100
0000
1000
1000
1000
0000
,
0010
1000
0001
0100
,
0010
1000
0100
0000
,
2000
0000
3100
0010
,
0200
0000
0310
0001
,
0020
0000
0031
1000
,
0002
0000
0103
0010
,
2000
0000
3100
0100
,
0010
0000
0000
0000
;
