#TITLE:Everything About You;
#SUBTITLE:;
#ARTIST:One Direction;
#TITLETRANSLIT:;
#SUBTITLETRANSLIT:;
#ARTISTTRANSLIT:;
#CREDIT:;
#BANNER:Everything About You-bn.png;
#BACKGROUND:Everything About You-bg.png;
#LYRICSPATH:;
#CDTITLE:;
#MUSIC:Everything About You.mp3;
#OFFSET:-0.040;
#SAMPLESTART:36.961;
#SAMPLELENGTH:17.600;
#SELECTABLE:YES;
#BPMS:0.000=130.000;
#STOPS:;
#BGCHANGES:0.000=Everything About You.avi=1.000=1=0=0,
99999=-nosongbg-=1.000=0=0=0 // don't automatically add -songbackground-
;

//---------------dance-single - ----------------
#NOTES:
     dance-single:
     :
     Beginner:
     1:
     0.114,0.207,0.000,0.000,0.000:
0000
0000
0000
0000
,
0000
0000
0000
0000
,
0000
0000
0000
0000
,
0000
0000
0000
0000
,
1000
0000
0000
0000
,
0010
0000
0000
0000
,
1000
0000
0000
0000
,
0001
0000
0001
0000
,
0001
0000
0000
0000
,
0010
0000
0000
0000
,
0001
0000
0000
0000
,
0100
0000
0100
0000
,
0100
0000
0000
0000
,
0010
0000
0000
0000
,
1000
0000
0000
0000
,
0001
0000
0000
0000
,
1000
0000
1000
0000
,
0100
0000
0100
0000
,
0010
0000
0010
0000
,
0001
0000
0000
0000
,
0100
0100
0000
0100
,
0000
0000
0000
0000
,
0001
0001
0000
0001
,
0000
0000
0000
0000
,
1000
1000
0000
1000
,
0000
0000
0000
0000
,
0010
0010
0000
0010
,
0000
0000
0000
0000
,
1000
1000
0000
1000
,
0000
0000
0000
0000
,
0100
0100
0000
0100
,
0000
0000
0000
0000
,
0010
0010
0000
0010
,
0000
0000
0000
0000
,
0001
0001
0000
0001
,
0000
0000
0000
0000
,
0100
0100
0100
0100
,
0100
0100
0000
0000
,
0001
0001
0001
0001
,
0001
0001
0000
0000
,
1000
1000
1000
1000
,
1000
1000
0000
0010
,
0010
0000
0000
0000
;

//---------------dance-single - ----------------
#NOTES:
     dance-single:
     :
     Medium:
     6:
     0.348,0.413,0.209,0.209,0.000:
0000
0000
0000
0000
,
0000
0000
0000
0000
,
0000
0000
0000
0000
,
0000
0000
0000
0000
,
0100
0001
0010
0100
,
1100
0010
1000
0001
,
0101
0010
1000
0001
,
1001
0000
0010
0000
0100
1000
0100
0000
,
1100
0010
1000
0001
,
0101
0010
0100
0001
,
1010
0001
0100
0010
,
0110
0000
0001
0000
0010
0100
1000
0000
,
0200
0000
0310
0000
0001
0100
0010
0000
,
1000
0000
0100
0000
0010
0001
0100
0000
,
0010
1000
0010
0000
0100
0010
0100
0001
,
0100
0000
0001
1000
0001
1000
0100
0000
,
0010
0001
0100
0020
,
0130
0001
0010
0200
,
1300
0010
0100
1000
,
0202
0000
0303
0000
,
0010
0010
0000
1000
1000
0000
0100
0100
,
0000
1000
0001
0100
,
0001
0001
0000
0010
0010
0000
0001
0001
,
0000
0100
0010
1000
,
0100
0000
0000
1100
0000
0000
0001
0000
,
0000
0000
0100
0010
0100
0000
0001
0000
,
0100
0000
0000
1010
0000
0000
0001
0000
,
0000
0000
0010
0100
1000
0001
0100
0000
,
0010
0010
0000
0100
0100
0000
0001
0001
,
0000
0010
0001
1000
,
0100
0100
0000
1000
1000
0000
0010
0010
,
0000
0100
0010
1000
,
0100
0000
0000
0110
0000
0000
1000
0000
,
0000
0000
0010
1000
0100
1000
0001
0000
,
0100
0000
0000
0101
0000
0000
0010
0000
,
0000
0000
0001
0010
0100
1000
0001
0000
,
2000
0000
3200
0000
0320
0000
0031
0200
,
0000
0310
0000
0000
0110
0000
1001
0000
,
0020
0000
0032
0000
2003
0000
3100
0020
,
0000
0031
0000
0000
0110
0000
1001
0000
,
0020
0000
2030
0000
3002
0000
0103
0020
,
0000
1030
0000
0000
0100
0010
0001
0010
,
1001
0000
0000
0000
;

//---------------dance-single - ----------------
#NOTES:
     dance-single:
     :
     Hard:
     9:
     0.450,0.442,0.172,0.295,0.006:
0000
0000
0000
0000
,
0000
0000
0000
0000
,
1000
0000
0000
0010
0000
0100
0000
0001
,
0001
0000
0000
1000
0000
0000
0100
0000
0000
0000
1000
0000
0100
0000
0010
0000
,
0001
0000
0100
0000
0010
0100
0010
1000
,
0100
0000
1000
0000
0001
0000
1000
0100
,
0010
0000
0001
0000
0100
0010
0100
0000
,
1000
1000
0100
0000
0001
0001
0100
0100
,
0010
0000
0100
0000
0001
0100
1000
0010
,
0100
0000
0010
0000
1000
0100
0010
0000
,
0001
1000
0100
0000
1000
1000
0001
0000
,
0100
0100
0001
0000
0010
0010
0010
0001
,
1000
0000
1000
0000
0100
1000
0100
0000
,
0010
0000
0010
0000
0001
0100
0001
0000
,
1000
0001
1000
0001
0100
0010
0100
0001
,
1000
0000
0100
1000
0001
1000
0010
0000
,
0110
0000
0100
0000
0001
0000
0100
0010
,
1000
0001
0100
0001
,
0100
0010
1000
0100
1000
0001
0010
0100
,
2020
0000
0000
3030
,
0110
0000
0001
0100
1000
0000
0001
0100
,
1000
0000
0100
0010
0100
0001
1000
0000
,
0110
0000
1000
0100
0001
0000
1000
0100
,
0001
0000
1000
0100
1000
0010
0100
0000
,
0210
0000
0301
0000
0010
1000
0100
0000
,
2000
0000
3100
0000
0010
1000
0001
0000
,
0210
0000
0301
0000
0100
0010
1001
0000
,
0100
0000
0101
0000
0010
1000
0100
0000
,
1001
0000
0001
0100
1000
0000
0001
0100
,
1000
0000
0010
0100
0010
1000
0001
0000
,
1001
0000
1000
0100
0001
0000
1000
0100
,
0001
0000
1000
0010
0100
0010
1000
0000
,
0210
0310
2000
3100
,
0010
1000
0001
0000
0100
0010
0100
0000
,
0002
0000
0103
0000
0010
1000
0200
0000
,
0310
0110
2001
3100
,
0020
0000
0032
0000
0203
0000
0320
1000
,
0000
1030
0000
0100
1000
0100
1000
0000
,
0020
0000
2030
0000
3002
0000
0203
0010
,
0000
0310
0000
0100
0001
0100
0010
0000
,
2000
0000
3002
0000
0023
0000
0230
1000
,
0000
1300
0000
1000
0001
0100
0010
1000
,
0202
0303
0000
0000
;

//---------------dance-single - ----------------
#NOTES:
     dance-single:
     :
     Easy:
     4:
     0.257,0.310,0.160,0.098,0.000:
0000
0000
0000
0000
,
0000
0000
0000
0000
,
0000
0000
0000
0000
,
0000
0000
0000
0000
,
1000
0010
0100
0010
,
1000
0100
0010
0000
,
0001
0001
0100
0100
,
0010
0100
0001
0000
,
0010
0001
1000
0100
,
1000
0010
0100
0000
,
0010
1000
1000
0100
,
1000
0010
0100
0000
,
1001
0000
0100
0100
,
1000
0000
0010
0010
,
1000
0000
0001
0001
,
0010
0000
0100
0100
,
0020
0000
0000
0031
,
0200
0000
0000
0310
,
2000
0000
0000
3100
,
2002
0000
0000
3003
,
0010
1000
0100
0110
,
0000
0001
0010
0001
,
0100
0010
1000
1100
,
0000
0100
1000
0010
,
0100
0001
0010
0011
,
0000
0001
0100
0010
,
1000
0100
1000
1100
,
0000
0010
1000
0001
,
0100
0010
1000
1010
,
0000
0100
0001
0010
,
0100
1000
0001
0011
,
0000
0001
0100
0010
,
1000
0010
0100
0110
,
0000
0001
0100
0010
,
1000
0100
0010
0011
,
0000
0001
0100
0010
,
2000
0100
0100
0100
,
3100
0000
0010
0010
,
0200
0001
0001
0001
,
0301
0000
0001
0010
,
0002
1000
1000
1000
,
1003
0000
0110
0110
,
1001
0000
0000
0000
;

//---------------dance-single - ----------------
#NOTES:
     dance-single:
     :
     Challenge:
     11:
     0.526,0.517,0.504,0.037,0.105: // measure 1
0000
0000
0000
0000
,  // measure 2
0000
0000
0000
0000
,  // measure 3
1010
0000
0000
0100
0000
0001
0000
1000
,  // measure 4
1000
0000
0000
0010
0000
0000
0100
0000
0000
0000
0100
0000
0010
0000
1000
0000
,  // measure 5
1010
0000
0000
0100
0000
0000
0001
0000
0000
0000
1000
0000
0000
0000
0100
0000
,  // measure 6
1000
0000
0000
0010
0000
0000
0100
0000
0000
0000
0001
0000
0000
0000
0010
0000
,  // measure 7
0001
0000
0000
1000
0000
0000
0100
0000
0000
0000
0010
0000
0000
0000
0000
0000
,  // measure 8
0001
0000
0000
0100
0000
0000
0010
0000
1000
0000
1100
0000
0001
0000
0101
0000
,  // measure 9
1000
0000
0000
0001
0000
0000
0100
0000
0000
0000
0010
0000
0000
0000
0100
0000
,  // measure 10
0001
0000
0000
1000
0000
0000
0100
0000
0000
0000
1000
0000
0000
0000
0010
0000
,  // measure 11
0100
0000
0000
0010
0000
0000
1000
0000
0000
0000
0100
0000
0000
0000
0000
0000
,  // measure 12
1000
0000
0000
0001
0000
0000
0100
0000
0010
0000
0110
0000
0001
0000
1001
0000
,  // measure 13
0100
0000
1000
0010
0100
0001
1000
0100
,  // measure 14
1000
0000
0010
1000
0001
1000
0010
0100
,  // measure 15
0001
0100
0110
0000
1000
0100
0001
0100
,  // measure 16
1100
0000
0010
1000
0001
0100
0101
0000
,  // measure 17
0010
0000
0000
0000
1000
0000
0100
0000
1000
0000
0001
0100
0000
0100
0001
0000
,  // measure 18
1000
0000
0000
0000
0100
0000
1000
0000
0010
0000
0100
0001
0000
0001
0100
0000
,  // measure 19
0010
0000
0100
0001
0100
0010
1000
0100
,  // measure 20
1100
0001
0001
1000
1000
0010
0100
0000
,  // measure 21
0110
0001
0000
0110
1000
0000
0110
0001
,  // measure 22
0000
1000
0100
0001
0100
1000
0010
0100
,  // measure 23
0101
1000
0000
1100
0001
0000
0110
0001
,  // measure 24
0000
0010
0001
1000
0100
1000
0010
0100
,  // measure 25
0110
0000
0001
0101
0000
1000
1100
0000
,  // measure 26
0010
1000
0001
1000
0100
0010
0001
0000
,  // measure 27
0110
0000
1000
1100
0000
0010
0110
0000
,  // measure 28
0001
0100
0010
0100
0001
1000
0010
0000
,  // measure 29
1100
0001
0000
0110
0001
0000
0101
1000
,  // measure 30
0020
0000
0000
0030
0200
0000
0000
0000
0310
0000
0100
0000
0010
0000
0000
0000
,  // measure 31
1100
0001
0000
0110
0001
0000
1010
0100
,  // measure 32
0020
0000
1030
0100
1000
0001
0010
0001
,  // measure 33
0101
0000
0010
0110
0000
1000
1100
0000
,  // measure 34
0010
1000
0100
1000
0001
0010
0100
0000
,  // measure 35
1100
0000
0010
0110
0000
0001
0101
0000
,  // measure 36
0010
0000
0100
0000
0001
0000
1000
0000
0010
1000
0010
0000
0100
0010
0100
0000
,  // measure 37
0110
0100
0001
1000
0010
0100
0001
1000
,  // measure 38
0100
1000
0001
0000
1100
0000
0101
0000
,  // measure 39
1010
0100
0001
0100
0010
1000
0001
0010
,  // measure 40
0100
1000
0010
0000
0110
0000
0101
0000
,  // measure 41
1010
1000
0001
0100
0010
0100
0001
0010
,  // measure 42
0100
0000
1000
0000
0010
0000
0100
0000
0001
0000
1000
0000
0010
0100
0010
0100
,  // measure 43
1000
0000
0000
0000
;
