#TITLE:Another World;
#SUBTITLE:;
#ARTIST:One Direction;
#TITLETRANSLIT:;
#SUBTITLETRANSLIT:;
#ARTISTTRANSLIT:;
#CREDIT:;
#BANNER:Another World-bn.png;
#BACKGROUND:Another World-bg.png;
#LYRICSPATH:;
#CDTITLE:;
#MUSIC:Another World.mp3;
#OFFSET:-0.060;
#SAMPLESTART:30.061;
#SAMPLELENGTH:17.580;
#SELECTABLE:YES;
#DISPLAYBPM:128.000;
#BPMS:0.000=128.000,60.000=384.000,72.000=128.000,103.000=130.320,104.000=128.000;
#STOPS:;
#BGCHANGES:;

//---------------dance-single - ----------------
#NOTES:
     dance-single:
     :
     Beginner:
     1:
     0.104,0.118,0.020,0.000,0.000:
0000
0000
0000
0000
,
0000
0000
0000
0000
,
0010
0000
0010
0000
,
0100
0000
0000
0000
,
1001
0000
0000
0000
,
0000
0000
0100
0100
,
0100
0000
0000
0000
,
1000
0000
0000
0000
,
0001
0000
0000
0000
,
0010
0000
0001
0001
,
0001
0000
0000
0000
,
1000
0000
0100
0100
,
0100
0000
0000
0000
,
1000
0000
0000
0000
,
0010
0000
0000
0000
,
1001
0000
0000
0000
,
0000
0000
0000
0000
,
0000
0000
0000
0000
,
0000
0000
0100
0000
,
0100
0000
0000
0000
,
1000
0000
1000
0000
,
1000
0000
0000
0000
,
0001
0000
0001
0000
,
0001
0000
0000
0000
,
0010
0000
0010
0000
,
0010
0000
0000
0000
,
0001
0000
0001
0000
,
0001
0000
0000
0000
,
1000
0000
1000
0000
,
1000
0000
0000
0000
,
0100
0000
0100
0000
,
0100
0000
0000
0000
,
0010
0000
0010
0000
,
0010
0000
0000
0000
,
0001
0000
1000
0000
,
0100
0000
0100
0000
,
1000
0000
0010
0000
,
0100
0000
0100
0000
,
0001
0001
0000
1000
,
0000
0010
0000
1000
,
0000
1000
0000
0100
,
0000
0010
0000
0001
,
0000
0100
0000
0010
,
0000
1000
0000
0100
,
0100
0000
0100
0000
,
1000
0000
0001
0000
,
1000
0000
0000
0000
;

//---------------dance-single - ----------------
#NOTES:
     dance-single:
     :
     Medium:
     7:
     0.329,0.383,0.195,0.082,0.000:
0000
0000
0000
0000
,
0000
0000
0000
0000
,
0100
0000
0000
0010
0000
1000
0100
0000
,
0010
0000
0000
0000
,
0011
0000
0000
0000
,
0000
0000
1100
1001
,
0100
0000
0010
0100
0000
0000
0010
0000
,
1000
0000
0000
0100
1000
0100
0100
0000
,
1000
0000
0000
0001
,
1000
0000
0000
0010
0100
0100
0010
0000
,
1000
0000
0001
0010
,
0001
0000
0000
0100
0001
0001
0100
0000
,
0020
0100
1000
0130
,
2000
0100
0010
3001
,
0002
0010
0100
1003
,
2002
0000
0000
0000
,
0000
0000
0000
0000
,
0000
0000
0000
3003
,
0100
0000
1000
0000
0010
0100
0001
0000
,
0010
0000
0001
0000
0100
0010
1000
0000
,
0001
0000
0010
0000
0100
0000
1000
0001
,
0000
0100
0100
0010
0010
1000
1000
0000
,
0001
0000
0010
0000
0100
1000
0001
0000
,
0010
0000
0001
0000
0100
0010
1000
0000
,
0001
0000
0010
0000
0100
0000
0010
0001
,
0000
0100
0100
0001
0001
1000
1000
0000
,
0110
0011
1100
1001
,
0010
0000
0100
0000
0001
0100
0010
0000
,
0110
1010
1100
0101
,
0010
0000
0001
0000
1000
0100
0010
0000
,
0011
0000
0100
1000
0100
1000
0100
0000
,
0010
0000
0001
0100
0001
0100
0001
0000
,
1000
0000
0010
0100
0010
0100
0010
0000
,
2000
0000
3100
0000
0001
0010
0010
0000
,
0100
1000
0001
0110
,
0001
0100
1000
1010
,
0100
1000
0001
0011
,
0100
0010
0100
0001
1000
0001
0010
0000
,
0100
1000
0010
0110
,
1000
0001
0010
0011
,
0100
0010
1000
0110
,
1000
0001
0100
0010
1000
0100
0010
0000
,
0002
0010
0010
0010
,
0010
0000
0010
0000
0013
0100
1000
0000
,
0200
0010
0010
0010
,
0310
0100
1000
0001
0100
0010
1000
0000
,
0010
0000
0100
0000
,
0001
0000
0000
0000
,
1000
0000
0100
0000
1000
0100
0000
0010
,
0001
0000
0000
0000
0000
0100
0010
0100
;

//---------------dance-single - ----------------
#NOTES:
     dance-single:
     :
     Easy:
     4:
     0.225,0.256,0.164,0.092,0.000:
0000
0000
0000
0000
,
0000
0000
0000
0000
,
0010
0100
0001
0100
,
1010
0000
0000
0000
,
0110
0000
0000
0000
,
0000
0000
1001
1001
,
0100
1000
0100
0010
,
0001
0000
0110
0110
,
0001
0010
0001
1000
,
0010
1000
0100
0100
,
1000
0010
0100
0010
,
1000
0000
1001
1001
,
0200
0300
0010
0001
,
0200
0300
0001
1000
,
0200
0300
1000
0000
,
0220
0000
0000
0000
,
0000
0000
0000
0000
,
0000
0000
0000
0330
,
1000
0100
0010
0001
,
0000
0001
0010
0100
,
0000
1000
0010
0100
,
0010
0010
1000
0001
,
0000
1000
0001
0100
,
0000
0001
1000
0100
,
0000
0010
0001
0100
,
0010
0010
0100
0001
,
2000
0000
3100
0000
,
0010
0001
0100
0000
,
0020
0000
0130
0000
,
0001
1000
0100
0000
,
0010
0001
0100
1000
,
0000
0010
1000
0100
,
0000
1000
0100
0010
,
0001
0001
1000
1000
,
0000
1010
0000
0001
,
0100
1000
0010
1000
,
0000
0101
0000
1000
,
0100
0010
0001
0100
,
0000
0110
0000
0001
,
0000
1000
0100
1000
,
0000
0010
0000
1000
,
0010
0100
0001
0000
,
0220
0000
0000
0000
,
0000
0330
1000
0001
,
0100
0100
0010
0000
,
0100
0010
1000
1000
,
0100
0000
0000
0000
,
0010
0000
0000
0000
,
0001
0000
1000
0000
,
0110
0000
0110
0000
,
1001
0000
0000
0000
;

//---------------dance-single - ----------------
#NOTES:
     dance-single:
     :
     Challenge:
     12:
     0.551,0.563,0.410,0.143,0.072:
0000
0000
0000
0000
,
0000
0000
0000
0000
,
1000
0100
0001
0011
0000
0100
0010
0001
,
0101
0100
0010
1000
0100
0010
1001
0100
,
0011
0000
0100
1000
0001
0000
0100
0001
,
1000
0000
0001
0010
1001
0000
0110
0000
,
1010
1000
0100
0010
0001
0001
0100
0010
,
0100
0100
0001
0010
1010
1010
0011
0000
,
0120
0000
0031
0100
0020
0000
1000
0000
,
0130
0000
0100
0000
0010
0000
1100
0000
1001
0000
0100
0010
0100
0010
0100
0000
,
0101
0000
0010
0100
0001
0100
0010
1000
,
0100
0001
0100
1100
1010
1010
0101
0000
,
0210
0302
1003
2100
,
3020
0000
1030
0100
0001
0000
1100
0000
,
0020
0000
0230
0000
0301
0000
0011
0100
,
0200
0000
0000
0000
,
0000
0000
0000
0000
,
0000
0000
0000
0000
,
0310
0001
0100
1000
0100
0001
1001
0000
,
0100
1000
0001
0010
1000
0010
1001
0000
,
0100
1000
0010
0100
0001
0100
1010
0000
,
0100
1000
0010
1000
0001
0010
0110
0000
,
0001
0010
0100
1000
0010
1000
0101
0000
,
0010
0100
0001
0010
0100
1000
0110
0000
,
1000
0100
1000
0010
0100
0001
1010
0000
,
0001
0010
0100
1000
0010
0100
0101
0000
,
0100
0001
0010
0100
1000
0010
1000
0001
,
0010
1000
0010
0001
1000
0100
0010
0001
,
0100
1000
0100
0010
1000
0100
1000
0010
,
0100
0000
0001
0000
0010
0000
0100
0000
1000
0001
1000
0001
0100
0010
0100
0010
,
1000
0100
0001
0100
1000
0010
0100
1001
,
0100
0000
1000
0010
0100
0001
0010
1100
,
0001
0000
0010
0001
0100
0010
1000
1010
,
0001
0100
0010
0100
0001
0001
0200
0000
,
0310
0100
0001
1000
0100
0010
0001
2010
,
0000
3100
0100
0010
0001
0100
0110
0000
,
0001
0100
0010
1000
0001
0010
0100
0012
,
0000
0000
0103
0000
0100
0000
0010
0000
1000
0100
1000
0100
0010
0100
0010
0100
,
1000
0010
0100
0001
0010
0100
0010
0001
,
1000
0100
0010
0001
0100
1000
0010
0100
,
0001
0010
1000
0010
0001
0100
1000
0001
,
0010
0000
1000
0000
0100
0000
0010
0000
0001
0100
0001
0100
0010
1000
0010
1000
,
0200
0000
0010
0000
0310
0001
0100
0010
,
0100
0001
1000
0100
0010
0001
1100
0000
,
0020
0000
0100
0000
0130
0001
1000
0100
,
0010
0001
0100
0010
0110
1001
1001
0000
,
0010
0000
0100
0001
0000
0100
0000
1000
,
0010
0000
1000
0100
0000
0001
0000
0010
,
0100
0000
1000
0000
0100
0010
0000
0001
,
0100
0000
0010
1000
0000
0001
0100
0001
,
1000
0000
0000
0000
;

//---------------dance-single - ----------------
#NOTES:
     dance-single:
     :
     Hard:
     9:
     0.408,0.408,0.399,0.133,0.000: // measure 1
0000
0000
0000
0000
,  // measure 2
0000
0000
0000
0000
,  // measure 3
1000
0000
0100
0010
0000
0010
0001
0000
,  // measure 4
0100
0000
0010
1000
0100
0010
0001
0000
,  // measure 5
0110
0000
0000
0000
,  // measure 6
0000
0000
0000
0010
0110
0000
1001
0000
,  // measure 7
0100
0000
1000
0001
0000
0001
1000
0000
,  // measure 8
0100
0000
1000
0010
0100
0100
0010
0000
,  // measure 9
0100
0000
0001
0010
0000
0010
0001
0000
,  // measure 10
0100
0000
0010
1000
0100
0100
1000
1000
,  // measure 11
0010
0000
0100
0001
0000
0001
0100
0000
,  // measure 12
0010
0000
0100
0001
0010
0010
0100
0000
,  // measure 13
0020
0000
0031
0000
0100
0010
1000
0000
,  // measure 14
0200
0000
1300
0000
0001
0010
0100
0000
,  // measure 15
2000
0000
3001
0000
0100
0001
0010
0000
,  // measure 16
2200
0000
0000
0000
,  // measure 17
0000
0000
0000
0000
,  // measure 18
0000
0000
0000
3300
,  // measure 19
0010
0000
0001
0101
0000
1001
0000
1100
,  // measure 20
0000
0000
0100
1100
0000
0110
0000
0011
,  // measure 21
0000
0000
0100
0110
0000
1001
0000
1100
,  // measure 22
0000
0010
1000
0100
0010
0001
0100
0000
,  // measure 23
0010
0000
0100
0101
0000
1100
0000
1001
,  // measure 24
0000
0000
0010
1010
0000
0110
0000
0101
,  // measure 25
0000
0000
0010
0011
0000
0110
0000
1001
,  // measure 26
0000
0100
1000
0010
0100
0100
0100
0000
,  // measure 27
2010
0000
0100
0000
0010
0000
3001
1000
,  // measure 28
0100
0000
0010
0000
0001
0100
0010
0000
,  // measure 29
0102
0000
0010
0000
1000
0000
0103
0010
,  // measure 30
1000
0000
0100
0000
0010
0100
1000
0001
,  // measure 31
0100
0000
1000
1010
0000
0101
0000
0110
,  // measure 32
0000
0000
0001
0011
0000
1100
0000
1001
,  // measure 33
0000
0000
1000
1100
0000
0110
0000
1001
,  // measure 34
0000
0010
1000
0001
0100
0010
1000
0000
,  // measure 35
0100
1000
0100
0010
0001
0100
0010
0000
,  // measure 36
0100
0001
0100
0010
1000
0001
1000
0000
,  // measure 37
0100
1000
0010
0100
0010
1000
0001
0000
,  // measure 38
0010
0001
0100
0010
0100
0001
1000
0000
,  // measure 39
0100
0100
0100
0000
1000
0010
0100
0001
,  // measure 40
0010
0010
0010
0000
0001
1000
0100
0010
,  // measure 41
0001
0001
0001
0000
0100
0010
0100
0001
,  // measure 42
1000
1000
0100
0010
0001
0001
0100
0000
,  // measure 43
0210
0010
0010
0010
,  // measure 44
0310
0100
0001
0100
0010
1000
0100
1000
,  // measure 45
0002
0100
0010
1003
,  // measure 46
1100
0000
0011
0000
0100
0010
0110
0000
,  // measure 47
2002
0000
0000
3003
,  // measure 48
0220
0000
0000
0330
,  // measure 49
0001
0000
0000
0000
,  // measure 50
1000
0000
0000
0000
0000
0010
1000
0001
;
