#TITLE:Uptown Funk!;
#SUBTITLE:;
#ARTIST:Mark Ronson feat. Bruno Mars;
#TITLETRANSLIT:;
#SUBTITLETRANSLIT:;
#ARTISTTRANSLIT:;
#GENRE:Hot Damn!;
#CREDIT:;
#BANNER:Uptown Funk!.png;
#BACKGROUND:Uptown Funk!-bg.png;
#LYRICSPATH:;
#CDTITLE:;
#MUSIC:Uptown Funk!.ogg;
#OFFSET:-0.010000;
#SAMPLESTART:56.334015;
#SAMPLELENGTH:13.714000;
#SELECTABLE:YES;
#BPMS:0.000000=115.000000
;
#STOPS:
;
#BGCHANGES:4.000=Uptown Funk!.avi=1.000=0=0=1=====,
99999=-nosongbg-=1.000=0=0=0 // don't automatically add -songbackground-
;
#KEYSOUNDS:;
#ATTACKS:;

//---------------dance-single - ----------------
#NOTES:
     dance-single:
     :
     Hard:
     7:
     0.445342,0.493201,0.193784,0.126381,0.176933,332.000000,23.000000,15.000000,0.000000,0.000000,0.000000,0.445342,0.493201,0.193784,0.126381,0.176933,332.000000,23.000000,15.000000,0.000000,0.000000,0.000000:
0000
0000
0000
0000
,
0000
0000
0000
0000
,
0000
0000
0000
0000
,
0000
0000
0000
1001
,
0010
0000
0000
0010
0000
0000
1000
0000
0100
0000
0000
0100
0000
0000
0010
0000
,
0001
0000
0000
0001
0000
0000
0100
0000
0010
0000
0000
0010
0000
0000
0000
0000
,
0100
0000
0000
0100
0000
0000
0001
0000
0010
0000
0000
0010
0000
0000
0100
0000
,
1000
0000
0000
1000
0000
0000
0010
0000
0100
0000
0001
0000
1000
0000
0000
0000
,
0100
0000
0000
0100
0000
0000
0000
0000
0010
0000
0000
0010
0000
0000
0000
0000
,
0001
0000
0010
0000
0100
0000
1000
0000
0001
1000
0000
0000
0000
0000
0001
0000
,
0010
0000
0000
0010
0000
0000
0100
0000
1000
0000
0000
1000
0000
0000
0010
0000
,
0100
0000
0010
0000
1000
0000
0100
0000
0010
0001
0000
0000
0000
0000
0100
0000
,
0200
0000
0310
1000
0001
0000
0102
0000
,
1003
0000
0000
0100
0000
0000
1000
0000
0001
0000
0000
0100
0000
0000
0010
0000
,
0020
0000
0130
0001
1000
0000
2010
0000
,
3001
0000
0000
0010
0000
0000
0001
0000
1000
0000
0000
0010
0000
0000
1000
0000
,
2000
0000
3010
0100
0001
0000
1002
0000
,
0013
0100
0000
0010
0000
0000
0001
0000
0100
0010
0000
0100
0000
0000
0001
0000
,
0002
0000
0103
0010
1000
0000
2001
0000
,
3100
0000
0010
0000
0100
0000
1000
0000
0010
0000
0100
0001
0100
0000
0000
0000
,
0010
0010
0010
1200
,
0310
0010
0010
0201
,
0310
0010
0010
1200
,
0310
0010
0010
0201
,
0310
1000
0001
0100
0010
1000
0100
0010
,
0001
1000
0001
0100
0010
1000
0100
0010
,
0001
0100
1000
0001
0010
1000
0100
0010
,
1001
0000
0000
0000
0000
0000
0000
0000
0000
0000
0000
0000
0010
0100
0000
0000
,
0001
0100
0001
1000
0100
1000
0001
0100
,
0001
1000
0010
0000
1000
0000
0001
1000
,
0110
0000
1000
0000
0100
0010
0001
0000
,
1000
0000
0000
0001
0000
0000
0100
0000
0010
0000
0000
0000
0110
0000
0000
0000
,
1000
0010
1000
0001
0010
0001
1000
0010
,
1000
0001
0100
0000
0001
0000
1000
0001
,
0110
0000
0001
0000
0010
0100
1000
0000
,
0001
0000
0000
1000
0000
0000
0010
0000
0100
0000
0000
0000
0110
0000
0000
0000
,
0001
0000
0000
0000
0101
0000
0000
0000
0000
0000
1000
0100
1000
0100
1000
0100
,
1000
0000
0000
0000
1001
0000
0000
0000
0000
0000
0010
0100
0010
0100
0010
0100
,
0010
0000
0000
0000
1100
0000
0000
0000
0000
0000
0001
0100
0001
0100
0001
0100
,
0002
2003
3020
0130
,
0001
0100
0101
0000
1000
0100
1100
0000
,
0010
1000
0100
1000
0001
0100
0010
0000
,
1000
0010
1010
0000
0001
0010
0011
0000
,
0100
0001
0010
0001
1000
0010
0100
0000
,
0001
0100
1000
0000
0010
1000
0100
0000
,
1000
0100
0010
0001
1000
0001
0100
0000
,
1000
0010
0001
0000
0100
0001
0010
0000
,
1001
0000
0100
0000
0001
0000
0010
0000
0010
0000
0100
0000
1000
0010
0000
0000
,
0100
0001
0100
0010
0100
0001
0100
0010
,
1000
0100
0010
0001
1000
0010
1000
0000
,
0010
1000
0010
0100
0010
1000
0010
0100
,
0001
0000
0001
0000
1000
0000
1000
0000
0010
0100
0010
0100
0000
0000
0010
0000
,
1000
0100
0001
0100
1000
0010
0001
0010
,
1000
0001
0010
0100
1000
0001
0100
0000
,
0001
0010
1000
0010
0001
0100
1000
0100
,
0001
0010
0001
0010
0000
0100
0000
1000
0001
1000
0000
0000
0110
0000
0000
0000
;

//---------------dance-single - ----------------
#NOTES:
     dance-single:
     :
     Challenge:
     9:
     0.640329,0.681087,0.438120,0.134806,0.577139,464.000000,52.000000,16.000000,0.000000,0.000000,0.000000,0.640329,0.681087,0.438120,0.134806,0.577139,464.000000,52.000000,16.000000,0.000000,0.000000,0.000000:
0000
0000
0000
0000
,
0000
0000
0000
0000
,
0000
0000
0000
0000
,
2002
0000
0000
0000
0000
0000
0000
0000
3003
0000
0000
0000
0001
1000
0000
0000
,
0010
0000
1000
0001
0000
0000
1000
0000
0010
0000
0100
0001
0000
0000
0010
0000
,
0100
0000
1000
0001
0000
1000
0100
0000
0010
0000
0001
1000
0000
0000
0000
0000
,
0010
0000
1000
0001
0000
1000
0010
0000
0100
0000
0000
0001
0000
0000
1000
0000
,
0100
0000
0000
0010
0000
0000
0001
0000
1000
0000
0010
0100
0000
0001
0000
0000
,
1000
0100
1000
0100
0000
0000
0000
0000
0001
0100
0001
0100
0000
0000
0000
0000
,
0001
1000
0001
1000
0000
0010
0100
0000
0001
1000
0000
0000
0000
0000
0100
0000
,
1000
0000
1000
0001
0000
0000
0100
0000
0010
0000
0010
1000
0000
0000
0001
0000
,
0010
0000
0010
0100
0000
1000
0001
0000
0100
0010
0000
0000
0000
0000
1000
0000
,
0102
0000
0010
0100
1003
0000
0110
0000
,
0001
0000
0010
0001
0000
0000
0100
0000
0010
0000
1000
0010
0000
0000
0100
0000
,
2001
0000
0010
0100
3001
0000
0110
0000
,
0100
0000
1000
0100
0000
0000
1000
0000
0001
0000
0100
0001
0000
0000
0100
0000
,
0120
0000
1000
0100
1030
0000
0101
0000
,
1000
0100
0000
0010
0000
0000
0001
0000
0001
0100
0000
0010
0000
0000
0010
0000
,
0210
0000
0001
0010
0301
0000
1010
0000
,
0001
0000
0010
0100
0000
0000
1000
0000
0001
0000
0100
0010
0100
0000
0001
0000
,
0100
0000
0000
0010
0000
1000
0100
0010
0001
0000
1000
0000
2001
0000
0000
0000
,
3010
0000
0000
1000
0000
0001
0010
0100
1000
0000
0001
0000
1002
0000
0000
0000
,
0103
0000
0000
0010
0000
1000
0100
0010
0001
0000
1000
0000
2001
0000
0000
0000
,
3010
0000
0010
0000
1000
0000
1000
0000
0001
0100
0001
0100
0020
0000
0000
0000
,
1030
0000
0100
0000
0010
0000
0001
0000
1000
0010
1000
0010
1000
0000
0001
0000
,
0010
0000
0100
0000
1000
0000
0010
0000
0100
0001
0100
0001
0100
0000
0010
0000
,
1000
0001
1000
0001
1000
0000
0100
0000
0010
0000
0001
0010
0000
0100
1000
0000
,
2002
0000
0000
0000
0000
0000
0000
0000
3003
0000
0000
0000
0010
0100
0000
0000
,
0001
0010
0100
1000
0001
0000
0001
0010
0100
1000
0001
0000
0001
0010
0100
1000
,
0001
0000
1001
0000
0100
0000
0010
0000
1000
0000
0001
0000
1000
0100
0010
0001
,
2000
0000
3100
0000
1000
0001
0100
0000
,
0010
0000
1000
0001
0000
1000
0010
0000
0100
0000
0001
1000
0001
1000
0001
1000
,
0010
1000
0001
0100
0010
0000
0010
1000
0001
0100
0010
0000
0010
1000
0001
0100
,
0010
0000
0110
0000
0100
0000
0001
0000
1000
0000
0100
0000
0010
0001
1000
0010
,
0200
0000
0301
0000
1000
0001
0100
0000
,
0010
0000
1000
0001
0000
1000
0010
0000
0100
0000
0001
1000
0001
1000
0001
1000
,
0100
0000
0010
0100
0000
0010
0100
0000
0010
0000
0001
1000
0001
1000
0001
1000
,
0010
0000
0100
0010
0000
0100
0010
0000
0100
0000
0001
1000
0001
1000
0001
1000
,
0100
0000
0010
0100
0000
0010
0100
0000
0010
0000
0001
1000
0001
1000
0001
1000
,
0010
1000
0010
1000
0001
0100
0001
0100
0010
1000
0010
1000
0001
0100
0000
0000
,
0101
0000
0100
0000
0110
0000
0010
0000
1000
0100
0010
0001
1000
0000
0010
0000
,
1010
0000
0101
0000
1000
0100
0010
0001
1000
0000
0010
0000
0100
0000
0000
0000
,
1010
0000
0010
0000
0110
0000
0100
0000
0001
0010
0100
1000
0001
0000
0100
0000
,
0101
0000
1010
0000
0001
0000
1000
0000
0010
1000
0100
0020
0000
0000
0031
0000
,
0011
0000
0010
0000
1001
0000
0001
0000
0100
0010
0100
0001
1000
0000
0100
0000
,
0110
0000
0011
0000
0100
0010
0100
0001
1000
0000
0100
0000
0010
0000
0000
0000
,
1100
0000
0100
0000
1001
0000
1000
0000
0010
0100
0010
1000
0001
0000
0010
0000
,
0110
0000
1100
0000
0101
0000
1010
0000
0011
0000
0110
0000
0001
1000
0000
0000
,
0101
0000
0100
0000
1001
0000
0001
0000
1000
0100
0010
0001
1000
0000
0001
0000
,
1001
0000
0110
0000
1000
0100
0010
0001
1000
0000
0010
0000
1000
0000
0000
0000
,
0101
0000
0100
0000
1010
0000
0010
0000
1000
0100
0010
0001
1000
0000
0001
0000
,
0101
0000
1100
0000
0101
0000
1100
0000
0001
0010
0100
2000
0000
0000
3001
0000
,
0110
0000
0000
0000
1001
0000
0000
0000
0100
0001
1000
0100
0010
0000
0000
0000
,
0011
0000
1100
0000
0001
0010
0100
1000
0001
0000
1000
0000
0010
0000
0000
0000
,
1010
0000
0000
0000
0101
0000
0000
0000
1000
0010
0100
0001
1000
0000
0000
0000
,
0001
0100
1000
0100
0000
0010
0000
0100
0010
1000
0000
0000
0101
0000
0000
0000
;

//---------------dance-single - ----------------
#NOTES:
     dance-single:
     :
     Medium:
     5:
     0.340626,0.375772,0.168508,0.210635,0.000000,238.000000,20.000000,25.000000,0.000000,0.000000,0.000000,0.340626,0.375772,0.168508,0.210635,0.000000,238.000000,20.000000,25.000000,0.000000,0.000000,0.000000:
0000
0000
0000
0000
,
0000
0000
0000
0000
,
0000
0000
0000
0000
,
0000
0000
0000
1001
,
0200
0310
2000
3001
,
0020
0000
0130
0000
1000
0001
0100
0000
,
0020
1030
0002
0013
,
0200
0000
1300
0000
0001
1000
0100
0000
,
0010
0001
0010
0000
0001
1000
0001
0000
,
1000
0100
1000
0000
0001
0000
0000
0000
,
0200
0310
2000
3100
,
0020
0000
0031
0000
1000
0000
0000
0010
,
0100
0000
0000
0001
1000
0000
1001
0000
,
0100
0000
1000
0000
0001
0000
0100
0010
,
1000
0000
0000
0100
0010
0000
0110
0000
,
0001
0000
0010
0000
0001
0000
1000
0001
,
0100
0000
0000
0001
1000
0000
1001
0000
,
0100
0000
1000
0000
0001
0000
1000
0010
,
0100
0000
0000
0001
1000
0000
1001
0000
,
0010
0000
1000
0000
0001
0010
0100
0000
,
1000
1000
1000
0020
,
0130
0100
0100
0002
,
0013
0010
0010
0200
,
1300
1000
1000
0002
,
1003
0100
1000
0000
0001
0000
0001
0000
,
1000
0100
1000
0000
0001
0000
0001
0000
,
0100
0010
0100
0000
0001
1000
0001
0000
,
0110
0000
0000
1001
,
0200
0310
1000
0001
,
0010
0000
0001
0000
1000
0000
0010
0100
,
0001
1000
0001
0010
,
0200
0000
0000
0000
0000
1300
0001
1000
,
0100
0010
0001
1000
,
0010
0000
1000
0000
0001
0000
0100
0001
,
1000
0001
1000
0100
,
0020
0000
0000
0000
0000
0031
1000
0001
,
0100
0000
0010
0000
0000
1000
0001
1000
,
0100
0000
0010
0000
0000
0001
1000
0001
,
0100
0000
0010
0000
0000
1000
0001
1000
,
1100
0101
1010
0011
,
2000
0000
3001
0000
0100
0010
1000
0000
,
0001
0001
1000
1000
0001
0000
0010
0000
,
0002
0000
1003
0000
0010
1000
0001
0000
,
1000
1000
0001
0001
1000
0000
0001
0000
,
0200
0310
2000
3100
,
0020
0000
0031
0000
1000
0001
0100
0000
,
0020
1030
0002
0103
,
0001
1000
0001
1000
0001
1000
0010
0000
,
1001
0110
2000
3100
,
0010
1000
0001
0000
0100
0000
0000
0000
,
1001
0110
0002
0013
,
0100
0001
1000
0000
0010
0000
0000
0000
,
0101
0000
1100
0000
0001
1000
0001
0000
,
0100
0010
0100
0000
0001
0000
0000
0000
,
0011
0000
1010
0000
1000
0100
1000
0000
,
0001
1000
0001
1000
0001
0000
0110
0000
;

//---------------dance-single - ----------------
#NOTES:
     dance-single:
     :
     Easy:
     3:
     0.194987,0.258343,0.075828,0.101105,0.000000,141.000000,9.000000,12.000000,0.000000,0.000000,0.000000,0.194987,0.258343,0.075828,0.101105,0.000000,141.000000,9.000000,12.000000,0.000000,0.000000,0.000000:
0000
0000
0000
0000
,
0000
0000
0000
0000
,
0000
0000
0000
0000
,
0000
0000
0000
1001
,
0100
0000
0010
0000
,
1000
0100
0010
0000
,
0001
0000
1000
0000
,
0010
0100
0001
0000
,
1000
0000
1000
0000
,
0001
0001
0001
0000
,
0100
0000
0010
0000
,
0100
0001
1000
0000
,
0200
0000
0310
0000
,
0010
0001
1000
0000
,
0020
0000
0130
0000
,
0001
1000
0100
0000
,
2000
0000
3001
0000
,
1000
0010
0100
0000
,
0002
0000
1003
0000
,
0001
0010
0100
0000
,
2000
0000
0000
3100
,
0002
0000
0000
0103
,
2000
0000
0000
3010
,
0002
0000
0000
0013
,
1000
0001
0100
0000
,
0001
1000
0100
0000
,
0020
0030
0200
0300
,
2002
0000
3003
0110
,
1000
0100
1000
0001
,
0100
0000
0001
0000
,
1001
0000
0000
0000
,
0100
0010
0100
0000
,
0001
0010
0001
1000
,
0010
0000
1000
0000
,
1001
0000
0000
0000
,
0010
0100
0010
0000
,
1000
0001
0000
0110
,
0001
1000
0000
0110
,
1000
0001
0000
0110
,
0001
0001
1000
1000
,
0010
0010
0010
0000
,
1000
0001
0100
0000
,
0001
0001
0001
0000
,
0100
0001
1000
0000
,
0100
0100
0100
0000
,
0010
0001
1000
0000
,
0010
0010
0010
0000
,
1000
0100
0010
0001
,
1000
1000
0100
0000
,
0001
0001
0100
0000
,
1000
1000
0010
0000
,
0001
0001
1000
1000
,
0010
0100
0001
0000
,
0010
0100
1000
0000
,
0001
1000
0100
0000
,
1000
0000
0000
0110
;

//---------------dance-single - ----------------
#NOTES:
     dance-single:
     :
     Beginner:
     1:
     0.125177,0.140914,0.067403,0.000000,0.000000,96.000000,8.000000,0.000000,0.000000,0.000000,0.000000,0.125177,0.140914,0.067403,0.000000,0.000000,96.000000,8.000000,0.000000,0.000000,0.000000,0.000000:
0000
0000
0000
0000
,
0000
0000
0000
0000
,
0000
0000
0000
0000
,
0000
0000
0000
0000
,
1000
0000
0001
0000
,
1000
0000
1000
0000
,
0001
0000
1000
0000
,
0001
0000
0001
0000
,
0100
0000
0010
0000
,
0100
0000
0100
0000
,
0010
0000
0100
0000
,
0010
0000
0010
0000
,
1001
0000
0000
0000
,
0100
0000
0100
0000
,
1001
0000
0000
0000
,
0100
0000
0100
0000
,
1001
0000
0000
0000
,
0100
0000
0100
0000
,
1001
0000
0000
0000
,
0100
0000
0100
0000
,
0010
0000
0000
0000
,
0010
0000
0000
0000
,
0010
0000
0000
0000
,
0010
0000
0000
0000
,
0001
0000
1000
0000
,
0001
0000
1000
0000
,
0010
0000
0100
0000
,
1001
0000
0000
0000
,
0110
0000
1000
0000
,
0001
0000
0100
0000
,
0010
0000
0000
0000
,
1000
1000
1000
0000
,
0001
0000
1000
0000
,
0010
0000
0100
0000
,
1001
0000
0000
0000
,
0001
0001
0001
0000
,
0100
0100
0000
0000
,
0100
0100
0000
0000
,
0100
0100
0000
0000
,
0001
0000
1000
0000
,
0100
0000
0100
0000
,
0010
0000
0010
0000
,
0001
0000
0001
0000
,
1000
0000
1000
0000
,
0010
0000
0010
0000
,
1000
0000
1000
0000
,
0001
0000
0001
0000
,
0100
0100
0100
0000
,
0100
0000
0001
0000
,
1000
0000
0100
0000
,
1000
0000
0001
0000
,
0010
0000
0010
0000
,
0001
0000
1000
0000
,
0010
0000
0010
0000
,
1000
0000
0001
0000
,
0100
0000
0000
1001
;

//---------------dance-double - ----------------
#NOTES:
     dance-double:
     :
     Challenge:
     8:
     0.521170,0.587144,0.143231,0.185358,0.408631,394.000000,17.000000,22.000000,0.000000,0.000000,0.000000,0.521170,0.587144,0.143231,0.185358,0.408631,394.000000,17.000000,22.000000,0.000000,0.000000,0.000000:
// measure 0
00000000
00000000
00000000
00000000
,  // measure 1
00000000
00000000
00000000
00000000
,  // measure 2
00000000
00000000
00000000
00000000
,  // measure 3
00000000
00000000
00000000
00000000
00000000
00000000
00000000
00000000
00000000
00000000
00000000
00000000
00001000
00010000
00000000
00000000
,  // measure 4
00000100
00000000
00000000
00000100
00000000
00000000
00001000
00000000
00000010
00000000
00000000
00000010
00000000
00000000
00000100
00000000
,  // measure 5
00000001
00000000
00000000
00000001
00000000
00000000
00000010
00000000
00000001
00000000
00000000
00001000
00000000
00000000
00000000
00000000
,  // measure 6
00000001
00000000
00000000
00000001
00000000
00000000
00001000
00000000
00000100
00000000
00000000
00000100
00000000
00000000
00010000
00000000
,  // measure 7
00001000
00000000
00000000
00001000
00000000
00000000
00010000
00000000
00001000
00000000
00100000
00000000
00010000
00000000
00000000
00000000
,  // measure 8
21000000
00000000
00000000
30010000
00000000
00000000
00000000
00000000
01020000
00000000
00000000
10030000
00000000
00000000
00000000
00000000
,  // measure 9
00100000
00000000
00000000
10000000
00000000
00000000
00010000
00000000
00200000
00000000
00000000
00000000
00310000
00000000
00000000
00000000
,  // measure 10
10000000
01000000
20000000
00000000
30010000
01000000
00020000
00000000
,  // measure 11
10030000
01000000
00100000
00010000
01000000
00000000
00000000
00000000
,  // measure 12
00000000
00000000
00010000
00000000
10000000
00000000
00010000
00000000
10000000
00000000
00010000
00000000
10000000
00200000
00000000
00000000
,  // measure 13
01300000
00000000
00000000
00010000
00000000
00000000
01000000
00000000
00001000
00000000
00000000
00010000
00000000
00000000
00000100
00000000
,  // measure 14
00000000
00000000
00001000
00000000
00000001
00000000
00001000
00000000
00000001
00000000
00001000
00000000
00000010
00000100
00000000
00000000
,  // measure 15
00000002
00000000
00000000
00000103
00000000
00000000
00000010
00000000
00002000
00000000
00000000
00003100
00000000
00000000
00010000
00000000
,  // measure 16
00000000
00000000
00001000
00000000
00010000
00000000
00001000
00000000
00010000
00000000
00001000
00000000
00010000
00001000
00000000
00000000
,  // measure 17
00200000
00000000
00000000
00310000
00000000
00000000
10000000
00000000
00200000
00000000
00000000
01300000
00000000
00000000
00010000
00000000
,  // measure 18
00000000
00000000
01000000
00000000
00001000
00000000
01000000
00000000
00001000
00000000
01000000
00000000
00010000
01000000
00000000
00000000
,  // measure 19
00002000
00000000
00000000
00013000
00000000
00000000
00000100
00000000
00002000
00000000
00000000
00000000
00003002
00000000
00000000
00000000
,  // measure 20
00000103
00000010
00001000
00010200
,  // measure 21
00010300
00001000
00100000
10020000
,  // measure 22
10030000
00100000
01000000
02100000
,  // measure 23
03010000
01000000
00001000
00012000
,  // measure 24
00013000
00000000
00000100
00000000
00010000
00000000
00000100
00000000
00001000
00000001
00001000
00000001
00000000
00000000
00000000
00000000
,  // measure 25
00001000
00000000
00000100
00000000
00001000
00000000
00000100
00000000
00010000
00001000
00010000
00001000
00000000
00000000
00000000
00000000
,  // measure 26
00100000
00010000
00100000
00010000
00000000
00000000
10000000
00000000
00100000
00000000
10000000
00010000
00000000
00000000
00000000
00000000
,  // measure 27
10010000
00000000
00000000
00000000
00000000
00000000
00000000
00000000
00000000
00000000
00000000
00000000
00010000
01000000
00000000
00000000
,  // measure 28
00010000
10000000
00010000
10000000
00000000
00000000
00100000
01000000
00100000
01000000
00000000
00000000
00010000
10000000
00010000
10000000
,  // measure 29
00000000
00000000
00100000
00000000
01000000
00000000
00010000
00000000
10000000
00000000
00000000
00000000
00010000
00100000
00001000
00010000
,  // measure 30
00000200
00000000
00001300
00000000
00000010
00001000
00000100
00000000
,  // measure 31
00000010
00000000
00000000
00000010
00000000
00000000
00000010
00000000
00000001
00000000
00001000
00000100
00001000
00000100
00001000
00000100
,  // measure 32
00001000
00000001
00001000
00000001
00000000
00000000
00000001
00000100
00000001
00000100
00000000
00000000
00000001
00001000
00000001
00001000
,  // measure 33
00000000
00000000
00000001
00000000
00000010
00000000
00000100
00000000
00001000
00000000
00000000
00000000
00000010
00001000
00000100
00010000
,  // measure 34
00002000
00000000
00103000
00000000
00001000
00100000
00010000
00000000
,  // measure 35
00100000
00000000
00010000
10000000
00000000
10000000
00100000
00000000
01000000
00000000
00010000
10000000
00010000
10000000
00010000
10000000
,  // measure 36
00100000
00000000
01000000
00010000
00000000
00010000
00100000
00000000
00001000
00000000
00010000
00001000
00010000
00001000
00010000
00001000
,  // measure 37
00010000
00000000
00000100
00001000
00000000
00001000
00000010
00000000
00000100
00000000
00000001
00001000
00000001
00001000
00000001
00001000
,  // measure 38
00000010
00000000
00000100
00000010
00000000
00000010
00001000
00000000
00000100
00000000
00010000
00000100
00010000
00000100
00010000
00000100
,  // measure 39
00010000
00001000
00100000
00011000
,  // measure 40
00100000
00000000
00010000
00000000
10000000
00000000
00100000
00000000
01000000
00000000
00010000
10000000
00010000
00000000
01000000
00000000
,  // measure 41
00100000
00000000
00100000
00000000
10000000
00000000
01000000
00100000
01000000
00000000
00100000
00000000
00020000
00000000
00000000
00000000
,  // measure 42
00130000
00000000
00010000
00000000
00100000
00000000
00001000
00000000
00010000
00000000
00000100
00010000
00000100
00000000
00001000
00000000
,  // measure 43
00000010
00000000
00000010
00000000
00000010
00000000
00000010
00000000
00001000
00000010
00000100
00000002
00000000
00000000
00001003
00000000
,  // measure 44
00000001
00000000
00001000
00000000
00000010
00000000
00000100
00000000
00000001
00000000
00000100
00000001
00000100
00000000
00000010
00000000
,  // measure 45
00001000
00000000
00001000
00000000
00000100
00000000
00010000
00000000
00001000
00010000
00001000
00000000
00100000
00000000
00010000
00000000
,  // measure 46
01000000
01000000
00100000
00100000
10000000
00010000
01000000
00000000
,  // measure 47
01010000
00000000
00001000
00000000
00010000
00000000
00000100
00000000
00001100
00000000
00010000
00000000
00001000
00100000
00000000
00000000
,  // measure 48
00101000
00000000
00001000
00000000
00011000
00000000
00010000
00000000
00000100
00001000
00000100
00001000
00000010
00000000
00000100
00000000
,  // measure 49
00000001
00000000
00001000
00000000
00000001
00000100
00000001
00000100
00000010
00000000
00001000
00000000
00000100
00000000
00000000
00000000
,  // measure 50
00001100
00000000
00001000
00000000
00010100
00000000
00010000
00000000
00001000
00010000
00001000
00010000
00001000
00000000
00100000
00000000
,  // measure 51
00010000
00000000
00010000
00000000
10000000
00000000
10000000
00000000
00010000
00100000
01000000
20000000
00000000
00000000
30010000
00000000
,  // measure 52
11000000
00000000
00000000
00000000
01010000
00000000
00000000
00000000
10000000
01000000
00100000
00010000
10000000
00000000
00010000
00000000
,  // measure 53
01000000
00000000
01000000
00000000
00010000
00100000
01000000
10000000
00010000
00000000
01000000
00000000
00001000
00000000
00010000
00000000
,  // measure 54
00000100
00000000
00001000
00000000
00000001
00000000
00001000
00000000
00000001
00000010
00000100
00001000
00000001
00000000
00000100
00000000
,  // measure 55
00000010
00001000
00000100
00001000
00000000
00000001
00000000
00000100
00001000
00010000
00000000
00000000
00010100
00000000
00000000
00000000
;
