#TITLE:Switch;
#SUBTITLE:;
#ARTIST:Will Smith;
#TITLETRANSLIT:;
#SUBTITLETRANSLIT:;
#ARTISTTRANSLIT:;
#GENRE:;
#CREDIT:;
#BANNER:Switch.png;
#BACKGROUND:Switch-bg.png;
#LYRICSPATH:;
#CDTITLE:;
#MUSIC:Switch.ogg;
#OFFSET:-0.006000;
#SAMPLESTART:105.346901;
#SAMPLELENGTH:14.694003;
#SELECTABLE:YES;
#BPMS:0.000000=205.000000
,32.000000=102.500000
,36.000000=205.000000
,228.000000=102.500000
,240.000000=205.000000
,304.000000=102.500000
,308.000000=205.000000
;
#STOPS:
;
#BGCHANGES:7.750=Switch.avi=1.000=0=0=1=====,
99999=-nosongbg-=1.000=0=0=0 // don't automatically add -songbackground-
;
#KEYSOUNDS:;
#ATTACKS:;

//---------------dance-single - ----------------
#NOTES:
     dance-single:
     :
     Hard:
     9:
     0.679174,0.679751,0.484226,0.322817,0.051357,648.000000,582.000000,66.000000,44.000000,0.000000,0.000000,0.679174,0.679751,0.484226,0.322817,0.051357,648.000000,582.000000,66.000000,44.000000,0.000000,0.000000:
// measure 0
0000
0000
0000
0000
,  // measure 1
0000
0000
0000
0000
,  // measure 2
0000
0000
0000
0000
,  // measure 3
0000
0000
0000
0000
,  // measure 4
2000
3100
2000
3010
,  // measure 5
1000
0000
0001
1000
1000
0000
1100
0000
,  // measure 6
0002
0103
0002
0013
,  // measure 7
0002
0000
1003
0001
0001
0000
0101
0000
,  // measure 8
2002
0000
0000
3003
,  // measure 9
1020
0000
0130
0001
0100
0000
0010
0000
,  // measure 10
1002
0000
1003
0100
0010
0001
1000
0000
,  // measure 11
0001
0000
0100
0001
1000
0000
1010
0000
,  // measure 12
0011
0000
0000
1000
0001
1000
0001
0000
0000
1001
0000
0000
,  // measure 13
1100
0000
0001
0000
0100
0010
2000
0000
,  // measure 14
3002
0000
0103
0010
0100
0010
1000
0000
,  // measure 15
0002
0103
0200
0310
,  // measure 16
1010
0000
0000
0101
0000
0000
0110
0000
,  // measure 17
0100
0001
1000
0001
1000
0001
1000
0000
,  // measure 18
0100
0000
1000
0100
0000
1000
0001
0100
,  // measure 19
0001
0000
1000
0001
0100
0000
0001
0000
,  // measure 20
1000
0100
0010
0001
0000
1000
0001
1000
,  // measure 21
0010
0000
0100
0001
0000
1000
0100
0000
,  // measure 22
1000
0001
1000
0001
0000
0100
0001
1000
,  // measure 23
0001
0000
0100
0010
1000
0000
0001
0000
,  // measure 24
1000
0100
0010
0001
0000
1000
0001
1000
,  // measure 25
0020
0000
0100
0130
,  // measure 26
0001
0000
1000
0000
0100
0010
0001
0000
,  // measure 27
1000
0000
0010
1000
0010
1000
0100
0000
,  // measure 28
1000
0001
1000
0001
0000
0100
0001
1000
,  // measure 29
0001
0100
0010
1000
,  // measure 30
0001
0010
0100
1000
0000
0001
1000
0001
,  // measure 31
0100
0000
0010
1000
0001
0000
1000
0000
,  // measure 32
0001
0010
0001
0010
0000
0100
1000
0100
,  // measure 33
1000
0000
0001
0100
0001
1000
0001
1000
,  // measure 34
0010
0000
0010
0000
1000
0100
0010
0001
,  // measure 35
0000
1000
0100
1000
0000
0001
0100
0000
,  // measure 36
0101
0000
1100
0000
0020
0000
0130
0001
,  // measure 37
1000
0000
0100
0100
1000
0000
0010
0000
,  // measure 38
1000
0001
0200
0000
0301
0000
1000
0000
,  // measure 39
1010
1001
0101
1000
,  // measure 40
0010
1000
0001
0000
0010
0001
0100
0000
,  // measure 41
0201
0000
0310
1000
0010
0000
0100
0000
,  // measure 42
2001
0000
3001
0010
0100
1000
0001
0000
,  // measure 43
1000
0000
0010
1000
0001
0000
0101
0000
,  // measure 44
1100
0000
0000
0001
1000
0001
1000
0000
0000
1001
0000
0000
,  // measure 45
0011
0000
1000
0000
0010
0100
0002
0000
,  // measure 46
2003
0000
3010
0100
0010
0100
0001
0000
,  // measure 47
1000
1000
0010
0000
0100
0000
0001
1000
,  // measure 48
0001
1000
0000
0001
0100
0000
0110
0000
,  // measure 49
1020
0000
0130
0001
0100
0000
0010
0000
,  // measure 50
1002
0000
1003
0100
0010
0001
1000
0000
,  // measure 51
0001
0000
0100
0001
1000
0000
1010
0000
,  // measure 52
0011
0000
0000
1000
0001
1000
0001
0000
0000
1001
0000
0000
,  // measure 53
1100
0000
0001
0000
0100
0010
2000
0000
,  // measure 54
3002
0000
0103
0010
0100
0010
1000
0000
,  // measure 55
0001
0001
0100
0000
0010
0000
1000
0001
,  // measure 56
1000
0001
0000
1000
0010
0000
0110
0000
,  // measure 57
2000
0000
0100
0100
3002
0000
0100
0100
,  // measure 58
1003
0000
0000
0000
0010
0000
0000
0000
0100
0000
0000
0100
0000
0000
0001
0000
,  // measure 59
1000
0000
0000
0000
0100
0000
0000
0000
0010
0000
0000
0010
0000
0000
0001
0000
,  // measure 60
0100
0010
1000
0000
0001
0010
0001
0000
,  // measure 61
1000
0000
0010
0200
0000
0000
0301
0000
,  // measure 62
0100
0010
0100
0000
0001
0010
0100
0010
,  // measure 63
0100
0000
1000
0002
0000
0000
0103
0000
,  // measure 64
0001
0000
1000
0100
0010
0001
0100
0010
,  // measure 65
1000
0001
1000
0002
0000
0000
0103
0000
,  // measure 66
0001
0000
0100
0010
0100
0001
0010
0100
,  // measure 67
0000
0110
0000
0100
2000
0000
3001
0000
,  // measure 68
1100
0000
0001
1000
0001
0000
0100
0000
,  // measure 69
0010
1000
0010
1000
0000
0001
0100
0000
,  // measure 70
1001
0000
1000
0100
1000
0000
0001
0000
,  // measure 71
0010
0001
0010
0001
0000
0100
0001
0000
,  // measure 72
1000
0000
0010
0100
0010
0000
1000
0000
,  // measure 73
0001
0010
0001
0010
0100
0000
1000
0000
,  // measure 74
0001
0000
0100
0010
0100
0001
0010
0100
,  // measure 75
0000
1100
0000
0001
0100
0000
0101
0000
,  // measure 76
2001
0000
0010
0010
3002
0000
0010
0010
,  // measure 77
2003
0000
3100
0010
0100
0010
0002
0000
,  // measure 78
0103
0010
0100
0010
1000
0000
0001
0000
,  // measure 79
0200
0000
0310
1000
0010
1000
0200
0000
,  // measure 80
0310
0001
0010
0001
0100
0000
0001
0000
,  // measure 81
1000
0100
0010
0001
0010
0100
1000
0000
,  // measure 82
0001
0100
0010
1000
0010
0100
0001
0000
,  // measure 83
0100
0010
0100
0010
1000
0001
1000
0001
,  // measure 84
0100
0010
1000
0100
0010
0001
0010
0100
,  // measure 85
1000
1100
0101
1001
,  // measure 86
1010
0000
0001
0010
0100
1000
0001
0000
,  // measure 87
0100
0100
0010
0000
0100
0000
0110
0000
,  // measure 88
1001
0000
0000
0001
0100
0001
0100
0000
0000
0101
0000
0000
,  // measure 89
1000
0100
1000
0100
0010
0001
0100
0000
,  // measure 90
0001
0100
0001
0100
0010
1000
0100
0000
,  // measure 91
0100
0000
1001
0000
1000
0100
0010
0001
,  // measure 92
1000
0001
1000
0001
0100
0000
0101
0000
,  // measure 93
2001
3010
1010
1001
,  // measure 94
0101
0000
1000
0100
0010
0001
1000
0000
,  // measure 95
0010
0010
0100
0000
0010
0000
0110
0000
,  // measure 96
1001
0000
0000
1000
0010
1000
0010
0000
0000
1010
0000
0000
,  // measure 97
0002
0013
0100
0110
,  // measure 98
1001
0000
1000
0001
0100
0001
1000
0000
,  // measure 99
0010
0000
0102
0000
1003
0000
0001
1000
,  // measure 100
0010
0100
0010
0100
0001
0010
0100
0000
,  // measure 101
1100
1100
0011
0011
,  // measure 102
1100
0000
0001
0010
0100
1000
0001
0000
,  // measure 103
0100
0100
0010
0000
1000
0000
0002
0000
,  // measure 104
0023
0000
0000
0130
1000
0100
2000
0000
0000
3001
0000
0000
,  // measure 105
0011
0011
1100
1100
,  // measure 106
0011
0000
1000
0100
0010
0001
1000
0000
,  // measure 107
0010
0010
0200
0000
0301
0000
2000
0000
,  // measure 108
3100
0010
0001
0010
0100
1000
0010
0100
,  // measure 109
0001
0000
0000
0000
;

//---------------dance-double - ----------------
#NOTES:
     dance-double:
     :
     Challenge:
     9:
     0.662404,0.719736,0.425532,0.124725,0.047689,632.000000,574.000000,58.000000,17.000000,0.000000,0.000000,0.662404,0.719736,0.425532,0.124725,0.047689,632.000000,574.000000,58.000000,17.000000,0.000000,0.000000:
00000000
00000000
00000000
00000000
,
00000000
00000000
00000000
00000000
,
00000000
00000000
00000000
00000000
,
00000000
00000000
00000000
00000000
,
00001000
00000000
00000001
00000000
,
00000100
00000000
00000000
00000100
00001000
00000000
00010000
00000000
,
00010000
00000000
00100000
00000000
,
10000000
00000000
00000000
10000000
01000000
00000000
00010000
00000000
,
00022000
00000000
00000000
00033000
,
00200000
01000000
00010000
01300000
,
10000000
00000000
00010000
00100000
01000000
10000000
00010000
00000000
,
10000000
00100000
01000000
01010000
,
11000000
00000000
00000000
00001000
00010000
00001000
00010000
00000000
00000000
00011000
00000000
00000000
,
00000100
00001000
00000010
00001010
,
00000101
00000000
00000001
00000010
00000100
00001000
00000001
00000000
,
00000100
00000010
00001000
00000100
,
00001100
00000000
00000000
00001100
00000000
00000000
00010100
00000000
,
00021000
00000100
00001000
00031000
,
00010000
00000000
00001000
00010000
00000000
00001000
00100000
00010000
,
00100000
00000000
00010000
01000000
00010000
00000000
01000000
00000000
,
00100000
10000000
00100000
10000000
00000000
00010000
01000000
00010000
,
01000000
00000000
00100000
10000000
00100000
00000000
10000000
00000000
,
01000000
00100000
01000000
00100000
00000000
00010000
10000000
00000000
,
00010000
00000000
01000000
00100000
01000000
00000000
00010000
00000000
,
00100000
00001000
00100000
00001000
00000000
00010000
00000100
00010000
,
00000200
00000000
00001300
00000000
00000010
00000100
00000010
00000000
,
00000100
00000000
00000001
00001000
00000000
00000001
00000100
00000001
,
00001000
00000000
00000010
00001000
00000010
00000000
00001000
00000000
,
00000100
00010000
00000100
00010000
00000000
00001000
00100000
00001000
,
00100000
00000000
00010000
01000000
00010000
00000000
10000000
00000000
,
00100000
01000000
00100000
01000000
00000000
00010000
10000000
00010000
,
10000000
00000000
01000000
00010000
00001000
00000000
00010000
00000000
,
00001000
00000100
00001000
00000100
00000000
00000010
00001000
00000010
,
00001000
00000000
00000001
00000010
00000100
00001000
00000010
00000100
,
00000002
00000000
00002003
00000000
00003001
00000100
00000010
00001000
,
00000000
00000100
00001000
00000100
00000000
00010000
00001000
00010000
,
00001000
00000000
00100000
00000000
00010000
10000000
00100000
00000000
,
01000000
00000000
00010000
00000000
10000000
00000000
00100000
10000000
,
01000000
00000000
10000000
00000000
00100000
01000000
00010000
00000000
,
00110000
01000000
01100000
10000000
,
11000000
01010000
00110000
01001000
,
00021000
00000100
00001000
00031000
,
00010000
00000000
00000100
00001000
00000010
00000100
00000001
00000000
,
00000100
00000010
00001000
00001010
,
00000011
00000000
00000000
00010000
00001000
00010000
00001000
00000000
00000000
00011000
00000000
00000000
,
00200000
00010000
01000000
01300000
,
00100000
00000000
00010000
00100000
01000000
10000000
00100000
00000000
,
01000000
00000000
00010000
00000000
10000000
00100000
01000000
00000000
,
00010000
00100000
00010000
00100000
01000000
00000000
11000000
00000000
,
01020000
10000000
01000000
01030000
,
01010000
00000000
10000000
01000000
00100000
00010000
01000000
00000000
,
00100000
00010000
00001000
00000000
00100000
00000000
00101000
00000000
,
00011000
00000000
00000000
00010000
00000100
00010000
00000200
00000000
00000000
00001300
00000000
00000000
,
00000001
00000100
00000010
00001010
,
00001100
00000000
00000001
00000010
00000100
00001000
00000001
00000000
,
00001000
00001000
00000010
00000000
00000100
00000000
00000001
00000000
,
00000100
00001000
00000100
00001000
00010000
00000000
00001000
00000000
,
00012000
00000000
00100000
00100000
00023000
00000000
00000010
00000010
,
00031000
00000000
00000000
00000000
00100000
00000000
00000000
00000000
00010000
00000000
00000000
10000000
00000000
00000000
00100000
00000000
,
00100000
00000000
10000000
01000000
00100000
00010000
00001000
00000100
,
00000010
00000001
00000010
00000001
00001000
00000000
00000001
00000000
,
00000100
00000010
00000100
00000010
00000000
00001000
00000001
00000000
,
00000100
00000000
00000010
00001000
00000010
00001000
00000001
00000000
,
00000100
00000010
00000100
00000010
00000000
00001000
00000100
00010000
,
00001000
00000000
00100000
00010000
00100000
00000000
00010000
00000000
,
10000000
00100000
10000000
00100000
00000000
01000000
00010000
01000000
,
00100000
10000000
00010000
00000000
10000000
01000000
10000000
00010000
,
00000000
10010000
00000000
10000000
01000000
00100000
00010000
00000000
,
10000000
10100000
00010000
00110000
,
10000000
00100000
10000000
00100000
00000000
00010000
00100000
00010000
,
01000000
01010000
00001000
00011000
,
00010000
00000100
00001000
00000100
00000000
00001000
00000010
00001000
,
00000010
00000110
00000100
00000101
,
00000001
00000010
00000100
00001000
00000000
00000001
00000100
00000001
,
00001000
00000000
00000010
00001000
00000100
00001000
00000010
00010000
,
00000000
00011000
00000000
00010000
00001000
00000000
00100000
00000000
,
02000000
00000000
00100000
00100000
03200000
00000000
00010000
00010000
,
00310000
01000000
00010000
01000000
00100000
10000000
00100000
00000000
,
10000000
01000000
10000000
01000000
00100000
00010000
00100000
00000000
,
00001000
00000100
00001000
00000100
00000010
00000001
00000010
00000000
,
00000001
00000100
00000001
00000100
00000010
00001000
00000010
00000000
,
00001000
00000100
00001000
00000100
00010000
00001000
00010000
00000000
,
00010000
00100000
00010000
00100000
01000000
10000000
01000000
00000000
,
10100000
01010000
00110000
01001000
,
00001000
01000000
00010000
00000000
10000000
01000000
00010000
00001000
,
00020000
00001000
00000100
00030100
,
00010100
00000000
00010000
00000100
00000010
00000001
00001000
00000000
,
00000010
00000010
00000100
00000000
00000001
00000000
00000101
00000000
,
00001100
00000000
00000000
00000001
00000100
00000001
00001000
00000000
00000000
00002001
00000000
00000000
,
00003010
00000100
00000010
00000000
00001000
00000000
00000001
00000000
,
00000010
00000000
00000100
00001000
00000100
00010000
00001000
00000000
,
00100000
00100000
00010000
00000000
01000000
00000000
01010000
00000000
,
10000000
01000000
00100000
00010000
01000000
00100000
10000000
00010000
,
01000000
00000000
00100000
10000000
00100000
00000000
11000000
00000000
,
01010000
00000000
00100000
00010000
01000000
00010000
01000000
00000000
,
00100000
10000000
00010000
00000000
10000000
00000000
01000000
00010000
,
00001000
00000000
00000000
00010000
00001000
00010000
00001000
00000000
00000000
00011000
00000000
00000000
,
00000100
00001000
00000100
00000000
00001000
00000000
00000010
00000000
,
00000010
00000000
00000100
00000001
00001000
00000010
00001000
00000000
,
00000001
00000001
00000010
00000000
00000100
00000000
00001000
00000000
,
00000001
00000100
00000010
00000100
00000010
00001000
00000100
00001000
,
00000010
00000010
00000110
00001001
,
00001000
00000000
00000001
00000100
00000010
00001000
00000010
00000000
,
00001000
00001000
00000100
00000000
00010000
00000000
00011000
00000000
,
00101000
00000000
00000000
10000000
00100000
10000000
00010000
00000000
00000000
10010000
00000000
00000000
,
11000000
11000000
00110000
00110000
,
10010000
00000000
00010000
00100000
01000000
10000000
00100000
00000000
,
01000000
01000000
00010000
00000000
01000000
00000000
00100000
00000000
,
10000000
01000000
00100000
00010000
00001000
00000100
00000010
00000001
,
00001000
00000000
00000000
00000000
;

//---------------dance-single - ----------------
#NOTES:
     dance-single:
     :
     Medium:
     6:
     0.430772,0.479824,0.117388,0.161409,0.000000,411.000000,395.000000,16.000000,22.000000,0.000000,0.000000,0.430772,0.479824,0.117388,0.161409,0.000000,411.000000,395.000000,16.000000,22.000000,0.000000,0.000000:
0000
0000
0000
0000
,
0000
0000
0000
0000
,
0000
0000
0000
0000
,
0000
0000
0000
0000
,
0001
0000
1000
0000
,
0010
0000
0000
0100
0000
0000
0001
0000
,
1000
0000
0100
0000
,
0010
0000
0000
0001
0000
0000
1000
0000
,
2002
0000
0000
3003
,
2000
0100
3100
1000
,
0001
0000
1000
0100
1000
0000
0001
0000
,
1000
0000
0010
0000
,
0100
0000
0001
1000
0001
0000
1000
0000
,
0001
0000
0100
0000
,
0010
0000
1000
0100
1000
0100
1000
0000
,
0000
0000
0010
0000
,
1000
0000
0000
0001
0000
0000
0100
0000
,
0200
0000
0010
0310
,
1000
0000
0000
0001
0000
0000
0100
0000
,
0100
0000
0001
0000
,
1000
0000
0000
0001
0000
0000
0010
0000
,
0100
0000
0010
0000
,
0001
0000
0000
1000
0000
0000
0010
0000
,
0100
0000
0001
0000
,
1000
0000
0000
0100
0000
0000
0010
0000
,
0001
0100
0010
1000
,
0100
0000
0000
0010
0000
0000
0001
0000
,
1000
0010
0100
0001
,
0010
0000
0000
0100
0000
0000
1000
0000
,
0010
0100
0010
1000
,
0100
0000
0000
0010
0000
0000
0001
0000
,
1000
0100
1000
0010
,
0100
0000
0000
0100
0000
0000
0001
0000
,
2000
0000
3100
1000
,
0020
0000
0130
0001
,
0020
0000
0130
0010
,
0002
0000
0013
0001
,
0100
0010
1000
0000
,
0010
0100
0001
0000
,
1000
0100
0001
0100
,
1000
0010
0100
0001
,
2002
3003
0010
0010
,
1000
0000
0001
0010
0001
0010
0001
0000
,
1000
0000
0001
0100
,
0100
0000
0010
1000
0010
0000
0100
0000
,
2002
3003
0001
0001
,
1000
0000
0010
0100
0010
0100
0010
0000
,
1000
0000
0001
0010
,
0100
1000
0000
1000
0000
0000
0000
0000
,
0011
0000
1000
1000
,
0001
0000
1000
0010
1000
0010
1000
0000
,
0001
0000
1000
0010
,
0010
0000
0100
0001
0100
0000
0010
0000
,
1001
0000
1100
0000
,
0101
0000
1000
0100
1000
0100
1000
0000
,
0010
0000
0100
0001
,
1000
0100
0000
0100
0000
0000
0010
0000
,
0002
0000
0013
0100
2000
0000
3010
0100
,
0001
0000
1000
0000
0010
0000
0100
0010
,
1000
0000
0100
0000
0010
0000
0001
1000
,
0010
0100
0001
0100
,
0010
1000
0010
1000
0000
0000
0010
0000
,
1000
0100
0010
0001
,
0100
0001
0100
0001
0000
0000
0100
0000
,
0001
0010
0100
1000
,
0001
1000
0001
1000
0000
0000
0001
0000
,
1000
0010
0100
0001
,
1000
0100
0000
1000
0100
0000
1000
0000
,
0010
0000
0100
0001
,
0100
0010
0000
0100
0010
0000
0100
0000
,
0001
0000
0010
0001
,
1000
0100
0000
1000
0100
0000
1000
0000
,
0100
0000
0010
0001
,
1000
0010
0000
1000
0010
0000
1000
0000
,
0010
0000
0000
0000
0100
0000
0001
1000
,
0000
0100
0000
1000
0001
0000
0100
0000
,
2002
3003
0010
0000
,
1000
0100
0010
0001
,
1000
0010
0000
1000
0000
0000
0000
0000
,
0001
0010
0100
1000
,
0001
0100
0000
0001
0000
0000
0000
0000
,
0100
0100
0010
0010
,
1000
0001
0000
1000
0001
0000
1000
0000
,
0100
0100
0010
0010
,
0001
1000
0001
0000
1000
0001
1000
0000
,
2200
3300
0001
1000
,
0010
0000
0100
0001
0100
0001
0100
0000
,
0010
0000
1000
0001
,
0001
0000
1000
0100
1000
0000
0001
0000
,
0022
0033
1000
1000
,
0001
0000
1000
0010
1000
0010
1000
0000
,
0001
0000
0100
0010
,
1000
0100
0000
0100
0000
0000
0010
0000
,
2002
3003
0001
1000
,
0010
0000
0100
0001
0100
0001
0100
0000
,
0010
0000
1000
0100
,
0100
0000
1000
0001
1000
0000
0001
0000
,
0100
0000
0010
0000
,
1000
0000
0010
0100
0010
0100
0010
0000
,
1000
0001
0010
0100
,
1000
0001
0000
0001
0100
0000
0010
0000
,
1010
0000
0001
0001
,
0011
0000
1000
0100
,
1000
0001
0100
0010
,
1000
0000
0010
0100
0010
0000
0100
0000
,
1001
0000
0010
0100
,
1001
0000
1000
0001
,
0100
0010
1000
0100
,
0010
0001
0000
0001
1000
0000
0010
0000
,
1010
0000
0000
0000
;

//---------------dance-single - ----------------
#NOTES:
     dance-single:
     :
     Easy:
     4:
     0.288230,0.399853,0.036684,0.117388,0.000000,275.000000,270.000000,5.000000,16.000000,0.000000,0.000000,0.288230,0.399853,0.036684,0.117388,0.000000,275.000000,270.000000,5.000000,16.000000,0.000000,0.000000:
0000
0000
0000
0000
,
0000
0000
0000
0000
,
0000
0000
0000
0000
,
0000
0000
0000
0000
,
0010
0000
0010
0000
,
1000
0000
0001
0000
,
0100
0000
0100
0000
,
0010
0000
1000
0000
,
1001
0000
0000
0000
,
1000
0000
0000
0000
,
0000
0100
0010
0100
,
0010
0000
0010
0000
,
0001
0100
0001
0100
,
0001
0000
0100
0000
,
0010
1000
0010
1000
,
0010
0000
1000
0000
,
0100
0000
0100
0000
,
1001
0000
1000
0000
,
0010
0000
0100
0100
,
0001
0000
1000
0000
,
0100
0000
0010
0010
,
0001
0000
1000
0000
,
0010
0000
0100
0100
,
0010
0000
1000
0000
,
0001
0000
0010
0010
,
0001
0000
1000
1000
,
0100
0000
0010
0001
,
1000
0000
0010
0000
,
1000
0000
0010
1000
,
0001
0000
0100
0000
,
0010
0000
0100
0001
,
1000
0000
0100
0000
,
1000
0000
0100
0010
,
0002
0003
0000
0000
,
2000
3000
0000
0000
,
0010
0000
1000
0000
,
0100
0010
0001
0000
,
0200
0300
0000
0000
,
0020
0030
0000
0000
,
1000
0001
1000
0001
,
0100
0010
1000
0100
,
2002
0000
0000
3003
,
1000
0001
0100
0100
,
0010
0000
1000
0000
,
0100
0010
0001
0010
,
0001
0000
1000
0000
,
0001
0100
0010
0010
,
1000
0000
0001
0000
,
1000
0000
0100
0010
,
0002
0000
0013
0010
,
0200
0000
1300
1000
,
0010
0000
1000
0000
,
0001
0100
0100
0010
,
1000
0000
0100
0000
,
1000
0001
1000
0001
,
0100
0000
0010
0000
,
1000
0000
0100
0010
,
0002
0003
2000
3000
,
0010
0010
0100
0100
,
0001
1000
0100
0010
,
0001
0000
0000
0000
,
1000
0100
0010
0001
,
1000
0000
0000
0000
,
0001
0010
0100
1000
,
0001
0000
0000
0000
,
1000
0010
1000
0001
,
1000
0000
0000
0000
,
0001
0000
0000
0100
0000
0000
0010
0000
,
0010
0000
0000
0000
,
1000
0010
0100
0001
,
1000
0000
0000
0000
,
0001
0100
0010
1000
,
0100
0000
0000
0000
,
1000
0100
0010
0001
,
1000
0000
0000
0000
,
0001
0000
0000
1000
0000
0000
0010
0000
,
0200
0300
0020
0030
,
1000
0000
0000
0000
,
0010
0100
0001
0000
,
1000
0000
0000
0000
,
0001
0010
0100
0000
,
1000
0100
1000
0100
,
0010
0010
0010
0000
,
0001
0100
0001
0100
,
0010
0010
0010
0000
,
1001
0000
1000
1000
,
0010
0000
0010
0010
,
0100
0000
0001
0000
,
1000
0100
1000
0001
,
0100
0000
0001
0001
,
1000
0000
1000
1000
,
0010
0000
0000
0000
,
0100
0000
0000
0010
0000
0000
0100
0000
,
0100
0000
0000
0000
,
0001
0010
0100
1000
,
0001
0000
0000
0000
,
1000
0100
0010
0001
,
1000
0000
0000
0000
,
0010
0100
0100
0100
,
0010
0000
1000
0000
,
0001
0000
0000
1000
0000
0000
0010
0000
,
0020
0030
0100
0100
,
0020
0030
0100
0100
,
0001
0000
1000
0000
,
0100
0010
0100
0010
,
0002
0003
0100
0100
,
0020
0030
1000
1000
,
0100
0000
0010
0000
,
0001
0000
0000
1000
0000
0000
0010
0000
,
1001
0000
0000
0000
;

//---------------dance-single - ----------------
#NOTES:
     dance-single:
     :
     Beginner:
     2:
     0.145687,0.239912,0.058694,0.000000,0.000000,139.000000,131.000000,8.000000,0.000000,0.000000,0.000000,0.145687,0.239912,0.058694,0.000000,0.000000,139.000000,131.000000,8.000000,0.000000,0.000000,0.000000:
0000
0000
0000
0000
,
0000
0000
0000
0000
,
0000
0000
0000
0000
,
0000
0000
0000
0000
,
0001
0000
0000
0000
,
1000
0000
0000
0000
,
0010
0000
0000
0000
,
0010
0000
0000
0000
,
1001
0000
0000
0000
,
1001
0000
0000
0000
,
0000
0000
0010
0010
,
0000
0000
0000
0000
,
0000
0000
0010
0010
,
0000
0000
0000
0000
,
0000
0000
0010
0010
,
0000
0000
0000
0000
,
1000
0000
1000
0000
,
1000
0000
0000
0000
,
0100
0000
0000
0000
,
0010
0000
0000
0000
,
0001
0000
0000
0000
,
1000
0000
0000
0000
,
0010
0000
0000
0000
,
0100
0000
0000
0000
,
0001
0000
0000
0000
,
0100
0000
0100
0000
,
0100
0000
0000
0000
,
0010
0000
0010
0000
,
0010
0000
0000
0000
,
1000
0000
1000
0000
,
1000
0000
0000
0000
,
0001
0000
0000
0000
,
0001
0000
0000
0000
,
0100
0000
0000
0000
,
0010
0000
0000
0000
,
1000
0000
0000
0000
,
0100
0000
0000
0000
,
0010
0000
0000
0000
,
0001
0000
0000
0000
,
0100
0000
0100
0000
,
0100
0000
0100
0000
,
1001
0000
0000
0000
,
0000
0010
0010
0010
,
0000
0000
0000
0000
,
0000
0010
0010
0010
,
0000
0000
0000
0000
,
0000
0010
0010
0010
,
0000
0000
0000
0000
,
1000
0000
0000
0000
,
1001
0000
0000
0000
,
0000
0001
0001
0001
,
0000
0000
0000
0000
,
0000
0001
0001
0001
,
0000
0000
0000
0000
,
0000
0001
0001
0001
,
0000
0000
0000
0000
,
0100
0000
0100
0000
,
0100
0000
0000
0000
,
0010
0000
0000
0000
,
1000
0000
0000
0000
,
0100
0000
0000
0000
,
0000
0000
0000
0000
,
0010
0000
0010
0000
,
0010
0000
0000
0000
,
0010
0000
0000
0000
,
0000
0000
0000
0000
,
0001
0000
0000
0000
,
0001
0000
0001
0000
,
0001
0000
0000
0000
,
0000
0000
0000
0000
,
0100
0000
0100
0000
,
0100
0000
0000
0000
,
0100
0000
0000
0000
,
0000
0000
0000
0000
,
0010
0000
0000
0000
,
0010
0000
0010
0000
,
0010
0000
0000
0000
,
1000
0000
0000
0000
,
0100
0000
0000
0000
,
0010
0000
0000
0000
,
0001
0000
0000
0000
,
0100
0000
0100
0000
,
0100
0000
0000
0000
,
0010
0000
0010
0000
,
0010
0000
0010
0000
,
1001
0000
0000
0000
,
0000
1000
1000
1000
,
0000
0000
0000
0000
,
0000
0001
0001
0001
,
0000
0000
0000
0000
,
0000
0100
0100
0100
,
0000
0000
0000
0000
,
0010
0000
0000
0000
,
1001
0000
0000
0000
,
0000
0001
0001
0001
,
0000
0000
0000
0000
,
0000
1000
1000
1000
,
0000
0000
0000
0000
,
0000
0010
0010
0010
,
0000
0000
0000
0000
,
0010
0000
0000
0000
,
1001
0000
0000
0000
,
0000
1000
1000
1000
,
0000
0000
0000
0000
,
0000
0100
0100
0100
,
0000
0000
0000
0000
,
0000
0010
0010
0010
,
0000
0000
0000
0000
,
0001
0000
0000
0000
,
1001
0000
0000
0000
;
