#TITLE:Sugar Song and Bitter Step;
#SUBTITLE:;
#ARTIST:Unison Square Garden;
#TITLETRANSLIT:;
#SUBTITLETRANSLIT:;
#ARTISTTRANSLIT:;
#GENRE:J-Indie Breakdown;
#CREDIT:;
#BANNER:Sugar Song and Bitter Step.png;
#BACKGROUND:Sugar Song and Bitter Step-bg.png;
#LYRICSPATH:;
#CDTITLE:;
#MUSIC:Sugar Song and Bitter Step.ogg;
#OFFSET:-0.006000;
#SAMPLESTART:67.287979;
#SAMPLELENGTH:13.714000;
#SELECTABLE:YES;
#BPMS:0.000000=132.000000
,200.000000=264.000000
,300.000000=109.279999
,308.000000=132.000000
;
#STOPS:200.000000=0.114000,
200.500000=0.114000,
201.000000=0.114000,
201.500000=0.114000,
202.000000=0.170000,
202.750000=0.170000,
203.500000=0.134000
;
#BGCHANGES:3.750=Sugar Song and Bitter Step.avi=1.000=0=0=1=====,
99999=-nosongbg-=1.000=0=0=0 // don't automatically add -songbackground-
;
#KEYSOUNDS:;
#ATTACKS:;

//---------------dance-single - ----------------
#NOTES:
     dance-single:
     :
     Hard:
     9:
     0.616029,0.753174,0.336206,0.073088,0.321588,534.000000,46.000000,10.000000,0.000000,0.000000,0.000000,0.616029,0.753174,0.336206,0.073088,0.321588,534.000000,46.000000,10.000000,0.000000,0.000000,0.000000:
0000
0000
0000
0000
,
0000
0000
0000
0000
,
1000
0100
1000
0100
1000
0100
0010
0000
,
1001
0000
0000
0000
,
0001
0100
0001
0100
0001
0100
0010
0000
,
2001
0100
0100
3100
,
1002
0100
0100
0103
,
0101
1010
1100
0011
,
1000
0001
1000
0001
0000
1000
0001
1000
0001
0000
0000
0000
2001
0000
0000
0000
,
3010
0000
0100
0000
0001
0010
0000
0010
0100
0000
0010
0000
0001
0000
1000
0000
,
0001
0000
0100
0000
0010
1000
0000
1000
0100
0000
1000
0000
0010
0000
0100
0000
,
0001
0000
1000
0000
0100
0010
0000
0010
0001
0000
1000
0000
0010
0000
0100
0000
,
0101
1100
0101
0010
,
0001
0100
0010
1000
0100
1000
0001
0000
,
1000
0100
0010
0001
1000
0001
0100
0000
,
0010
0100
0001
0001
0010
0100
1000
1000
,
0100
1000
0010
0100
0001
1000
0010
0000
,
1000
0100
1000
0000
0001
0100
0001
0000
,
1000
0100
0010
0001
1000
0001
0100
0000
,
0010
0100
1000
0100
0010
1000
0100
0010
,
0001
0000
0011
0000
0000
1100
0000
0000
0101
0000
0000
1001
0000
0000
0000
0000
,
0100
0000
0100
1000
0000
0000
0000
0000
0010
0000
0010
0100
0000
0000
0000
0000
,
0001
0000
0001
0010
0000
0000
0000
0000
0100
0000
0100
1000
0000
0000
0000
0000
,
0001
0000
0001
0100
0000
0000
0000
0000
0010
0000
0010
1000
0000
0000
0000
0000
,
0100
0000
0100
0010
0000
0000
0000
0000
0001
0000
0001
1000
0000
0000
0000
0000
,
0010
0000
0100
0001
0000
0000
0000
0000
0010
0000
0100
1000
0000
0000
0000
0000
,
0001
0000
1000
0010
0000
0000
0000
0000
0100
0000
0001
0010
0000
0000
0000
0000
,
0100
0000
0010
0001
0000
0000
0000
0000
1000
0000
0001
0100
0000
0000
0000
0000
,
1000
0000
1100
0000
0000
0011
0000
0000
1010
0000
0000
1001
0000
0000
0000
0000
,
0100
0000
0100
0000
0010
0100
0000
0000
0010
0000
0000
0000
0110
0000
0000
0000
,
1000
0000
1000
0000
0100
1000
0000
0000
0100
0000
0000
0000
1100
0000
0000
0000
,
0001
0000
0010
0000
0100
0000
1000
0000
0001
0000
0100
0010
0100
0010
0100
0000
,
0001
0000
0010
0000
0100
0000
1000
0000
0001
0000
0100
0010
0100
0010
0100
0000
,
0001
1000
0100
0010
,
0001
0000
0000
0000
1000
0000
0000
0000
0010
0000
0000
0000
0100
0001
0000
0000
,
1000
0000
0100
0000
0010
0000
0001
0000
1000
0000
0001
0000
0100
0010
0100
0010
,
1000
0000
0000
0000
0000
0000
0001
0100
0001
0000
1000
0100
1000
0000
0000
0000
,
0001
0100
0001
0000
1000
0000
0010
0000
0100
0001
0000
0001
1000
0000
0100
0000
,
0010
0100
0010
0000
0001
0000
1000
0000
0010
0100
0000
0100
0010
0000
1000
0000
,
0100
1000
0100
0000
0010
0000
0001
0000
1000
0010
0000
0010
0100
0000
0001
0000
,
2000
3100
0020
0031
,
1000
0010
1000
0000
0001
0000
0100
0000
0010
1000
0000
1000
0001
0000
0010
0000
,
0100
0010
0100
0000
1000
0000
0001
0000
0100
0010
0000
0010
0100
0000
0001
0000
,
0010
0000
0100
0000
1000
0001
0000
1000
0000
0000
0010
0000
1000
0000
0100
0000
,
0010
0000
0001
0000
1000
0001
0000
1000
0000
0000
0010
0000
1000
0000
0100
0000
,
1100
0000
0000
0000
0011
0000
0000
0000
1001
0000
0000
0100
0000
0001
0000
1000
,
0000
0000
0000
0000
0000
0000
0000
0000
0000
0000
0001
1000
0002
0000
0000
0000
,
0103
0000
0010
0000
1000
0100
0000
0100
0010
0000
0100
0000
1000
0000
0001
0000
,
1000
0000
0010
0000
0100
0001
0000
0001
0010
0000
0001
0000
0100
0000
0010
0000
,
1000
0000
0001
0000
0010
0100
0000
0100
1000
0000
0001
0000
0100
0000
0010
0000
,
1010
0000
1010
0000
1001
0000
1001
0000
0101
0000
0000
1001
0000
0000
1100
0000
,
0001
0100
0010
1000
,
0100
0000
0010
0000
0001
1000
0001
1000
,
0010
0100
0001
1000
,
0100
1000
0100
1000
0010
1000
0010
1000
,
0001
0100
0010
1000
,
0100
0010
0100
0010
0100
0010
0001
0000
,
1000
0001
0100
0010
,
1000
0001
0101
0110
,
1000
0100
1000
0000
0001
0100
0001
0000
,
1000
0100
1000
0000
0001
0100
0001
0000
,
1000
0100
0010
0001
,
1000
0010
0100
0001
,
1000
0100
1000
0100
1000
0100
1000
0100
,
0010
0001
0010
0001
0010
0001
0010
0100
,
0000
0000
0100
0000
1000
0100
0010
0001
,
0000
0000
0001
0000
0100
0001
1000
0010
,
0000
0000
0010
0000
1000
0010
0100
0001
,
0000
0010
0100
0000
0010
0001
0000
0010
,
0100
0000
1000
0000
0010
0100
0000
0001
,
0000
1000
0000
0001
0000
0101
0000
0000
,
0001
0010
0100
1000
0010
0100
0000
0001
,
0000
1000
0000
0100
0000
0010
0000
1001
,
0000
0000
0100
1000
0000
1100
0000
0000
,
0001
0000
0100
0000
0010
0000
1000
0000
0100
0000
0010
0000
,
2002
0000
0000
0000
,
0000
0000
0000
3003
,
0101
0000
0100
0000
0010
1000
0000
1000
0100
0000
0010
0000
0001
0000
1000
0000
,
0010
0000
0100
0000
0001
0010
0000
0010
0100
0000
1000
0000
0010
0000
0100
0000
,
0001
0000
1000
0000
0100
1000
0000
1000
0010
0000
0100
0000
0001
0000
1000
0000
,
1100
0011
0101
1010
,
0001
0000
0100
0010
1000
0010
0100
0000
0001
0000
1000
0000
0100
0000
0010
0000
,
0001
0000
1000
0010
0100
0010
1000
0000
0001
0000
0010
0000
0100
0000
1000
0000
,
0001
0000
0100
0010
0100
0001
1000
0000
0010
0000
0100
0000
0001
0000
1000
0000
,
1100
0000
0000
0000
0011
0000
0000
0000
0101
0000
0000
0010
0000
1000
0000
0001
,
0000
0000
0220
0000
0000
0000
0000
0330
;

//---------------dance-single - ----------------
#NOTES:
     dance-single:
     :
     Challenge:
     12:
     0.920911,1.000000,0.299662,0.073088,1.000000,831.000000,41.000000,10.000000,0.000000,0.000000,0.000000,0.920911,1.000000,0.299662,0.073088,1.000000,831.000000,41.000000,10.000000,0.000000,0.000000,0.000000:
// measure 0
0000
0000
0000
0000
,  // measure 1
0000
0000
0000
0000
,  // measure 2
1000
0000
0000
0000
0000
0000
0100
0000
0000
0000
0000
0000
1100
0000
0000
0000
0000
0000
1000
0000
0000
0100
0000
0000
0010
0000
0000
0001
0000
0000
1000
0000
0000
0000
0000
0000
0001
0000
0000
0000
0100
0000
0000
0000
0010
0000
0000
0000
,  // measure 3
1001
0000
0000
0000
,  // measure 4
0001
0000
0000
0000
0000
0000
0010
0000
0000
0000
0000
0000
0011
0000
0000
0000
0000
0000
0001
0000
0000
0010
0000
0000
0100
0000
0000
1000
0000
0000
0001
0000
0000
0000
0000
0000
1000
0000
0000
0000
0010
0000
0000
0000
0100
0000
0000
0000
,  // measure 5
1001
0000
1000
0100
1000
0100
0010
0001
0010
0001
0100
0010
0100
0010
0100
0010
,  // measure 6
1000
0000
0001
0010
0001
0010
0100
1000
0100
1000
0010
0100
0010
0100
0010
0100
,  // measure 7
0001
0000
0100
0001
1000
0000
0100
1000
0010
0000
0100
0001
0010
0000
0100
1000
,  // measure 8
0010
0000
0000
0100
0000
0000
0001
0000
0000
1000
0000
0000
0000
0000
0000
0010
0000
0000
0100
0000
0000
0001
0000
0000
1000
0000
0100
0000
1000
0000
0001
0000
0100
0000
0001
0000
2000
0000
0000
0000
0000
0000
0000
0000
0000
0000
0000
0000
,  // measure 9
3010
0100
0001
0010
0100
1000
0001
1000
0010
0100
0001
0010
0100
1000
0100
1000
,  // measure 10
0010
0100
0001
0010
0100
1000
0001
1000
0010
0100
0001
0010
0001
1000
0001
1000
,  // measure 11
0010
0100
0001
0010
0100
0010
0001
1000
0010
0100
0001
1000
0010
0100
0010
0100
,  // measure 12
0001
1000
0110
1001
,  // measure 13
0100
0000
0001
0000
0010
0100
0000
0100
0000
1000
0010
0000
0100
0000
0001
0000
,  // measure 14
1000
0000
0100
0000
0010
0001
0000
0001
0000
1000
0010
0000
0100
0000
0001
0000
,  // measure 15
0010
0000
0100
0000
0010
0001
0000
0001
0000
0100
0010
0000
1000
0000
0001
0000
,  // measure 16
0010
0000
0010
0000
0100
1000
0000
1000
0010
0100
0001
0000
1000
0000
0100
1000
,  // measure 17
0010
0000
1000
0000
0100
0010
0000
0010
0000
0001
0100
0000
0010
0000
1000
0000
,  // measure 18
0001
0000
0010
0000
0100
1000
0000
1000
0000
0001
0100
0000
0010
0000
1000
0000
,  // measure 19
0100
0000
0010
0000
0100
1000
0000
1000
0000
0010
0100
0000
0001
0000
1000
0000
,  // measure 20
1001
0000
0001
0100
0001
1000
0100
1000
0020
0000
0000
0130
0000
0000
0000
0000
,  // measure 21
0010
1000
0010
1000
0100
0000
1000
0000
0001
0100
0001
0100
0010
0000
1000
0000
,  // measure 22
0100
0010
0100
0010
0001
0000
1000
0000
0001
0100
0001
0100
0010
0000
1000
0000
,  // measure 23
0100
0010
0100
0010
0001
0000
1000
0000
0010
1000
0010
1000
0001
0000
0010
0000
,  // measure 24
0100
0010
0100
0010
0001
0000
1000
0000
0001
0100
0001
0100
0010
0000
1000
0000
,  // measure 25
0001
0010
0100
1000
0001
0000
0100
0000
0010
1000
0100
0010
0001
0000
1000
0000
,  // measure 26
0010
0100
0010
1000
0001
0000
1000
0000
0100
0010
0100
1000
0001
0000
0100
0000
,  // measure 27
0001
1000
0010
1000
0100
0000
0010
0000
0001
1000
0010
0100
0001
0000
1000
0000
,  // measure 28
1001
0000
1000
0010
1000
0001
0010
0001
0200
0000
0000
0310
0000
0000
0000
0000
,  // measure 29
0101
0000
0101
0000
0100
0001
1000
0000
1200
0000
0000
0000
0310
0000
0000
0000
,  // measure 30
0011
0000
0011
0000
0010
0001
1000
0000
1010
0000
0000
0000
1001
0000
0000
0000
,  // measure 31
0100
0001
0010
0100
1000
0010
0100
0001
0010
0100
0010
0001
1000
0010
0100
0001
,  // measure 32
0010
0100
0010
0001
1000
0010
0100
0001
1000
0100
0010
0001
0100
0010
0100
0001
,  // measure 33
1000
0000
0100
0000
1000
0001
1000
0000
0010
0100
0010
0000
1000
0100
1000
0000
,  // measure 34
0001
0000
1000
0000
0010
0100
0010
0000
1000
0100
1000
0000
0001
0010
0001
0000
,  // measure 35
1000
0000
0000
0000
0001
0000
0000
0000
0100
0000
0010
0000
0100
0000
0000
0000
0001
0010
0100
1000
0001
0000
0100
0000
0010
0000
0100
0000
0010
0000
1000
0000
,  // measure 36
0001
0000
0000
0000
0000
0000
0000
0000
0000
1000
0100
0010
0002
0000
0000
0000
0000
0000
2003
0000
0000
0000
0000
0000
,  // measure 37
3010
0100
0010
0100
0001
0000
1000
0000
0100
0010
0100
0000
0010
0001
0010
0000
,  // measure 38
0001
1000
0001
1000
0100
0000
1000
0000
0001
0100
0001
0000
1000
0100
1000
0000
,  // measure 39
0001
0010
0001
0010
0100
0000
1000
0000
0010
0100
0010
0000
1000
0100
1000
0000
,  // measure 40
0001
0100
0001
0100
0010
0000
1000
0000
1100
0000
1000
0000
1001
0000
0000
0000
,  // measure 41
0100
0010
0100
0010
1000
0000
0001
0000
0010
0100
0010
0000
0100
1000
0100
0000
,  // measure 42
1000
0001
1000
0001
0010
0000
0001
0000
1000
0010
1000
0000
0001
0010
0001
0000
,  // measure 43
1000
0100
0010
0001
1000
0000
0001
0000
0100
0000
0100
0000
0010
0000
1000
0000
,  // measure 44
0001
0010
0100
1000
0001
0000
1000
0000
0010
0000
0010
0000
0100
0010
0100
0010
,  // measure 45
1000
0000
0000
0000
0001
0000
0000
0000
0100
0000
0001
0101
0000
1100
0000
1001
,  // measure 46
0000
0000
0000
0000
0000
0000
0000
0000
0000
0000
0001
0100
0010
0000
0000
0000
,  // measure 47
0100
0010
1000
0100
0010
0001
1000
0001
0100
0010
1000
0100
0010
0001
0010
0001
,  // measure 48
0100
0010
1000
0100
0010
0001
1000
0001
0100
0010
1000
0100
1000
0001
1000
0001
,  // measure 49
0100
0010
1000
0100
0010
0100
1000
0001
0100
0010
1000
0001
0100
0010
0100
0010
,  // measure 50
1000
0000
0100
0000
0001
0000
0100
0000
1000
0000
0000
1100
0000
0000
0011
0000
,  // measure 51
1000
0100
0010
0001
0100
0010
1000
0001
,  // measure 52
0100
0010
0100
0010
1000
0010
1000
0010
,  // measure 53
0100
0001
0010
0100
1000
0001
0100
0010
,  // measure 54
1000
0001
1000
0001
0100
0010
0100
0010
,  // measure 55
1000
0100
0010
0001
1000
0010
0100
0001
,  // measure 56
1000
0100
0010
0001
1000
0010
0100
0001
1000
0010
1000
0001
,  // measure 57
0100
0010
0100
0001
0010
0100
1000
0001
1000
0010
0100
0001
,  // measure 58
1000
0100
0010
0001
0100
0001
1000
0000
0000
0110
0000
0000
,  // measure 59
1000
0001
1000
0100
0010
0001
1000
0010
,  // measure 60
0100
0001
0010
0100
1000
0001
1000
0010
,  // measure 61
0100
0001
0010
0100
1000
0001
0100
0010
,  // measure 62
1000
0001
0010
0100
1000
0001
0100
0010
,  // measure 63
1000
0001
1000
0001
1000
0001
1000
0001
,  // measure 64
0100
0010
0100
0010
0100
0010
0100
0001
,  // measure 65
0000
0000
0001
0001
0100
0010
1000
0001
,  // measure 66
0000
0000
1000
1000
0100
0010
0001
1000
,  // measure 67
0000
0000
0010
0010
1000
0100
0010
0001
,  // measure 68
0000
0000
1000
0000
0010
0100
0010
0000
0100
0000
0001
1000
0001
0000
0010
0000
,  // measure 69
0100
0000
1000
0000
0010
0000
1000
0000
0001
0000
0100
0000
0001
0000
0000
1000
0000
0000
0000
0000
0000
1100
0000
0000
,  // measure 70
0000
1010
0000
1001
0000
0101
0000
0000
,  // measure 71
0001
0100
0001
0000
1000
0010
1000
0000
0001
0000
0011
0000
0000
0000
0101
0000
,  // measure 72
0000
1001
0000
1100
0000
1001
0000
0101
,  // measure 73
0000
0000
0000
1000
0000
0100
0000
0010
0000
0001
0000
0000
0000
0000
0000
1001
0000
0000
0000
0000
0000
0000
0000
0000
,  // measure 74
0101
0000
0100
0000
0010
0000
1010
0000
1000
0000
0001
0000
,  // measure 75
2002
0000
0000
0000
,  // measure 76
0000
0000
0000
3003
,  // measure 77
0100
0000
0010
1000
0010
0000
0100
0001
0000
1000
0000
0100
0010
0000
0001
0000
,  // measure 78
1000
0000
0001
0100
0001
0000
1000
0100
0000
0010
0000
0001
1000
0000
0010
0000
,  // measure 79
0100
0000
0001
1000
0001
0000
0010
0100
0000
1000
0000
0010
0100
0000
0001
0000
,  // measure 80
1000
0100
1000
0000
0001
0100
0001
0000
1000
0010
1000
0000
0001
0010
0001
0000
,  // measure 81
1000
0100
0010
0001
0100
0010
1000
0001
0100
0010
1000
0001
0010
0100
0010
0100
,  // measure 82
1000
0001
0100
0010
1000
0100
0010
0001
1000
0010
0100
0001
1000
0010
1000
0010
,  // measure 83
0100
0001
1000
0100
0010
0001
1000
0010
0100
0001
1000
0100
0010
0001
1000
0001
,  // measure 84
0100
0000
0000
0000
0010
0000
0000
0000
1000
0000
0010
1010
0000
1001
0000
0101
,  // measure 85
0000
0000
0000
0000
0100
0000
0010
0000
2002
0000
0000
0000
0000
0000
0000
0000
0000
0000
0000
0000
0000
0000
3003
0000
0000
0000
1000
0100
0010
0001
0000
0000
;

//---------------dance-single - ----------------
#NOTES:
     dance-single:
     :
     Medium:
     7:
     0.454191,0.533498,0.328897,0.270426,0.003654,353.000000,45.000000,37.000000,0.000000,0.000000,0.000000,0.454191,0.533498,0.328897,0.270426,0.003654,353.000000,45.000000,37.000000,0.000000,0.000000,0.000000:
0000
0000
0000
0000
,
0000
0000
0000
0000
,
1000
0100
0001
0010
,
1001
0000
0000
0000
,
0001
0100
1000
0010
,
1002
0100
0100
0103
,
2001
0100
0100
3100
,
1001
0110
1001
0110
,
1000
0100
0010
0001
1000
0000
0000
0000
,
0001
0010
0002
0000
0103
0000
0010
0000
,
1000
0100
2000
0000
3010
0000
0100
0000
,
0001
1000
0002
0000
0013
0000
0100
0000
,
1001
1001
1001
0010
,
1000
0000
0001
0000
0100
0001
0100
0000
,
0010
0000
1000
0000
0100
0010
0100
0000
,
1000
0001
0100
0100
,
0010
0000
1000
0000
0100
0010
0001
0000
,
1000
1000
0001
0001
,
0100
0010
1000
0000
,
0001
0100
0001
0000
1000
0000
0100
0010
,
0001
1000
0001
0000
,
1000
1000
0000
0000
0001
0001
0000
0000
,
0100
0100
0000
0000
0010
0010
0000
0000
,
1000
0100
0000
0000
0010
0001
0000
0000
,
1000
0010
0000
0000
0100
0001
0000
0000
,
1000
0100
1000
0000
0001
0100
0001
0000
,
1000
0010
1000
0000
0001
0010
0001
0000
,
1000
0001
1000
0000
0100
0010
0100
0000
,
0110
1001
0101
0000
,
1000
0100
1100
0000
,
0001
0100
0101
1001
,
0010
1000
0010
1000
0001
0100
0001
0100
,
0001
1000
0001
1000
0100
0010
0100
0010
,
0001
0010
1000
0100
,
0001
0100
1000
0010
,
0001
1000
0001
1000
,
0010
0000
0110
1001
,
1000
0100
1000
0000
0001
0010
0100
0000
,
2000
3001
0200
0310
,
0100
0001
1000
0000
0001
0010
0001
0000
,
1100
0110
0011
1001
,
1000
0010
1000
0000
0001
0100
0010
0000
,
0200
0301
2000
3100
,
0010
0001
0010
0000
0001
1000
0010
0000
,
1000
0100
1000
0000
0010
1000
0001
0000
,
0101
1100
0011
1000
,
0001
0000
0000
0100
,
0001
1000
0001
0000
0020
0000
0130
0000
,
1000
0001
1000
0000
0020
0000
0130
0000
,
0001
0100
0001
0000
1000
0100
1000
0000
,
0001
0000
1000
0000
0001
0000
1000
0000
0010
0000
0000
0010
0000
0000
0010
0000
,
0100
0001
1000
0100
,
0020
0000
0000
0032
0000
0000
1003
0000
,
0010
0100
0001
1000
,
0200
0000
0000
0320
0000
0000
0031
0000
,
1000
0010
0100
0001
,
2000
0000
0000
3200
0000
0000
1300
0000
,
0001
0100
0010
1000
,
0100
0010
0001
1000
,
0020
0130
0002
1003
,
0200
0310
0002
1003
,
0020
0130
0002
0013
,
0200
1300
0002
0103
,
0010
1000
0010
1000
0010
1000
0010
0000
,
1000
0001
1000
0001
1000
0001
1000
0010
,
0000
0000
0000
0000
1000
0000
0000
1100
,
0000
0000
0000
0000
0001
0000
0000
0101
,
0000
0000
0000
0000
1000
0000
0000
1001
,
0000
0000
0000
0000
,
0000
0000
0000
0000
0000
1010
0000
1010
,
0000
1001
0000
1001
0000
0101
0000
0000
,
0000
0000
0000
0000
0000
0101
0000
0101
,
0000
1001
0000
1001
0000
1100
0000
2002
,
0000
3003
0000
0000
0000
0110
0000
0000
,
0002
0003
2000
3000
,
2002
0000
0000
0000
,
0000
0000
0000
3003
,
0200
0000
0310
0000
1000
0010
0100
0000
,
0002
0000
1003
0000
0100
0010
0001
0000
,
2000
3100
0020
0031
,
1000
0001
1000
0000
0010
0100
0001
0000
,
1000
0100
1000
0010
1000
0001
1000
0000
,
0001
0100
0001
0010
0001
1000
0001
0000
,
0100
0010
1000
0000
0100
0010
0001
0000
,
1100
0011
1001
0010
,
0100
0000
2002
0000
0000
0000
0000
3003
;

//---------------dance-single - ----------------
#NOTES:
     dance-single:
     :
     Easy:
     4:
     0.224485,0.376587,0.073088,0.190029,0.000000,179.000000,10.000000,26.000000,0.000000,0.000000,0.000000,0.224485,0.376587,0.073088,0.190029,0.000000,179.000000,10.000000,26.000000,0.000000,0.000000,0.000000:
0000
0000
0000
0000
,
0000
0000
0000
0000
,
1000
0001
0100
0010
,
1001
0000
0000
0000
,
0001
0010
0001
1000
,
2002
0000
0000
3003
,
0220
0000
0000
0330
,
1000
1000
0001
0001
,
0100
0000
0000
0010
,
1000
0100
1000
0000
,
0001
1000
0001
0000
,
0100
0001
0100
0000
,
0010
0010
0010
0000
,
1000
0000
0001
0000
,
0100
0000
0010
0000
,
1000
0000
0100
0000
,
0010
0001
1000
0000
,
0001
0000
0100
0000
,
0010
1000
0100
0000
,
1000
0000
0001
0000
,
0100
0100
0100
0000
,
0002
0003
0000
0000
2000
3000
0000
0000
,
0200
0300
0000
0000
0020
0030
0000
0000
,
0002
0003
0000
0000
2000
3000
0000
0000
,
0020
0030
0000
0000
0200
0300
0000
0000
,
0002
0003
2000
3000
,
0200
0300
0020
0030
,
0002
0003
2000
3000
,
0010
0010
0010
0000
,
1000
1000
0001
0000
,
0010
0010
0100
0000
,
0010
0001
0100
0010
,
1000
0100
0010
0001
,
2000
0000
0000
3000
,
0002
0000
0000
0003
,
0100
0100
0010
0010
,
1000
0000
1001
1001
,
0100
0000
0010
0000
,
0001
0010
0100
0000
,
1000
0000
0001
0000
,
1000
0010
0100
0000
,
0010
0000
1000
0000
,
0100
0010
0001
0000
,
1000
0001
1000
0000
,
0001
1000
0001
0000
,
0100
0100
0100
0000
,
0010
0000
0000
0000
,
1000
0000
0001
0000
,
0010
0000
0100
0000
,
1000
0000
0001
0000
,
2002
0000
0000
3003
,
0010
0000
0000
0000
,
1000
0000
0000
0000
,
0100
0000
0000
0000
,
0010
0000
0000
0000
,
0001
0000
0000
0000
,
1000
0000
0000
0000
,
0010
0000
0000
0000
,
0010
0000
0000
0000
,
1000
0000
1000
0000
,
0001
0000
0001
0000
,
0100
0000
0100
0000
,
0010
0000
0010
0000
,
1000
0000
0100
0000
,
0010
0000
0001
0000
,
1000
0000
0000
0000
,
0001
0000
0000
0000
,
0100
0000
0000
0000
,
1001
0000
0000
0000
,
0000
0000
0000
0000
0000
1000
0000
0000
,
0000
0000
0000
0000
0000
0001
0000
0000
,
0000
0000
0000
0000
0000
0100
0000
0000
,
0000
0000
0000
0000
0000
0010
0000
0010
,
0000
0000
0000
0000
0000
1001
0000
0000
,
0000
0000
0000
0000
,
2002
0000
0000
0000
,
0000
0000
0000
3003
,
0100
0010
1000
1000
,
0100
0010
0001
0001
,
1000
0000
0001
0000
,
0100
0100
0100
0000
,
0001
1000
0001
0000
,
1000
0100
0010
0000
,
0001
1000
0010
0000
,
0100
0010
1000
0001
,
0100
0000
2002
0000
0000
0000
0000
3003
;

//---------------dance-single - ----------------
#NOTES:
     dance-single:
     :
     Beginner:
     2:
     0.140956,0.218077,0.051162,0.000000,0.000000,128.000000,7.000000,0.000000,0.000000,0.000000,0.000000,0.140956,0.218077,0.051162,0.000000,0.000000,128.000000,7.000000,0.000000,0.000000,0.000000,0.000000:
0000
0000
0000
0000
,
0000
0000
0000
0000
,
0100
0000
0100
0000
,
0010
0000
0000
0000
,
1000
0000
1000
0000
,
1001
0000
0000
0000
,
0100
0000
0000
0000
,
0010
0000
0010
0000
,
0010
0000
0000
0001
,
0001
0000
1000
0000
,
0010
0000
0010
0000
,
1000
0000
0001
0000
,
0100
0100
0100
0000
,
1001
0000
0000
0000
,
0100
0000
0000
0000
,
1000
0000
0000
0000
,
0010
0000
0010
0000
,
0100
0000
0000
0000
,
0001
0000
0000
0000
,
0010
0000
0010
0000
,
0100
0000
0000
0000
,
1001
0000
0100
0000
,
1000
0000
0000
0000
,
0010
0000
1000
0000
,
0001
0000
0000
0000
,
0100
0000
0010
0000
,
1000
0000
0000
0000
,
0100
0000
0010
0000
,
0001
0000
0000
0000
,
1000
0000
1000
0000
,
0001
0000
0001
0000
,
0100
0100
0100
0000
,
0010
0010
0010
0000
,
1000
0000
0000
0000
,
0001
0000
0000
0000
,
0010
0000
0010
0000
,
1001
0000
0100
0100
,
0100
0000
1000
0000
,
0010
0000
0010
0000
,
0100
0000
0001
0001
,
0001
0000
0000
0000
,
1000
0000
0001
0000
,
0010
0000
0010
0000
,
0100
0100
0000
0000
,
1000
1000
0000
0000
,
0001
0001
0001
0000
,
1001
0000
0000
0000
,
0010
0000
0100
0000
,
0001
0000
0001
0000
,
0010
0000
0100
0000
,
1000
0000
0000
0000
,
0010
0000
0000
0000
,
1000
0000
0000
0000
,
0100
0000
0000
0000
,
0010
0000
0000
0000
,
0001
0000
0000
0000
,
1000
0000
0000
0000
,
0010
0000
0000
0000
,
0100
0000
0000
0000
,
0001
0000
0000
0000
,
0001
0000
0000
0000
,
1000
0000
0000
0000
,
1000
0000
0000
0000
,
0100
0000
0100
0000
,
0100
0000
0100
0000
,
0100
0000
0000
0000
,
1000
0000
0000
0000
,
0001
0000
0000
0000
,
0100
0000
0000
0000
,
0000
0000
0000
0000
,
0000
0000
0000
0000
,
0000
0000
0000
0000
,
0000
0000
0000
0000
,
0000
0000
0000
0000
,
1000
0000
0001
0000
,
1001
0000
0000
0000
,
0000
0000
0000
0000
,
0100
0000
1000
0000
,
0001
0001
0000
0000
,
0100
0000
0010
0000
,
1000
1000
1000
0000
,
0001
0000
1000
0000
,
0100
0100
0000
0000
,
0010
0000
0001
0000
,
0100
0100
0100
0000
,
0000
1001
0000
0000
;

//---------------dance-double - ----------------
#NOTES:
     dance-double:
     :
     Challenge:
     9:
     0.557559,0.597131,0.277735,0.043853,0.233882,490.000000,38.000000,6.000000,0.000000,0.000000,0.000000,0.557559,0.597131,0.277735,0.043853,0.233882,490.000000,38.000000,6.000000,0.000000,0.000000,0.000000:
00000000
00000000
00000000
00000000
,
00000000
00000000
00000000
00000000
,
10000000
00000000
00000000
01000000
00000000
00000000
00010000
00000000
00000000
01000000
00000000
00000000
10000000
00000000
00000000
00100000
00000000
00000000
01000000
00000000
00010000
00000000
00100000
00000000
,
00001000
00000000
00000000
00000000
,
00000001
00000000
00000000
00000010
00000000
00000000
00001000
00000000
00000000
00000010
00000000
00000000
00000001
00000000
00000000
00000100
00000000
00000000
00000010
00000000
00001000
00000000
00000100
00000000
,
00010000
00001000
00001000
00100000
00010000
01000000
00100000
10000000
,
11000000
01000000
00100000
00010000
01000000
01000000
00010000
00100000
,
00110000
00101000
00011000
00010100
,
00001000
00000001
00001000
00000001
00000000
00001000
00000000
00000001
00001000
00000000
00000000
00000000
00000010
00000000
00000000
00000000
,
00001000
00000100
00000010
00000001
00000100
00000010
00001000
00001000
,
00000010
00000100
00000001
00000010
00000100
00001000
00000100
00000100
,
00001000
00000100
00010000
00001000
00100000
00010000
01000000
01000000
,
01010000
01001000
01010000
10010000
,
10000000
00000000
00100000
00000000
01000000
00000000
00010000
10000000
00000000
10000000
00010000
00000000
01000000
00000000
00100000
00000000
,
10000000
00000000
01000000
00000000
00100000
00000000
00010000
01000000
00000000
01000000
00010000
00000000
00100000
00000000
00000000
00000000
,
00010000
00000000
00100000
00000000
00001000
00000000
00010000
00001000
00000000
00001000
00010000
00000000
00000100
00000000
00001000
00000000
,
00000010
00000000
00000100
00000000
00001000
00000000
00000100
00000010
00000000
00000010
00001000
00000000
00000100
00000000
00000000
00000000
,
00001000
00000000
00000100
00000000
00001000
00000000
00000010
00000100
00000000
00000001
00001000
00000000
00000010
00000000
00000100
00000000
,
00000001
00000000
00000010
00000000
00000100
00000000
00001000
00000100
00000000
00010000
00001000
00000000
00100000
00000000
00001000
00000000
,
00010000
00000000
00001000
00000000
00100000
00000000
00010000
01000000
00000000
00100000
10000000
00000000
01000000
00000000
10000000
00000000
,
00100000
00000000
01000000
00000000
00000000
01000000
00000000
00000000
01000000
00000000
00000000
01000000
00000000
00000000
00000000
00000000
,
00010000
01000000
00010000
01000000
00000000
00000000
00000000
00000000
00100000
00000000
10000000
00000000
00010000
00000000
00000000
00000000
,
10000000
01000000
10000000
01000000
00000000
00000000
00000000
00000000
10000000
00000000
00010000
00000000
00100000
00000000
00000000
00000000
,
00010000
10000000
00010000
10000000
00000000
00000000
00000000
00000000
10000000
00000000
00010000
00000000
00100000
00000000
00000000
00000000
,
00001000
00100000
00001000
00100000
00000000
00000000
00000000
00000000
00100000
00000000
00001000
00000000
00010000
00000000
00000000
00000000
,
00000100
00001000
00000100
00001000
00000000
00000000
00000000
00000000
00000010
00001000
00000010
00001000
00000000
00000000
00000000
00000000
,
00000001
00000100
00000001
00000100
00000000
00000000
00000000
00000000
00000001
00001000
00000001
00001000
00000000
00000000
00000000
00000000
,
00000100
00001000
00000100
00001000
00000000
00000000
00000000
00000000
00000100
00010000
00000100
00010000
00000000
00000000
00000000
00000000
,
00001000
00010000
00001000
00000000
00000000
00010000
00000000
00000000
00000100
00000000
00000000
00000000
00001100
00000000
00000000
00000000
,
00000001
00001000
00000010
00000000
00000101
00000000
00000000
00000000
,
00000010
00000000
00001000
00000000
00000100
00010000
00000000
00000000
00001000
00000000
00000000
00000000
00000000
00000000
00000000
00000000
,
00010000
00000000
00001000
00000000
00100000
00000000
00010000
00000000
10000000
00000000
00100000
00000000
01000000
00000000
00010000
10000000
,
00010000
01000000
00100000
10000000
01000000
00100000
00010000
01000000
,
00200000
01000000
10000000
01300000
,
00020000
01000000
00100000
10030000
,
10000000
01000000
00100000
00010000
01000000
01000000
00010000
00100000
,
00001000
00000000
00101000
00010100
,
00001000
00000000
00000010
00000000
00000100
00000000
00000001
00000000
00001000
00000010
00000000
00000100
00000000
00000000
00000001
00000000
,
00001000
00000000
00000100
00000000
00000010
00000000
00000001
00001000
00000010
00000000
00001000
00000001
00000000
00000000
00000100
00000000
,
00000010
00001000
00000100
00010000
00001000
00100000
00010000
10000000
,
10100000
00110000
01010000
11000000
,
00010000
00000000
10000000
00000000
00100000
00000000
01000000
00000000
00010000
10000000
00000000
00100000
00000000
00000000
10000000
00000000
,
01000000
00000000
00100000
00000000
00010000
00000000
01000000
00000000
00100000
00000000
10000000
00010000
00000000
00000000
00000000
00000000
,
00100000
00100000
00010000
10000000
01000000
00000000
11000000
00000000
,
10000000
10000000
00100000
01000000
01010000
00000000
10000000
00010000
,
01000000
00000000
00000000
00000000
00100000
00000000
00000000
00000000
10000000
00000000
00000000
00010000
00000000
10000000
00000000
01000000
,
00000000
00000000
00000000
00000000
00000000
00100000
10010000
00000000
,
10000000
01000000
00010000
00001000
00000100
00000001
00001000
00001000
,
00000001
00000100
00001000
00010000
01000000
10000000
00010000
00010000
,
10000000
01000000
00010000
00001000
00000100
00000001
00001000
00001000
,
00000010
00000000
00000100
00000000
00000010
00000000
00000100
00000000
00000010
00000000
00000000
00000110
00000000
00000000
00001001
00000000
,
00000001
00000100
00000010
00001000
,
00000100
00010000
00001000
00100000
,
00010000
10000000
00100000
01000000
,
00010000
10000000
00010000
10000000
,
00100000
01000000
00010000
00100000
,
00001000
00010000
00000100
00001000
,
00000010
00000100
00000001
00000010
,
00000100
00001000
00000001
00000000
,
00001000
00000100
00001000
00000000
00000100
00000000
00001000
00000000
,
00000010
00001000
00000010
00000000
00001000
00000000
00000100
00000000
,
00000010
00000001
00000010
00000000
00000001
00000000
00000100
00000000
,
00000010
00001000
00000010
00000000
00000100
00000000
00000001
00000000
,
00001000
00001000
00000100
00000100
,
00010000
00000000
00010000
00000000
00001000
00000000
00100000
00010000
,
00000000
00000000
00100000
00000000
00010000
00000000
10000000
00100000
,
00000000
00000000
01000000
00000000
01000000
00000000
00010000
10000000
,
00000000
00000000
00100000
00000000
01000000
00000000
00010000
10000000
,
00000000
00000000
00000000
00000000
,
00000000
00000000
00000000
00000000
00000000
11000000
00000000
00110000
,
00000000
10100000
00000000
01100000
00000000
10010000
00000000
00000000
,
00000000
00000000
00000000
00000000
00000000
01010000
00000000
00011000
,
00000000
00001100
00000000
00000101
00000000
00001001
00000000
00000110
,
00000000
00000000
00000000
00000000
00000000
00001001
00000000
00000000
,
00000101
00000000
00001100
00000000
,
00022000
00000000
00000000
00000000
,
00000000
00000000
00000000
00033000
,
00001000
00010000
00001000
00100000
00010000
01000000
00100000
10000000
,
01000000
00000000
01000000
00000000
10000000
00000000
00100000
01000000
00000000
01000000
00100000
00000000
10000000
00000000
01000000
00000000
,
00100000
00010000
01000000
00010000
00100000
00001000
00010000
00000100
,
00000010
00000010
00000100
00001000
00000010
00000010
00000100
00000000
,
00000001
00000100
00001000
00000100
00000010
00001000
00000100
00010000
,
00001000
00100000
00010000
10000000
00100000
01000000
00010000
10000000
,
01000000
00010000
00001000
00010000
00100000
10000000
01000000
00100000
,
00010000
00000000
00000000
00000000
10000000
00000000
00000000
00000000
00100000
00000000
00000000
01000000
00000000
00010000
00000000
10000000
,
00000000
02002000
00000000
00000000
,
03003000
00000000
00000000
00000000
;
