#TITLE:Sing It Back;
#SUBTITLE:(Boris Musical Mix);
#ARTIST:Moloko;
#TITLETRANSLIT:;
#SUBTITLETRANSLIT:;
#ARTISTTRANSLIT:;
#GENRE:Pop;
#CREDIT:;
#BANNER:Sing It Back (Boris Musical Mix).png;
#BACKGROUND:Sing It Back (Boris Musical Mix)-bg.png;
#LYRICSPATH:;
#CDTITLE:;
#MUSIC:Sing It Back (Boris Musical Mix).ogg;
#OFFSET:-0.004000;
#SAMPLESTART:58.528896;
#SAMPLELENGTH:13.714000;
#SELECTABLE:YES;
#BPMS:0.000000=123.000000
;
#STOPS:
;
#BGCHANGES:4.000=Sing It Back (Boris Musical Mix).avi=1.000=0=0=1=====,
99999=-nosongbg-=1.000=0=0=0 // don't automatically add -songbackground-
;
#KEYSOUNDS:;
#ATTACKS:;

//---------------dance-single - ----------------
#NOTES:
     dance-single:
     :
     Hard:
     7:
     0.387862,0.397458,0.125955,0.097965,0.101464,356.000000,18.000000,14.000000,0.000000,0.000000,0.000000,0.387862,0.397458,0.125955,0.097965,0.101464,356.000000,18.000000,14.000000,0.000000,0.000000,0.000000:
0000
0000
0000
0000
,
0000
0000
0000
0000
,
1000
0000
1000
0000
0100
1000
0010
0000
,
0100
0000
0100
0000
0010
1000
0001
0000
,
0001
0000
0001
0000
0010
0001
0100
0000
,
0010
0000
0010
0000
0100
0001
1000
0000
,
1001
0000
0000
0000
0000
0000
0000
0000
1000
0000
0000
0001
0000
0000
0100
0000
,
0000
0000
0000
0000
0000
0000
0000
0000
0001
0000
0000
1000
0000
0000
0010
0000
,
0000
0000
0000
0000
0000
0000
0000
0000
1000
0000
0000
0100
0000
0000
0010
0000
,
0000
0000
0001
1000
0001
1000
0001
0000
,
1000
0000
0000
0000
0000
0000
0000
0000
0001
0000
0000
1000
0000
0000
0010
0000
,
0000
0000
0000
0000
0000
0000
0000
0000
0100
0000
0000
0010
0000
0000
1000
0000
,
0000
0000
0000
0000
0000
0000
0000
0000
0100
0000
0000
1000
0000
0000
0001
0000
,
0000
0000
1000
0001
1000
0001
1000
0000
,
0002
0000
0103
0000
0010
0100
0010
0000
,
2000
0000
3010
1000
0001
0000
0010
0000
,
0001
0000
0000
1000
0000
0000
0010
0000
0100
0000
0000
0001
0000
0000
1000
0000
,
0200
0010
0310
0001
,
0001
0000
0010
0001
1000
0000
0001
0000
,
0200
0000
0310
1000
0100
0000
0000
0000
,
1000
0000
0010
0000
0100
0010
0100
0000
,
0001
1000
0010
0000
1000
0001
0010
0000
,
0001
0000
0000
0100
0000
0000
0010
0000
0000
0000
0100
0000
0001
0000
0010
0000
,
0100
0000
0000
1000
0000
0000
0010
0000
0000
0000
1000
0000
0100
0000
0010
0000
,
0001
0000
0000
1000
0000
0000
0010
0000
0100
0000
0001
0000
0100
0000
0100
0000
,
0010
0000
0000
1000
0000
0000
0001
0000
0010
0000
0001
0000
0010
0000
0010
0000
,
0001
0000
0000
0100
0000
0000
0010
0000
0000
0000
1000
0000
0100
0000
0010
0000
,
0001
0000
0000
1000
0000
0000
0010
0000
0000
0000
1000
0000
0100
0000
1000
0000
,
0001
0000
0000
0100
0000
0000
0010
0000
1000
0000
0100
0000
1000
0000
1000
0000
,
0010
0000
0000
0100
0000
0000
0001
0000
1000
0000
0001
0000
0100
0010
0100
0000
,
0010
0000
0000
0000
1000
0000
0010
0000
0100
0000
0000
0001
0000
0000
1000
0000
,
0100
0000
0000
0000
1000
0000
0100
0000
0010
0000
0000
0001
0000
0000
1000
0000
,
0010
0000
0000
0000
0100
0000
0010
0000
1000
0000
0000
0001
0000
0000
0010
0000
,
0001
0000
1000
1000
0001
0001
0100
0000
,
0001
0000
0000
0000
1000
0000
0001
0000
1000
0000
0000
0010
0000
0000
0100
0000
,
0001
0000
0000
0000
1000
0000
0100
0000
0010
0000
0000
0001
0000
0000
1000
0000
,
0010
0000
0000
0000
0100
0000
0010
0000
1000
0000
0000
0001
0000
0000
0010
0000
,
0001
0000
0100
0100
0001
0001
1000
0000
,
0101
0000
1000
0001
1000
0000
0010
0000
,
2200
0000
0000
3300
,
1000
0000
0100
1000
0010
0000
0100
0000
,
0202
0000
0000
0303
,
0001
0000
0100
0010
0100
0000
0001
1000
,
0010
0000
1000
0100
0010
0000
0000
0000
,
0001
0010
0001
1000
0001
0000
1000
0000
,
0020
0100
0130
0000
,
0001
0000
1000
0100
1000
0000
0100
0001
,
0100
0000
0001
0010
0001
0000
1001
0000
,
0000
0000
0001
0100
0001
0000
0100
1000
,
0100
0000
1000
0010
1000
0000
1001
0000
,
1000
0000
0010
0100
0001
0000
0010
0100
,
1000
0000
0010
0100
0001
1000
0001
0000
,
1000
0000
0010
1000
1100
0000
0010
0100
,
0101
0000
0010
0100
0010
0100
0001
0000
,
0101
0000
0001
0100
0010
0010
1000
0000
,
1100
0000
1000
0010
0100
0100
0001
0000
,
1000
0000
0001
0100
1000
0000
0001
0100
,
1000
0000
0001
0100
1000
0100
0001
0000
,
1010
0000
0010
1000
0100
0000
0100
0010
,
0001
0000
0001
1000
0010
0000
0010
0100
,
0001
1000
0001
0000
1000
0100
0010
0000
,
0002
2003
3020
0130
,
0010
0000
0000
0000
0110
0000
0000
0000
0001
0000
0000
0100
0000
0000
0010
0000
,
1000
0000
0000
0000
1100
0000
0000
0000
0100
0000
0000
1000
0000
0000
0001
0000
,
0100
0000
0000
0000
0101
0000
0000
0000
0001
0000
0000
1000
0000
0000
0010
0000
,
0100
0000
0001
1000
0001
1000
0010
0000
,
1000
0000
0000
0000
1100
0000
0000
0000
0100
0000
0000
1000
0000
0000
0010
0000
,
0100
0000
0000
0000
0110
0000
0000
0000
0100
0000
0000
0001
0000
0000
0010
0000
,
0001
0000
0000
0000
0011
0000
0000
0000
0001
0000
0000
1000
0000
0000
0001
0000
,
0100
0000
0001
1000
0001
1000
0010
0000
,
2002
0000
0000
0000
,
3003
0000
0000
0000
;

//---------------dance-double - ----------------
#NOTES:
     dance-double:
     :
     Challenge:
     7:
     0.430847,0.471982,0.090968,0.076973,0.108461,407.000000,13.000000,11.000000,0.000000,0.000000,0.000000,0.430847,0.471982,0.090968,0.076973,0.108461,407.000000,13.000000,11.000000,0.000000,0.000000,0.000000:
00000000
00000000
00000000
00000000
,
00000000
00000000
00000000
00000000
,
10000000
01000000
00100000
00000000
00010000
00000000
10000000
00000000
,
00010000
01000000
00100000
00000000
10000000
00000000
00010000
00000000
,
00100000
00010000
01000000
00000000
00010000
00100000
00001000
00000000
,
00100000
00001000
00010000
00000000
00000100
00010000
00001000
00000000
,
00010200
00000000
00000000
00000000
00001300
00000000
00000000
00000000
00000100
00000000
00000000
00001000
00000000
00000000
00000010
00000000
,
00000100
00000000
00000000
00000000
00000001
00000000
00000000
00000000
00000010
00000000
00000000
00000001
00000000
00000000
00001000
00000000
,
00000010
00000000
00000000
00000000
00000100
00000000
00000000
00000000
00000001
00000000
00000000
00000010
00000000
00000000
00000100
00000000
,
00001000
00000000
00000001
00000100
00001000
00010000
00200000
00000000
,
10300000
00000000
00000000
00000000
01000000
00000000
00000000
00000000
10000000
00000000
00000000
00100000
00000000
00000000
01000000
00000000
,
00010000
00000000
00000000
00000000
00100000
00000000
00000000
00000000
00010000
00000000
00000000
01000000
00000000
00000000
00100000
00000000
,
10000000
00000000
00000000
00000000
00010000
00000000
00000000
00000000
00100000
00000000
00000000
00010000
00000000
00000000
10000000
00000000
,
00010000
00000000
10000000
00100000
00010000
00001000
00000020
00000000
,
00000031
00001000
00000001
00001000
00000010
00000000
00000100
00000000
,
00000001
00000100
00000010
00000000
00001000
00000100
00000010
00000000
,
00000001
00000000
00000000
00000100
00000000
00000000
00000010
00000000
00001000
00000000
00000000
00000100
00000000
00000000
00010000
00000000
,
00002000
00000000
00103000
00000000
00010000
10000000
00100000
00000000
,
10000000
00010000
10000000
00010000
01000000
00000000
00100000
00000000
,
10000000
00000000
01000000
10000000
00100000
00000000
01000000
00000000
,
00010000
00000000
00100000
00000000
01000000
00100000
00010000
00000000
,
01000000
00010000
10000000
00000000
00100000
10000000
00010000
00000000
,
01010000
00000000
00000000
01000000
00000000
00000000
00100000
00000000
00000000
00000000
10000000
00000000
00100000
00000000
01000000
00000000
,
00010000
00000000
00000000
00100000
00000000
00000000
00001000
00000000
00000000
00000000
00010000
00000000
00001000
00000000
00010000
00000000
,
00000100
00000000
00000000
00001000
00000000
00000000
00000010
00000000
00000100
00000000
00000100
00000000
00000010
00000000
00001000
00000000
,
00000100
00000000
00000000
00001000
00000000
00000000
00000001
00000000
00000010
00000000
00000010
00000000
00000001
00000000
00001000
00000000
,
00000010
00000000
00000000
00000100
00000000
00000000
00000001
00000000
00000000
00000000
00000100
00000000
00000010
00000000
00000100
00000000
,
00000001
00000000
00000000
00000010
00000000
00000000
00000100
00000000
00000000
00000000
00001000
00000000
00000100
00000000
00010000
00000000
,
00001000
00000000
00000000
00100000
00000000
00000000
00001000
00000000
00010000
00000000
00010000
00000000
00001000
00000000
00100000
00000000
,
00010000
00000000
00000000
10000000
00000000
00000000
00010000
00000000
01000000
00000000
01000000
00000000
00100000
00000000
10000000
00000000
,
11000000
00000000
00000000
00000000
01000000
00000000
10000000
00000000
00100000
00000000
00000000
01000000
00000000
00000000
00010000
00000000
,
00100000
00000000
00000000
00000000
00010000
00000000
01000000
00000000
00100000
00000000
00000000
10000000
00000000
00000000
00010000
00000000
,
00100000
00000000
00000000
00000000
00010000
00000000
10000000
00000000
00100000
00000000
00000000
10000000
00000000
00000000
00100000
00000000
,
00100000
00000000
10000000
01000000
00010000
00001000
00000200
00000000
,
00000301
00000000
00000000
00000000
00000100
00000000
00000010
00000000
00001000
00000000
00000000
00000100
00000000
00000000
00001000
00000000
,
00000010
00000000
00000000
00000000
00000100
00000000
00000001
00000000
00000010
00000000
00000000
00000001
00000000
00000000
00001000
00000000
,
00000010
00000000
00000000
00000000
00001000
00000000
00000100
00000000
00000010
00000000
00000000
00000001
00000000
00000000
00001000
00000000
,
00001000
00000000
00000001
00000010
00001000
00010000
00200000
00000000
,
20300000
01000000
00100000
30010000
,
00010000
00000000
00000000
10000000
00000000
00000000
00000000
00000000
00000000
00000000
00000000
00000000
00010000
10000000
00010000
10000000
,
00100000
01000000
00010000
00100000
,
00001000
00000000
00000000
00010000
00000000
00000000
00000000
00000000
00000000
00000000
00000000
00000000
00001000
00010000
00001000
00010000
,
00001000
00010000
00000100
00001000
,
00000010
00000000
00000000
00001000
00000000
00000000
00000000
00000000
00000000
00000000
00000000
00000000
00000001
00000010
00000001
00000010
,
00000001
00000000
00001000
00000000
00000001
00000000
00001000
00000010
,
00000200
00000001
00001000
00000310
,
00000110
00000000
00000001
00000100
00001000
00000000
00000100
00001000
,
00010000
00000000
00001000
00010000
02000000
00000000
13000000
00000000
,
00010000
00000000
10000000
00100000
00010000
00000000
00100000
00010000
,
00001000
00010000
00001000
00000010
00001000
00010000
00001000
00000000
,
00010000
00001000
00010000
00001000
00010000
00100000
00010000
00000000
,
00001000
00010000
00000100
00000000
00001000
00000010
00000100
00000000
,
00000001
00000100
00000001
00000100
00001000
00000100
00000001
00000000
,
00001000
00000100
00001000
00000100
00000001
00000100
00001000
00000000
,
00000001
00000000
00000100
00000010
00000100
00001000
00000100
00000000
,
00000001
00000000
00000010
00000100
00000010
00000001
00000100
00000000
,
00000001
00000000
00000100
00001000
00010000
00000000
00010000
00100000
,
10000000
00000000
10000000
01000000
00010000
00001000
00010000
00000000
,
00011000
00011000
00011000
00011000
,
00001000
00010000
00000100
00000000
00001000
00000100
00010000
00000000
,
00011000
00011000
00011000
00011000
,
00010000
00001000
00100000
00000000
00010000
00100000
00001000
00000000
,
00100000
00010000
01000000
00100000
10000000
01000000
00100000
00010000
,
01000000
00100000
00010000
00001000
00001000
00010000
00001000
00010000
,
00000100
00001000
00000010
00000100
00000001
00000010
00000100
00001000
,
00000010
00000100
00000001
00001000
00001000
00000001
00001000
00000001
,
00000100
00000010
00000100
00001000
00000100
00000010
00001000
00000100
,
00000010
00000001
00001000
00000100
00000100
00001000
00000100
00010000
,
00001000
00100000
00010000
01000000
00100000
10000000
01000000
00100000
,
00010000
01000000
00100000
01000000
01000000
00010000
10000000
00000000
,
20020000
00000000
00000000
00000000
,
30030000
00000000
00000000
00000000
;

//---------------dance-single - ----------------
#NOTES:
     dance-single:
     :
     Challenge:
     8:
     0.525813,0.546505,0.335880,0.153945,0.209925,456.000000,48.000000,22.000000,0.000000,0.000000,0.000000,0.525813,0.546505,0.335880,0.153945,0.209925,456.000000,48.000000,22.000000,0.000000,0.000000,0.000000:
0000
0000
0000
0000
,
0000
0000
0000
0000
,
0001
0000
0100
0000
0001
0000
0100
0010
0000
0100
0000
0010
0100
0010
0000
0000
,
1000
0000
0100
0000
1000
0000
0100
0010
0000
0100
0000
0010
0100
0010
0000
0000
,
0001
0000
1000
0000
0001
0000
1000
0001
0000
1000
0000
0001
1000
0001
0000
0000
,
1010
0011
0101
1100
,
0001
1000
0010
0100
0002
0000
0103
0000
,
0001
0100
0010
1000
0200
0000
1300
0000
,
0010
1000
0100
0010
0002
0000
1003
0000
,
0010
0000
1001
0010
1001
0010
1002
0000
,
1003
0100
1000
0010
0200
0000
0301
0000
,
0100
0001
0100
0010
2000
0000
3001
0000
,
1000
0100
1000
0001
0020
0000
0031
0000
,
1000
0000
1001
0100
1001
0010
1002
0000
,
0103
0010
0100
0001
0010
0100
0010
0000
,
0001
0010
0100
0000
1000
0010
0100
0000
,
0001
0100
0010
1000
0100
0010
0001
1000
,
0020
0100
2030
3100
,
1000
0100
0010
0001
1000
0001
0100
0000
,
0001
0100
0010
1000
0001
1000
0100
0000
,
1000
1100
0001
0101
,
2010
3002
0023
0031
,
0010
0000
0000
0001
0000
0000
1000
0000
0010
0000
1000
0000
0100
0000
0010
0000
,
0001
0000
0000
1000
0000
0000
0010
0000
0100
0000
0010
0000
1000
0000
0100
0000
,
0010
0000
0000
0001
0000
0000
0100
0000
0010
0000
0010
0000
0100
0000
0001
0000
,
0010
0000
0000
0100
0000
0000
0010
0000
0001
0000
0001
0000
0010
0000
0001
0000
,
1000
0000
0000
0010
0000
0000
1000
0000
0100
0000
1000
0000
0010
0000
0100
0000
,
0001
0000
0000
0100
0000
0000
0010
0000
0100
0000
0001
0000
0010
0000
0100
0000
,
0010
0000
0000
0001
0000
0000
1000
0000
0010
0000
0010
0000
0100
0000
0001
0000
,
1000
0000
0000
0100
0000
0000
1000
0000
0010
0000
0010
0000
0100
0001
0100
0000
,
0010
0000
0000
0000
1000
0000
0100
0000
1000
0000
0000
1100
0000
0000
0001
0000
,
1000
0000
0000
0000
0001
0000
0100
0000
0001
0000
0000
0101
0000
0000
1000
0000
,
0001
0000
0000
0000
1000
0000
0010
0000
1000
0000
0000
1010
0000
0000
0001
0000
,
0010
0000
1001
0010
1001
0100
1001
0000
,
1000
0000
0000
0000
0100
0000
1000
0000
0010
0000
0000
1010
0000
0000
1000
0000
,
0001
0000
0000
0000
0010
0000
0001
0000
0100
0000
0000
0101
0000
0000
0100
0000
,
0010
0000
0000
0000
0100
0000
0001
0000
1000
0000
0000
1001
0000
0000
1000
0000
,
0100
0000
1001
0100
1001
0010
1001
0000
,
1000
0000
0010
0000
0001
0000
0010
0000
1000
0000
0000
0100
0000
0000
0010
0000
,
0001
0000
0000
1000
0000
0000
0000
0000
0000
0000
0000
0000
0001
1000
0001
1000
,
0001
0000
0100
0000
0010
0000
1000
0000
0100
0000
0000
1000
0000
0000
0010
0000
,
0100
0000
0000
0100
0000
0000
0000
0000
0000
0000
0000
0000
0000
0000
0001
1000
,
0001
0000
0100
0000
1000
0000
0100
0000
0001
0000
0000
1000
0000
0000
0010
0000
,
0100
0000
0000
0100
0000
0000
0000
0000
0000
0000
0000
0000
0001
0100
0001
0100
,
0001
0000
0100
0000
0010
0000
1000
0000
0100
0000
0000
1000
0000
0000
0010
0000
,
0200
0000
0000
0002
0000
0000
0000
0000
0000
0000
0000
0000
0303
0000
0000
0000
,
0001
0000
1100
0100
1100
0000
0101
0100
,
0101
0000
1010
0010
1010
0000
2002
0000
,
3003
0000
0011
0010
0011
0000
1010
0010
,
1010
0000
0100
0000
0001
0000
0010
0000
0100
0000
1000
0000
0010
0100
0010
0000
,
0100
0001
0010
0100
1000
0010
0100
0010
,
1000
0000
0100
0000
0010
0000
0001
0000
1000
0000
0010
0000
1000
0100
1000
0000
,
0010
1000
0100
0010
0001
1000
0010
0100
,
0001
0000
1000
0000
0010
0000
0100
0000
0001
0000
0010
0000
0001
0100
0001
0000
,
0100
0000
0101
0100
0101
0001
0102
0000
,
0003
0000
1100
1000
1100
0100
2100
0000
,
3000
0000
0000
0000
0001
1000
0001
0000
1000
0000
0000
0000
1000
0001
1000
0000
,
0001
0000
0000
0000
0001
1000
0001
0000
1000
0000
0001
0000
1000
0000
0000
0000
,
0001
0100
1000
0100
0001
0100
1000
0100
,
0001
0010
1000
0010
0001
0010
1000
0010
,
0001
0000
1000
0000
0001
0000
1000
0010
0000
1000
0000
0001
1000
0001
0000
0000
,
1000
0000
0001
0000
1000
0000
0001
0010
0000
0001
0000
1000
0001
1000
0000
0000
,
0001
0000
0100
0000
0010
0000
1000
0000
0100
0000
0000
0100
1000
0000
0010
0000
,
0100
0000
0001
0000
1000
0000
0100
0000
0010
0000
0000
0010
0001
0000
1000
0000
,
0010
0000
0100
0000
0001
0000
1000
0000
0010
0000
0000
0010
1000
0000
0100
0000
,
0010
0000
1001
0100
1001
0100
1002
0000
,
0013
0000
0001
0000
1000
0000
0010
0000
0100
0000
0000
0100
0010
0000
1000
0000
,
0100
0000
0010
0000
0001
0000
1000
0000
0010
0000
0000
0010
1000
0000
0100
0000
,
0010
0000
0001
0000
1000
0000
0001
0000
1000
0000
0000
1000
0100
0000
0010
0000
,
0001
0000
1001
0100
1001
0010
1002
0000
,
0203
0000
0000
0000
,
0300
0000
0000
0000
;

//---------------dance-single - ----------------
#NOTES:
     dance-single:
     :
     Medium:
     5:
     0.307890,0.471982,0.076973,0.300893,0.000000,254.000000,11.000000,43.000000,0.000000,0.000000,0.000000,0.307890,0.471982,0.076973,0.300893,0.000000,254.000000,11.000000,43.000000,0.000000,0.000000,0.000000:
0000
0000
0000
0000
,
0000
0000
0000
0000
,
0001
1000
0010
0000
,
1000
0001
0010
0000
,
0001
0100
0001
0000
0100
0010
0100
0000
,
0010
1000
0001
0000
,
1000
0000
0000
0000
0100
0000
1000
0010
,
0100
0000
0000
0000
0010
0000
0100
0001
,
1000
0000
0000
0000
0001
0000
0010
0001
,
0100
0101
2200
3300
,
0001
0000
0000
0000
0010
0000
0001
1000
,
0010
0000
0000
0000
1000
0000
0100
1000
,
0010
0000
0000
0000
0100
0000
0010
1000
,
0100
1100
0202
0303
,
0001
1000
0010
0010
,
1000
0000
0100
0010
0001
0000
0000
0000
,
0200
0302
2003
3020
,
0230
0000
0300
0000
0001
1000
0001
0000
,
1000
0000
0001
0000
0010
0001
0100
0000
,
0001
0000
0100
0010
1000
0000
0000
0000
,
0100
0100
1000
0010
,
0100
0100
0001
0000
,
2000
3100
1000
0010
,
0200
0310
1000
0100
,
1000
0000
0001
1000
0001
0000
0100
0001
,
0200
0300
0000
0000
,
0002
0103
0010
0100
,
0002
0013
0100
1000
,
0100
1000
0010
0000
0100
0010
0100
0000
,
0002
2003
3010
0000
,
1001
0000
1000
0000
,
0001
0000
0000
0100
0100
0000
0010
0000
,
1000
0000
0001
0000
,
0010
0000
0000
0001
0001
0000
1000
0000
,
0010
0000
1000
0000
,
0001
0000
0000
0100
0100
0000
0001
0000
,
1000
0000
0010
0000
,
1000
0000
0000
0100
0100
0000
1000
0000
,
0001
0010
0100
2000
,
0002
0000
3003
0000
,
1000
0100
0010
0002
,
2000
0000
3003
0000
,
0001
0100
0010
2000
,
0002
0000
3003
0000
,
1000
0010
0100
0002
,
2000
0000
3003
0000
,
0000
0000
0001
0100
0001
0000
0100
0001
,
0100
0000
0001
0100
0001
0000
0000
0000
,
0000
0000
1000
0100
1000
0000
0100
1000
,
0100
1000
0010
0100
,
0001
0000
0010
0001
0010
0000
0001
0010
,
0001
0000
0010
0001
0010
0000
0001
0000
,
0100
0000
0010
1000
0010
0000
1000
0010
,
1000
0000
0010
1000
0010
0000
1000
0000
,
0000
0000
0100
1000
0100
1000
0001
0000
,
0000
0000
0001
0100
0001
0100
0010
0000
,
0000
0000
0100
0001
0100
0000
0001
0100
,
0001
0000
0100
0001
0100
0000
0001
0000
,
2000
3020
2030
3020
,
2030
3020
2030
3020
,
0230
0302
0203
0302
,
0203
0302
0203
0301
,
2002
3003
0001
0000
,
1000
0000
0000
0010
0010
0000
1010
0000
,
0001
0000
1000
0000
,
0001
0000
0000
0100
0100
0000
0101
0000
,
1000
0000
0100
0000
,
1000
0000
0000
0010
0010
0000
0110
0000
,
0001
0000
0100
0000
,
0001
0000
0000
1000
1000
0000
1100
0000
,
2002
0000
0000
0000
,
3003
0000
0000
0000
;

//---------------dance-single - ----------------
#NOTES:
     dance-single:
     :
     Easy:
     3:
     0.174938,0.198729,0.020993,0.034988,0.000000,167.000000,3.000000,5.000000,0.000000,0.000000,0.000000,0.174938,0.198729,0.020993,0.034988,0.000000,167.000000,3.000000,5.000000,0.000000,0.000000,0.000000:
// measure 0
0000
0000
0000
0000
,  // measure 1
0000
0000
0000
0000
,  // measure 2
1000
0010
0100
0000
,  // measure 3
0010
1000
0001
0000
,  // measure 4
0010
0000
0010
0000
,  // measure 5
0001
1000
0001
0000
,  // measure 6
1000
0000
0100
0010
,  // measure 7
0001
0000
0100
0001
,  // measure 8
1000
0000
0010
1000
,  // measure 9
0100
1000
1000
0000
,  // measure 10
0100
0000
1000
0010
,  // measure 11
0100
0000
0010
1000
,  // measure 12
0001
0000
1000
0100
,  // measure 13
0010
0001
0001
0000
,  // measure 14
1001
0000
1000
0000
,  // measure 15
0100
1000
0010
0000
,  // measure 16
1000
0100
0010
0001
,  // measure 17
1000
0000
0000
0000
,  // measure 18
0001
0000
0100
0000
,  // measure 19
0001
0100
0010
0000
,  // measure 20
0100
0100
0010
0010
,  // measure 21
0100
0000
0000
0000
,  // measure 22
1001
0000
0001
0000
,  // measure 23
1000
0001
0010
0000
,  // measure 24
0001
0100
0010
1000
,  // measure 25
0100
0000
0000
0000
,  // measure 26
1000
0000
0010
0000
,  // measure 27
1000
0100
0010
0000
,  // measure 28
0100
1000
0010
0100
,  // measure 29
0001
0000
0000
0000
,  // measure 30
0001
0000
1000
0000
,  // measure 31
0010
0000
0100
0010
,  // measure 32
0100
0000
0001
0000
,  // measure 33
1000
0100
0010
0001
,  // measure 34
1000
0000
0010
0000
,  // measure 35
1000
0000
0100
1000
,  // measure 36
0100
0000
1000
0000
,  // measure 37
0001
0010
0100
1000
,  // measure 38
0020
0000
0030
0000
,  // measure 39
0100
0000
0000
0000
,  // measure 40
0002
0000
0003
0000
,  // measure 41
1000
0000
0000
0000
,  // measure 42
2000
0000
3000
0000
,  // measure 43
0100
0000
0000
0000
,  // measure 44
0020
0000
0030
0000
,  // measure 45
0001
0000
0000
0000
,  // measure 46
0000
0100
0000
0100
,  // measure 47
0000
0100
0100
0000
,  // measure 48
0000
0001
0000
0001
,  // measure 49
0001
0000
1000
0000
,  // measure 50
0010
0000
1000
0000
,  // measure 51
0100
0010
0100
0100
,  // measure 52
1000
0000
0010
0000
,  // measure 53
0100
0010
0100
0100
,  // measure 54
0000
0001
0100
0001
,  // measure 55
0000
1000
0100
1000
,  // measure 56
0000
0010
0000
0010
,  // measure 57
0000
0010
1000
0001
,  // measure 58
0100
0100
0100
0100
,  // measure 59
0100
0000
0000
0000
,  // measure 60
0010
0010
0010
0010
,  // measure 61
0010
0000
0000
0000
,  // measure 62
1001
0000
0000
0000
,  // measure 63
1000
0000
0100
0010
,  // measure 64
0001
0000
1000
0000
,  // measure 65
0010
0100
0010
0010
,  // measure 66
1000
0000
0000
0000
,  // measure 67
0001
0000
1000
0001
,  // measure 68
0010
0000
0001
0000
,  // measure 69
0100
0001
0100
0100
,  // measure 70
0020
0000
0000
0000
,  // measure 71
0030
0000
0000
0000
;

//---------------dance-single - ----------------
#NOTES:
     dance-single:
     :
     Beginner:
     1:
     0.098965,0.146948,0.027990,0.000000,0.000000,95.000000,4.000000,0.000000,0.000000,0.000000,0.000000,0.098965,0.146948,0.027990,0.000000,0.000000,95.000000,4.000000,0.000000,0.000000,0.000000,0.000000:
// measure 0
0000
0000
0000
0000
,  // measure 1
0000
0000
0000
0000
,  // measure 2
0001
0000
0000
0000
,  // measure 3
1000
0000
0000
0000
,  // measure 4
0010
0000
0010
0000
,  // measure 5
0010
0000
0000
0000
,  // measure 6
1001
0000
0000
0000
,  // measure 7
1000
0000
0000
0000
,  // measure 8
0100
0000
0100
0000
,  // measure 9
0100
0000
0000
0000
,  // measure 10
0010
0000
0000
0000
,  // measure 11
0001
0000
0000
0000
,  // measure 12
0100
0000
0100
0000
,  // measure 13
0100
0000
0000
0000
,  // measure 14
0001
0000
0000
0000
,  // measure 15
1000
0000
0000
0000
,  // measure 16
0010
0010
0000
0010
,  // measure 17
0010
0000
0000
0000
,  // measure 18
1000
0000
0000
0000
,  // measure 19
0100
0000
0000
0000
,  // measure 20
0010
0010
0000
0010
,  // measure 21
0010
0000
0000
0000
,  // measure 22
0001
0000
0001
0000
,  // measure 23
0001
0000
0000
0000
,  // measure 24
1000
0000
1000
0000
,  // measure 25
1000
0000
0000
0000
,  // measure 26
0010
0000
0010
0000
,  // measure 27
0010
0000
0000
0000
,  // measure 28
0100
0000
0100
0000
,  // measure 29
0100
0000
0000
0000
,  // measure 30
0001
0000
0000
0000
,  // measure 31
1000
0000
0000
0000
,  // measure 32
0100
0000
0100
0000
,  // measure 33
0100
0000
0000
0000
,  // measure 34
1000
0000
0000
0000
,  // measure 35
0001
0000
0000
0000
,  // measure 36
0010
0000
0010
0000
,  // measure 37
0010
0000
0000
0000
,  // measure 38
1001
0000
0000
0000
,  // measure 39
1000
0000
0000
0000
,  // measure 40
0100
0000
0000
0000
,  // measure 41
0010
0000
0000
0000
,  // measure 42
0001
0000
0000
0000
,  // measure 43
1000
0000
0000
0000
,  // measure 44
0010
0000
0000
0000
,  // measure 45
0100
0000
0000
0000
,  // measure 46
0000
0001
0000
0001
,  // measure 47
0000
0001
0000
0000
,  // measure 48
0000
1000
0000
1000
,  // measure 49
0000
1000
0000
0000
,  // measure 50
0000
0010
0000
0010
,  // measure 51
0000
0010
0000
0000
,  // measure 52
0000
0100
0000
0100
,  // measure 53
0000
0100
0000
0000
,  // measure 54
0000
0001
0001
0000
,  // measure 55
0000
1000
1000
0000
,  // measure 56
0000
0010
0000
0010
,  // measure 57
0000
0010
0000
0000
,  // measure 58
0100
0100
0000
0000
,  // measure 59
0100
0100
0000
0000
,  // measure 60
0001
0001
0000
0000
,  // measure 61
1000
1000
0000
0000
,  // measure 62
1001
0000
0000
0000
,  // measure 63
0001
0000
0000
0000
,  // measure 64
1000
0000
1000
0000
,  // measure 65
1000
0000
0000
0000
,  // measure 66
0010
0000
0000
0000
,  // measure 67
0100
0000
0000
0000
,  // measure 68
0001
0000
0001
0000
,  // measure 69
0001
0000
0000
0000
,  // measure 70
1001
0000
0000
0000
;
