#TITLE:Shut Up and Dance;
#SUBTITLE:;
#ARTIST:Walk The Moon;
#TITLETRANSLIT:;
#SUBTITLETRANSLIT:;
#ARTISTTRANSLIT:;
#GENRE:A Little Less Conversation..;
#CREDIT:;
#BANNER:Shut Up and Dance.png;
#BACKGROUND:Shut Up and Dance-bg.png;
#LYRICSPATH:;
#CDTITLE:;
#MUSIC:Shut Up and Dance.ogg;
#OFFSET:0.004000;
#SAMPLESTART:96.997818;
#SAMPLELENGTH:13.714000;
#SELECTABLE:YES;
#BPMS:0.000000=128.000000
;
#STOPS:
;
#BGCHANGES:4.000=Shut Up And Dance.avi=1.000=0=0=1=====,
99999=-nosongbg-=1.000=0=0=0 // don't automatically add -songbackground-
;
#KEYSOUNDS:;
#ATTACKS:;

//---------------dance-single - ----------------
#NOTES:
     dance-single:
     :
     Hard:
     7:
     0.432358,0.446043,0.285377,0.022530,0.041305,362.000000,38.000000,3.000000,0.000000,0.000000,0.000000,0.432358,0.446043,0.285377,0.022530,0.041305,362.000000,38.000000,3.000000,0.000000,0.000000,0.000000:
0000
0000
0000
0000
,
0000
0000
0000
0000
,
1000
0000
0001
0000
0100
0000
0010
0100
,
0001
0010
0100
1001
,
0010
0000
0001
0000
1000
0000
0010
1000
,
0100
0000
0010
0000
0001
0000
1001
1000
,
0010
0000
0100
0000
0001
0000
0010
0100
,
1000
0001
1000
0110
,
0001
0100
0001
1000
0100
1000
0001
0010
,
0110
0000
1001
0000
0110
0000
1000
0001
,
0100
0100
0100
0100
,
0010
0010
0010
0110
,
1000
1000
1000
1000
,
0001
0001
0001
1001
,
0010
0001
1000
0000
0100
1000
0001
0100
,
0010
0000
0100
0000
0001
0100
0001
0000
,
1000
0100
1000
0000
0001
0000
1000
0010
,
0100
0000
0001
0000
0010
0001
0100
0010
,
1000
0000
0001
0000
0010
0000
0100
0010
,
0001
0100
0010
1001
,
1000
0100
0010
0000
0001
1000
0000
0000
,
0010
1000
0001
0000
0100
0001
0000
0000
,
0000
1000
0100
0010
0001
0000
1001
0000
,
0000
0010
0010
0001
0100
0010
1000
0001
,
0000
0100
0001
1000
0010
0000
1001
0200
,
0000
0010
0310
1001
,
0100
0000
0000
1000
0000
0000
0001
0000
0000
0000
0100
0000
0100
0000
0000
0000
,
0010
0000
0000
1000
0000
0000
0001
0000
0000
0000
0010
0000
0010
0000
0000
0000
,
0100
0000
0000
1000
0000
0000
0001
0000
0000
0000
0100
0000
0100
0000
0010
0000
,
1010
0000
0101
0000
1010
0000
0100
0001
,
0000
1000
0000
0001
0000
0010
0100
0010
,
0001
0000
0000
1000
0000
0000
0010
0000
0000
0000
1000
0000
0100
0000
1000
0000
,
0001
0000
1000
0010
0000
0100
0000
0001
,
0101
0000
1010
0000
0101
0000
1000
0001
,
0100
0010
0010
0010
,
1000
0001
1000
0001
1000
0001
1000
0000
,
0010
0000
0100
0000
0001
1000
0100
0000
,
1000
0100
0010
0001
0000
1000
0001
0100
,
0010
0000
0100
0001
1000
0000
0100
0000
,
0010
0001
1000
0010
0000
0100
0001
1000
,
0010
0000
0000
0000
1000
0000
0000
0001
0000
0000
0010
0000
0000
0001
0000
0000
,
1000
0000
0000
0100
0000
0000
0010
0000
0002
0000
0000
0000
0103
0000
0000
0000
,
1000
0100
0000
0001
0100
0000
1000
0010
,
0000
0001
0010
0000
1000
1000
0010
0100
,
0000
0001
0010
0100
1000
0000
1001
0000
,
0000
0100
0100
1000
0010
0100
0001
1000
,
0000
0010
1000
0001
0100
0000
1010
0000
,
0000
0001
0001
0010
0011
0000
1001
0000
,
0000
1000
0100
0010
0001
0000
1001
0000
,
0000
0100
0100
0010
0100
0001
0010
0100
,
0000
1000
0100
0010
0001
1000
0010
0200
,
0000
0001
0301
0101
,
0010
0000
0000
0001
0000
0000
1000
0000
0000
0000
0010
0000
0010
0000
0000
0000
,
0100
0000
0000
0001
0000
0000
1000
0000
0000
0000
0100
0000
0100
0000
0000
0000
,
0010
0000
0000
0001
0000
0000
1000
0000
0000
0000
0010
0000
0010
0000
0100
0000
,
0101
0000
1010
0000
0101
0000
0010
1000
,
0000
0001
0000
1000
0000
0100
0010
0100
,
1000
0000
0000
0001
0000
0000
0100
0000
0000
0000
0001
0000
0010
0000
0001
0000
,
1000
0000
0001
0100
0000
0010
0000
1000
,
1010
0000
0101
0000
1010
0000
1000
0001
,
0100
0000
0010
0000
1000
0001
0010
0000
,
0001
0010
0100
1000
0000
0001
1000
0010
,
0100
0000
0010
1000
0001
0000
0010
0000
,
1001
0000
0110
0000
1001
0000
0100
0100
,
0010
0000
0100
0000
0001
1000
0100
0000
,
1000
0100
0010
0001
0000
1000
0001
0100
,
0010
0000
0100
0001
1000
0000
0100
0000
,
1001
0000
0110
0000
1001
0000
0010
0010
,
1000
0100
0000
0001
0100
0000
1000
0010
,
0000
0001
0010
0000
0001
1000
1100
1001
;

//---------------dance-single - ----------------
#NOTES:
     dance-single:
     :
     Medium:
     5:
     0.392662,0.419805,0.330437,0.135179,0.000000,304.000000,44.000000,18.000000,0.000000,0.000000,0.000000,0.392662,0.419805,0.330437,0.135179,0.000000,304.000000,44.000000,18.000000,0.000000,0.000000,0.000000:
0000
0000
0000
0000
,
0000
0000
0000
0000
,
1000
0001
0100
0100
,
0001
1000
0010
0000
,
1000
0100
1000
1000
,
0001
0000
0010
0000
0001
0000
0100
0100
,
0010
0100
0001
0010
,
0001
1000
0010
0000
,
0100
0010
1000
0001
,
1001
0110
1001
0110
,
2000
0100
0100
3100
,
0002
0100
0100
0103
,
2000
0010
0010
3010
,
0002
0010
0010
0013
,
0001
0000
1000
0000
0010
0000
0100
0100
,
0000
0000
0000
0000
0010
0100
0010
0000
,
1000
0001
1000
0000
0100
0000
0010
0000
,
0010
0000
0000
0000
0001
0010
0001
0000
,
1000
0000
1000
0000
0001
0000
0001
0100
,
0100
0000
0000
0000
0010
0100
0010
0000
,
1000
0000
1000
0000
0100
0010
0000
0000
,
0001
0000
0001
0000
0100
0010
0000
0000
,
0000
1000
0100
0000
1000
0000
1001
0000
,
0000
0001
0100
0000
0001
0000
1001
0000
,
0000
1000
0010
0000
1000
0000
1001
0000
,
0020
0100
0130
0110
,
1001
0000
0100
0000
0001
0000
1000
0100
,
0010
0000
0001
0000
1000
0000
0010
0100
,
0001
0000
1000
0000
0001
0000
0010
0100
,
2000
0000
3002
0000
2003
0000
3010
0010
,
0100
0000
0001
0000
1000
0000
0100
0010
,
0001
0000
1000
0000
0010
0000
0100
0010
,
1000
0000
1000
0000
0001
0000
0001
0010
,
0200
0000
2300
0000
3002
0000
0103
0100
,
0010
0000
1000
1000
,
0001
0001
1001
1001
,
0010
1010
0100
0101
,
0010
1010
0100
0101
,
1000
1100
0001
0011
,
1000
1100
0001
0011
,
0001
1000
0001
1000
0010
0100
0010
0000
,
0100
0001
1000
0000
0200
0000
0000
0000
,
0310
0010
0000
0001
0001
0000
1000
1000
,
0000
0010
0010
0000
1000
0001
1000
0000
,
0000
0001
0001
0010
0001
0000
0011
0000
,
0000
1000
1000
0000
0100
0000
1000
0000
,
0000
0010
0010
0100
0010
0000
0110
0000
,
0000
1000
1000
0000
1001
0000
1001
0000
,
0000
0010
0010
0001
0100
0000
0110
0000
,
0000
0010
0010
1000
0100
0000
0010
0000
,
0000
0001
0001
0010
0001
0000
1000
0000
,
1010
1001
0101
1001
,
0010
0000
1000
0000
0001
0010
0100
0000
,
1000
0000
0001
0000
1000
0010
0100
0000
,
0001
0000
1000
0000
0010
0100
0001
1000
,
2000
0000
3200
0000
0320
0000
0031
0001
,
1000
0000
0010
0000
1000
0000
0001
1000
,
0010
0000
0100
0000
0001
0000
1000
0100
,
0010
0000
0001
0000
1000
0000
0010
0100
,
0002
0000
2003
0000
3002
0000
0103
0100
,
0010
1100
0010
0101
,
0010
1100
0010
0101
,
0010
1001
0100
1001
,
0010
1001
0100
1001
,
0100
1010
0100
0101
,
0010
1010
0100
0101
,
1000
1001
0010
1001
,
0100
1001
0001
1001
,
0010
0010
0000
0001
0001
0000
1000
1000
,
0000
0010
0010
0000
0100
0100
0001
1000
;

//---------------dance-single - ----------------
#NOTES:
     dance-single:
     :
     Easy:
     4:
     0.277867,0.366672,0.225298,0.030040,0.000000,225.000000,30.000000,4.000000,0.000000,0.000000,0.000000,0.277867,0.366672,0.225298,0.030040,0.000000,225.000000,30.000000,4.000000,0.000000,0.000000,0.000000:
0000
0000
0000
0000
,
0000
0000
0000
0000
,
1000
1000
1000
0000
,
0001
0001
0001
0000
,
0100
0100
0100
0000
,
1001
0110
1001
0000
,
0010
0010
0010
0000
,
0001
0001
0001
0000
,
1000
1000
1000
0000
,
1001
0110
1001
0000
,
0010
0000
0100
0000
,
0001
0000
1000
1001
,
0001
0000
1000
0000
,
0010
0000
0100
0110
,
0010
0000
1000
0100
,
0010
0000
0001
1000
,
0010
0000
0010
1000
,
0001
0000
0100
0100
,
0001
0000
0010
0100
,
1000
0000
0010
1000
,
0001
0001
0100
0000
,
1000
1000
0100
0000
,
0000
0000
1000
1000
1000
0000
0001
0000
,
0000
0100
0010
1000
,
0000
0000
0001
0001
0001
0000
0010
0020
,
0000
0000
0000
0030
,
0001
0010
0001
0100
,
0001
0010
0001
0100
,
0001
0010
0001
0100
,
0110
1001
0110
1001
,
1000
0100
1000
0010
,
1000
0100
1000
0010
,
1000
0100
1000
0010
,
1001
0110
1001
0110
,
0002
0000
0000
0000
,
1003
0000
1000
0000
,
0010
1000
0100
0000
,
0010
0001
0100
0000
,
0010
0100
0001
0000
,
0100
0001
1000
0000
,
0100
0010
0100
0010
,
0100
0010
0002
0000
,
1003
1000
0000
0010
0010
0000
0100
0100
,
0000
0001
0001
0000
0001
0000
1000
0000
,
0000
0000
0010
0010
0010
0000
0100
0000
,
0000
0001
1000
0010
,
0000
0000
1000
1000
1000
0000
0100
0000
,
0000
0010
0110
1001
,
0000
0000
0100
0100
0100
0000
0010
0000
,
0000
0100
0001
1000
,
0000
0000
0100
0100
0100
0000
0010
0020
,
0000
0000
0000
0030
,
0001
0100
1000
0100
,
0001
0100
1000
0100
,
0001
0100
1000
0100
,
1001
0110
1001
0110
,
1001
0010
0001
0010
,
1000
0010
0001
0010
,
1000
0010
0001
0010
,
1001
0110
1001
0110
,
1000
0000
0100
0000
,
0010
0001
1000
0010
,
0100
0000
0001
0000
,
0010
0001
1000
0010
,
0100
0000
0010
0000
,
1000
0100
0010
0001
,
1000
0000
0001
0000
,
0110
1001
0110
0000
,
1000
1000
0000
0001
0001
0000
0100
0100
,
0000
0010
0010
0000
1000
0000
0001
0000
;

//---------------dance-single - ----------------
#NOTES:
     dance-single:
     :
     Beginner:
     2:
     0.165219,0.209527,0.105139,0.000000,0.000000,140.000000,14.000000,0.000000,0.000000,0.000000,0.000000,0.165219,0.209527,0.105139,0.000000,0.000000,140.000000,14.000000,0.000000,0.000000,0.000000,0.000000:
0000
0000
0000
0000
,
0000
0000
0000
0000
,
1000
0000
0001
0000
,
0100
0000
0100
0000
,
0001
0000
1000
0000
,
0010
0010
0010
0000
,
0100
0000
0001
0000
,
1000
0000
1000
0000
,
0100
0000
0010
0000
,
0001
0001
0001
0000
,
1000
0000
0000
0000
,
0001
0000
0000
0000
,
0100
0000
0000
0000
,
0010
0000
0000
0000
,
1000
0000
0100
0000
,
1000
0000
0001
0000
,
0100
0000
0010
0010
,
0010
0000
0000
0000
,
0100
0000
0001
0000
,
1000
0000
0100
0100
,
0100
0000
0010
0000
,
0001
0001
0001
0000
,
0000
0100
0100
0000
,
0000
0001
0000
1000
,
0000
0010
0010
0000
,
1001
0000
0000
0000
,
1001
0000
0100
0000
,
1001
0000
0010
0000
,
1001
0000
0100
0000
,
0010
0010
0010
0000
,
1001
0000
0100
0000
,
1001
0000
0010
0000
,
1001
0000
0100
0000
,
0010
0010
0010
0000
,
0001
0000
0000
0000
,
1000
0000
0000
0000
,
0010
0000
1000
0000
,
0100
0000
0100
0000
,
0010
0000
0001
0000
,
0100
0000
0100
0000
,
0001
0000
1000
0000
,
0010
0000
0100
0000
,
0001
0000
0001
0000
,
1000
0000
1000
0000
,
0000
0010
0010
0000
,
0000
1000
0000
1000
,
0000
0100
0100
0000
,
0000
0010
0010
0010
,
0000
0001
0001
0000
,
0000
1000
0000
0001
,
0000
0100
0100
0000
,
1001
0000
0000
0000
,
0110
0000
0001
0000
,
0110
0000
1000
0000
,
0110
0000
0001
0000
,
1000
1000
1000
0000
,
0110
0000
0001
0000
,
0110
0000
1000
0000
,
0110
0000
0001
0000
,
1000
1000
1000
0000
,
0001
0000
1000
0000
,
0010
0000
0010
0000
,
1000
0000
0001
0000
,
0010
0010
0010
0000
,
0001
0000
1000
0000
,
0100
0000
0100
0000
,
1000
0000
0001
0000
,
0100
0100
0100
0000
,
0010
0000
1000
0000
,
0001
0000
0010
0010
;

//---------------dance-single - ----------------
#NOTES:
     dance-single:
     :
     Challenge:
     9:
     0.626543,0.655946,0.465616,0.022530,0.296642,519.000000,62.000000,3.000000,0.000000,0.000000,0.000000,0.626543,0.655946,0.465616,0.022530,0.296642,519.000000,62.000000,3.000000,0.000000,0.000000,0.000000:
0000
0000
0000
0000
,
0000
0000
0000
0000
,
0001
0000
0000
0010
0000
0000
0001
0000
0000
0000
0100
0000
0100
0000
0010
0000
,
1000
0000
0000
0001
0000
0000
0010
0000
0000
0000
0100
0000
1001
0000
1000
0000
,
0010
0000
0000
0100
0000
0000
0001
0000
0000
0000
1000
0000
1000
0000
0101
0000
,
1001
0000
1100
0000
1001
0000
0110
1001
,
0000
0010
0000
0001
0000
1000
0010
0100
,
0001
0000
0000
1000
0000
0000
0010
0000
0000
0000
0100
0000
0110
0000
0000
0000
,
0001
0100
1000
0001
0010
1000
0001
0011
,
1001
0000
1100
0000
1001
0000
0110
1001
,
0100
0000
0010
0000
0000
1000
0000
0000
0100
0000
0000
0010
0000
0000
0001
1000
,
0000
0000
0010
0000
0000
1000
0000
0000
0001
0000
0000
0000
0110
0000
0000
0000
,
0001
0000
1000
0000
0000
0100
0000
0000
0010
0000
0000
0001
0000
0000
1000
0010
,
0000
0000
1000
0000
0000
0001
0000
0000
0010
0000
0000
0000
0110
0000
0000
0000
,
0001
0010
0100
1000
0010
0100
0001
1000
,
0010
0000
1000
0001
1000
0010
0100
0001
,
0010
0010
0010
0000
0100
0010
0001
1000
,
0010
0000
1000
0000
0001
0100
0010
1000
,
0100
0100
0010
0000
0001
0010
0100
1000
,
0010
0000
1000
0001
1000
1000
0010
0100
,
0100
0001
0010
0100
1000
0001
1000
0010
,
0010
0100
0001
0010
0100
1000
0001
0100
,
0000
0101
1000
0001
0100
0000
1001
0000
,
0000
0010
1000
0100
0010
0010
0001
1000
,
0000
1010
1000
0001
0100
0000
1001
0110
,
0000
0000
0001
0000
1000
0000
0100
0000
0010
0000
0001
1000
0001
1000
0001
1000
,
0010
0000
0010
0100
0000
0100
0001
0000
0010
0000
0100
0000
1000
0000
0001
0000
,
1000
0000
1000
0010
0000
0010
0100
0000
0001
0000
1000
0000
0100
0000
0010
0000
,
0001
0000
0001
1000
0000
1000
0010
0000
0100
0000
0001
0000
1000
0000
1100
0000
,
1001
0000
0000
0000
0101
0000
0000
0000
1001
0000
0000
0000
1000
0100
1000
0100
,
0010
0001
1000
0010
0100
0001
0010
0100
,
1000
0000
1000
0001
0000
0001
0100
0000
0010
0000
0100
0000
0001
0000
1000
0000
,
0010
1000
0010
0000
0100
0000
0001
1000
0001
0000
0100
0000
0010
0000
1010
0000
,
1001
0000
0011
0000
1001
0000
1100
1001
,
0200
0000
0310
0100
0010
0100
0010
0100
,
0001
1000
0100
1000
0001
0000
1000
0001
0100
0001
1000
0000
0001
0000
0100
0010
,
1000
0100
0000
0100
1000
0000
0010
0000
0100
0001
0000
0001
1000
0000
0100
0000
,
0010
0100
0000
0100
1000
0000
0010
0000
0100
0001
0000
0001
1000
0000
0010
0000
,
1000
0100
0000
0100
0010
0000
0001
0000
0100
0010
0000
0010
1000
0000
0001
0000
,
1000
0100
0000
0100
0010
0000
0001
0000
1000
0010
1000
0010
1000
0000
0001
1000
,
0010
0100
0000
0001
1000
0000
0100
0010
0000
0001
1000
0000
0010
1000
0000
0001
,
0100
0000
0010
1000
0000
0100
0010
0000
0002
0000
0000
0000
1003
0000
0000
0000
,
1010
1000
0001
0011
0001
1000
1100
1000
,
0001
0101
0100
0001
1000
0100
0010
1001
,
0000
1010
0001
1000
0010
0000
1001
0000
,
0000
0100
0001
0010
0100
0100
1000
0001
,
0000
0101
0001
1000
0010
0000
0100
0100
,
0000
0001
0100
0010
0110
0000
1001
0000
,
0000
1100
0010
0001
1000
0000
0101
0000
,
0000
1000
1000
0001
0100
0100
0010
1000
,
0000
0101
0010
1000
0100
0000
0010
0002
,
0000
1003
0100
1000
0001
0100
1001
0000
,
1000
0100
1000
0100
1000
0000
0010
0000
1000
0000
0100
0000
0010
0000
0001
0000
,
1000
0001
1000
0001
1000
0000
0010
0000
1000
0000
0100
0000
0010
0000
0001
0000
,
0100
0010
0100
0010
0100
0000
0001
0000
0010
0000
0100
0000
1000
0000
1100
0000
,
0011
0000
0000
0000
1001
0000
0000
0000
0110
0000
0001
0100
0001
0000
1000
0100
,
1000
0001
0010
0100
1000
0010
0100
0001
,
1000
0000
1000
0100
0000
0100
0010
0000
0001
0000
1000
0000
0010
0000
0100
0000
,
0001
0100
0001
0000
1000
0000
0010
1000
0010
0000
0100
0000
0001
0000
0101
0000
,
1001
0000
0000
0000
1100
0000
0000
0000
0011
0000
0100
0010
0100
0010
0100
0010
,
1000
0100
0010
0001
0100
0010
1000
0001
,
0010
1000
0001
0100
1000
0001
0100
0010
,
1000
0010
0100
0001
0010
0100
1000
1100
,
1001
0000
0000
0000
0101
0000
0000
0000
1001
0000
0010
0100
0010
0100
0010
0100
,
0001
0010
0100
1000
0010
0100
0001
1000
,
0100
0001
1000
0010
0001
1000
0010
0100
,
0001
0100
0010
1000
0100
0010
0001
0011
,
1001
0000
1010
0000
1001
0000
0010
0010
,
0001
0100
0001
0000
0010
0000
0100
1000
0100
0000
0010
0000
0001
0100
0001
0000
,
1000
0000
0010
0100
0010
0000
1000
0000
0001
0000
0010
0000
0100
0000
1001
0000
;

//---------------dance-double - ----------------
#NOTES:
     dance-double:
     :
     Challenge:
     8:
     0.558954,0.603470,0.413046,0.090119,0.206523,454.000000,55.000000,12.000000,0.000000,0.000000,0.000000,0.558954,0.603470,0.413046,0.090119,0.206523,454.000000,55.000000,12.000000,0.000000,0.000000,0.000000:
// measure 0
00000000
00000000
00000000
00000000
,  // measure 1
00000000
00000000
00000000
00000000
,  // measure 2
10000000
00000000
00000000
01000000
00000000
00000000
00100000
00000000
00000000
00000000
00000000
00000000
00010000
00000000
00000000
00000000
,  // measure 3
10000000
00000000
00000000
00100000
00000000
00000000
01000000
00000000
00000000
00000000
00000000
00000000
10010000
00000000
00000000
00000000
,  // measure 4
00010000
00000000
00000000
00100000
00000000
00000000
00001000
00000000
00000000
00000000
00000000
00000000
00100000
00000000
00001000
00000000
,  // measure 5
00010000
00000000
00000100
00001000
00000010
00000000
00000100
00000001
,  // measure 6
00000000
00000101
00000000
00001100
00000000
00000001
00000010
00000100
,  // measure 7
00001000
00000000
00000000
00000001
00000000
00000000
00000100
00000000
00000000
00000000
00000010
00000000
00000010
00000000
00000000
00000000
,  // measure 8
00000100
00000001
00001000
00000020
00000000
00001030
00000000
00000001
,  // measure 9
00001000
00000000
00001100
00000000
00010100
00000000
00001000
00010000
,  // measure 10
00000000
00000000
00000100
00000000
00000000
00000100
00000000
00000000
00001000
00000000
00000000
00001000
00000000
00000000
00000010
00000000
,  // measure 11
00000000
00000000
00000100
00000000
00000000
00000001
00000000
00000000
00001000
00000000
00000000
00000000
00001001
00000000
00000000
00000000
,  // measure 12
00000001
00000000
00000100
00000000
00000000
00000100
00000000
00000000
00000010
00000000
00000000
00000010
00000000
00000000
00001000
00000000
,  // measure 13
00000000
00000000
00000100
00000000
00000000
00010000
00000000
00000000
00001000
00000000
00000000
00000000
00011000
00000000
00010000
00000000
,  // measure 14
00002000
00000000
00203000
00000000
00320000
00000000
10030000
00100000
,  // measure 15
01000000
00000000
00010000
10000000
00100000
00100000
01000000
00000000
,  // measure 16
00100000
00000000
10000000
00000000
01000000
00000000
00000000
00000000
11000000
00000000
00000000
00110000
00000000
00000000
10010000
00000000
,  // measure 17
00000000
00000000
00000000
00010000
10000000
00010000
01000000
01000000
,  // measure 18
00200000
00000000
10300000
00100000
02000000
00000000
03010000
00100000
,  // measure 19
00010000
00000000
10000000
01000000
00100000
01000000
00100000
00010000
,  // measure 20
00010000
00100000
00001000
00010000
00000100
00001000
00000010
00000100
,  // measure 21
00000100
00000010
00001000
00000100
00010000
00001000
00010000
00001000
,  // measure 22
00000000
00010100
00010000
00001000
00100000
00000000
10010000
00000000
,  // measure 23
00000000
10000000
01000000
00100000
00010000
00010000
10000000
00100000
,  // measure 24
00000000
01000000
00010000
10000000
00100000
00100000
01000000
00020000
,  // measure 25
00000000
00100000
00100000
00100000
00130000
00010000
00100000
00001000
,  // measure 26
00010000
00000000
00010000
00000100
00000000
00000100
00001000
00000000
00000010
00000000
00000100
00000000
00000001
00000000
00000010
00000000
,  // measure 27
00000100
00000000
00000100
00001000
00000000
00001000
00000010
00000000
00000100
00000000
00000001
00000000
00000010
00000000
00000100
00000000
,  // measure 28
00001000
00000000
00001000
00000100
00000000
00000100
00010000
00000000
00010000
00000000
00001000
00000000
00100000
00000000
00010000
00000000
,  // measure 29
00110000
00000000
00000000
00000000
10100000
00000000
00000000
00000000
10010000
00000000
00000000
00000000
10000000
01000000
10000000
01000000
,  // measure 30
00000000
11000000
00000000
01010000
00000000
00100000
00010000
01000000
,  // measure 31
00100000
00000000
00100000
10000000
00000000
00000000
00010000
00000000
00000000
00000000
10000000
00000000
01000000
00000000
00000000
00000000
,  // measure 32
10000000
01000000
00010000
00002000
00000000
00013000
00000000
00001000
,  // measure 33
00011000
00000000
00010100
00000000
00001001
00000000
00001000
00000010
,  // measure 34
00000200
00000000
00000010
00000010
00000010
00000010
00000010
00000310
,  // measure 35
00000100
00000001
00000000
00000001
00001000
00000000
00000100
00000010
00000000
00000010
00000100
00000000
00001000
00000000
00000010
00000000
,  // measure 36
00000100
00000001
00000000
00000001
00000100
00000000
00000010
00000000
00001000
00000100
00000000
00000100
00001000
00000000
00000000
00000000
,  // measure 37
00000001
00000010
00000100
00001000
00000010
00000100
00001000
00010000
,  // measure 38
00001000
00100000
00000000
00100000
00001000
00000000
00000000
00000000
00100000
00010000
00000000
00010000
10000000
00000000
00000000
00000000
,  // measure 39
00100000
00000000
10000000
00000000
00010000
00000000
01000000
00000000
00100000
10000000
00100000
10000000
00100000
00000000
00000000
00000000
,  // measure 40
10000000
01000000
00000000
01000000
00100000
00000000
00100000
00010000
00000000
00010000
00100000
00000000
00100000
00001000
00000000
00001000
,  // measure 41
00010000
00000000
00010000
00000100
00000000
00000100
00001000
00000000
00000020
00000000
00000000
00000000
00000130
00000000
00000000
00000000
,  // measure 42
00000110
00000100
00000000
00000101
00000100
00000000
00001010
00001010
,  // measure 43
00000000
00001001
00001001
00000010
00000100
00001000
00000010
00001001
,  // measure 44
00000000
00001100
00000100
00010000
00001000
00000000
00010100
00000000
,  // measure 45
00000000
00010000
00010000
00001000
00100000
00100000
00010000
01000000
,  // measure 46
00000000
01010000
01000000
00100000
10000000
00000000
10010000
00010000
,  // measure 47
00000000
10000000
01000000
00100000
01100000
00000000
10010000
00000000
,  // measure 48
00000000
10000000
00010000
01000000
00001000
00000000
01010000
00000000
,  // measure 49
00000000
01000000
01000000
00100000
10000000
10000000
01000000
00100000
,  // measure 50
00000000
00010000
00010000
00100000
00001000
00010000
00000100
00002100
,  // measure 51
00000000
00000010
00000010
00000010
00000010
00000010
00003001
00000000
,  // measure 52
00001100
00000000
00000000
00000001
00000000
00000000
00000100
00000000
00000100
00000000
00000010
00000000
00001000
00000000
00000001
00000000
,  // measure 53
00000010
00000000
00000010
00000001
00000000
00000000
00002100
00000000
00000000
00000000
00003001
00000000
00001000
00000000
00000010
00000000
,  // measure 54
00000100
00000000
00000100
00001000
00000000
00000000
00010000
00000000
00010000
00000000
00001000
00000000
00100000
00000000
00010000
00000000
,  // measure 55
00110000
00000000
00000000
00000000
10100000
00000000
00000000
00000000
10010000
00000000
10000000
01000000
10000000
00000000
00010000
01000000
,  // measure 56
00010000
10000000
00000000
00100000
01000000
00100000
10000000
01000000
,  // measure 57
00100000
00000000
00100000
00010000
00000000
00010000
10000000
00000000
00100000
00000000
10000000
00000000
00010000
00000000
00000000
00000000
,  // measure 58
01000000
00010000
01000000
00000000
00100000
00000000
10000000
01000000
10000000
00000000
00000000
00000000
00010000
00000000
10000000
00000000
,  // measure 59
10100000
00000000
00000000
00000000
00110000
00000000
00000000
00000000
00101000
00000000
00000000
00000000
00010000
00001000
00010000
00001000
,  // measure 60
00010000
00001000
00000010
00000001
00000100
00000010
00001000
00000100
,  // measure 61
00010000
00001000
00100000
00010000
01000000
10000000
01000000
00100000
,  // measure 62
10000000
01000000
00100000
00010000
01000000
00001000
00010000
00000010
,  // measure 63
00010010
00000000
00000000
00000000
00011000
00000000
00000000
00000000
00001001
00000000
00000000
00000000
00000100
00000001
00000100
00000001
,  // measure 64
00001000
00000000
00000010
00000100
00000001
00000010
00000100
00001000
,  // measure 65
00000010
00000100
00001000
00010000
00001000
00100000
00010000
10000000
,  // measure 66
00100000
01000000
00010000
00100000
00001000
00010000
00000100
00000000
,  // measure 67
00001100
00010100
00011000
00100000
,  // measure 68
00110000
00010000
00000000
11000000
10000000
00000000
10010000
00010000
,  // measure 69
00000000
01010000
01010000
01000000
00001000
00010000
00000100
00000110
;
