#TITLE:See You Again;
#SUBTITLE:;
#ARTIST:Wiz Khalifa ft. Charlie Puth;
#TITLETRANSLIT:;
#SUBTITLETRANSLIT:;
#ARTISTTRANSLIT:;
#GENRE:Emotional Drift;
#CREDIT:;
#BANNER:See You Again.png;
#BACKGROUND:See You Again-bg.png;
#LYRICSPATH:;
#CDTITLE:;
#MUSIC:See You Again.ogg;
#OFFSET:-1.110000;
#SAMPLESTART:90.343880;
#SAMPLELENGTH:17.934006;
#SELECTABLE:YES;
#BPMS:0.000000=80.000000
,36.000000=160.000000
,132.000000=80.000000
,168.000000=160.000000
;
#STOPS:
;
#BGCHANGES:4.333=See You Again.avi=1.000=0=0=1=====,
99999=-nosongbg-=1.000=0=0=0 // don't automatically add -songbackground-
;
#KEYSOUNDS:;
#ATTACKS:;

//---------------dance-single - ----------------
#NOTES:
     dance-single:
     :
     Hard:
     6:
     0.379157,0.428050,0.345811,0.146970,0.000000,250.000000,40.000000,17.000000,0.000000,0.000000,0.000000,0.379157,0.428050,0.345811,0.146970,0.000000,250.000000,40.000000,17.000000,0.000000,0.000000,0.000000:
0000
0000
0000
0000
,
0000
0000
0000
0000
,
0000
0000
0000
0000
,
0000
0000
0000
0000
,
0002
0000
0000
0013
0000
0000
0000
0000
,
0001
0010
0100
2000
0000
0000
3010
0000
,
1000
1000
0100
1000
0001
0001
0100
0001
,
0010
0010
0100
1000
0000
0000
0010
0010
,
1000
0100
0010
0002
0000
0000
0000
0000
,
1003
0000
0010
1000
0001
0000
0100
0000
,
0001
1000
0100
0000
1100
0000
0001
0000
,
1000
0000
1000
0100
0010
0000
0001
1000
,
0010
1001
0110
0000
,
0001
0000
0100
0001
1000
0000
0010
0000
,
1000
0100
0010
0001
1000
0000
0010
0000
,
0100
0000
0001
1000
0100
0000
1000
0000
,
1100
0011
0101
1010
,
0001
0000
1000
0100
1000
0000
0010
0000
,
1000
0001
0100
0000
0001
0000
0000
0000
,
0010
0010
0010
0000
0001
0000
0100
0000
,
0010
1000
0010
1000
0001
1000
0001
0000
,
0100
0000
0010
0100
0001
0000
0010
0000
,
0100
0010
0100
0000
0010
0001
0010
0000
,
0001
0100
0010
1000
,
0001
1000
0001
0000
1001
0000
0000
0000
,
0020
1030
0002
1003
,
0020
0000
1030
0000
0100
0010
0100
0000
,
0010
0011
1100
0001
,
0101
1010
1001
0000
,
1000
0100
1000
0000
0010
0000
1000
0000
,
1010
0101
1001
0000
,
0001
0010
0001
0000
1000
0010
1000
0000
,
0002
2003
3020
0230
,
0301
0000
0000
1000
0000
0000
0000
0000
,
0100
0100
0010
0100
0000
0000
0000
0000
,
0010
0000
0000
0001
0000
0000
0000
0000
,
1000
1000
0010
1000
0000
0000
0000
0000
,
0002
0000
0000
1003
0000
0000
0000
0000
,
0100
0100
1000
0002
0000
0000
0103
0000
,
0010
0010
0100
0001
0010
0010
0100
1000
,
0010
0010
1000
0001
0000
0000
0100
0100
,
0001
1000
0100
0010
0001
1000
0010
0000
,
1001
0000
0100
0001
1000
0000
1100
0000
,
0010
1000
1100
0110
,
0011
0000
1000
0001
0100
0000
0101
0000
,
1010
0000
0000
0000
0001
0010
0001
0010
,
0001
0000
1000
0010
1000
0000
0001
0010
,
0001
0000
1000
0010
1000
0000
0001
0000
,
1001
0110
1001
0220
,
0330
0000
0101
1010
,
1001
0000
0010
0001
1000
0000
1100
0000
,
0010
1000
1100
0110
,
0011
0000
1000
0001
0100
0000
0101
0000
,
1010
0000
0001
0000
1000
0100
1000
0001
,
0010
0000
0001
1000
0001
0000
0100
0010
,
0100
0000
0001
1000
0001
0000
0010
0000
,
0110
0011
1100
0202
,
0000
0300
2000
0000
,
0000
3003
0000
0000
;

//---------------dance-single - ----------------
#NOTES:
     dance-single:
     :
     Challenge:
     7:
     0.463140,0.478408,0.181551,0.138325,0.021613,338.000000,21.000000,16.000000,0.000000,0.000000,0.000000,0.463140,0.478408,0.181551,0.138325,0.021613,338.000000,21.000000,16.000000,0.000000,0.000000,0.000000:
// measure 0
0000
0000
0000
0000
,  // measure 1
0000
0000
0000
0000
,  // measure 2
0000
0000
0000
0000
,  // measure 3
0000
0000
0000
0000
,  // measure 4
1000
0000
0000
0001
0000
0000
0000
0000
,  // measure 5
0100
0010
0100
0001
0000
0000
0010
0010
,  // measure 6
0001
0010
0100
1000
0010
0010
0100
0100
,  // measure 7
0001
0100
0010
1000
0000
0000
0001
0001
,  // measure 8
1000
0100
0010
0001
1000
0000
0000
0000
,  // measure 9
0101
0000
0010
0100
0001
0000
0001
0010
,  // measure 10
0100
1000
0010
0010
1000
0000
0001
1000
,  // measure 11
0100
1000
0010
0100
0001
0000
1000
1000
,  // measure 12
0100
0010
0002
0000
2003
0000
3010
0000
,  // measure 13
0100
0100
0001
0100
0010
1000
0100
0010
,  // measure 14
0001
1000
0001
1000
0010
0000
0100
0100
,  // measure 15
0001
0010
0100
0000
1000
0000
0010
1000
,  // measure 16
0100
0010
0001
0100
0010
1000
0001
0000
,  // measure 17
0010
0000
0001
0001
1000
0010
0100
0001
,  // measure 18
1000
1000
0010
0000
0100
0000
0001
0010
,  // measure 19
0100
0100
1000
0000
0010
1000
0100
0000
,  // measure 20
0010
0010
0001
1000
0010
0100
0001
1000
,  // measure 21
0010
0000
1000
0100
1000
0010
0100
0001
,  // measure 22
1000
1000
0010
1000
0100
0010
0001
0000
,  // measure 23
1000
1000
0001
0010
0100
1000
0010
0000
,  // measure 24
1000
0001
0100
0000
1001
0000
0000
0000
,  // measure 25
0011
0010
0100
0000
1001
1000
0100
0000
,  // measure 26
1010
1000
0001
0000
0100
0100
0010
1000
,  // measure 27
0000
0100
0100
0010
0001
0001
1000
0010
,  // measure 28
0010
1000
0100
0010
0001
0000
1000
0001
,  // measure 29
0001
0100
0010
1000
0100
0010
0001
1000
,  // measure 30
1000
0010
1000
0100
0010
0000
0000
0001
,  // measure 31
0001
1000
0010
1000
0100
0010
0001
1000
,  // measure 32
1001
0110
0011
1100
,  // measure 33
0001
0000
0000
1000
0000
0000
0000
0000
,  // measure 34
0100
0100
0010
0001
0000
0000
0000
0000
,  // measure 35
0100
0100
0001
1000
0010
0010
1000
0100
,  // measure 36
0010
0000
0010
0000
0001
0000
1000
0000
0000
0000
0000
0000
0000
0000
0010
0100
,  // measure 37
0010
0000
0000
1000
0000
0000
0000
0000
,  // measure 38
0100
0100
0010
0001
0000
0000
1000
1000
,  // measure 39
0001
0001
0100
0010
1000
1000
0100
0100
,  // measure 40
0010
0001
1000
0010
0000
0000
0100
0100
,  // measure 41
0001
1000
0100
0010
0001
1000
1001
0000
,  // measure 42
1010
0000
0000
0000
0001
0000
1000
0000
0010
0000
0100
0000
0001
0000
1000
0100
,  // measure 43
1000
0010
1000
0100
0020
0000
0032
0000
,  // measure 44
1003
0000
0010
0000
1000
0000
0100
0000
0010
0000
0001
0000
1000
0000
0010
0100
,  // measure 45
0010
0100
0001
0010
0100
1000
0010
0100
,  // measure 46
0002
0000
0103
1000
0200
0000
0301
0010
,  // measure 47
0002
0000
1003
0010
1000
0100
0010
0001
,  // measure 48
0011
1100
0101
2010
,  // measure 49
0001
0000
3100
0000
0010
1000
0100
0000
,  // measure 50
0101
0000
0000
0000
1000
0000
0001
0000
0100
0000
0010
0000
1000
0000
0001
0010
,  // measure 51
0001
0100
0001
0010
0200
0000
2300
0000
,  // measure 52
3001
0000
0100
0000
0001
0000
0010
0000
0100
0000
1000
0000
0001
0000
0100
0010
,  // measure 53
0100
0010
1000
0100
0010
0001
0100
0010
,  // measure 54
2000
0000
3010
0001
0020
0000
1030
0100
,  // measure 55
2000
0000
3001
0100
0001
0010
0100
1000
,  // measure 56
1100
0011
1010
0102
,  // measure 57
1000
0013
2200
0000
,  // measure 58
0000
3300
0000
0000
;

//---------------dance-single - ----------------
#NOTES:
     dance-single:
     :
     Medium:
     3:
     0.180316,0.248552,0.025936,0.043226,0.000000,138.000000,3.000000,5.000000,0.000000,0.000000,0.000000,0.180316,0.248552,0.025936,0.043226,0.000000,138.000000,3.000000,5.000000,0.000000,0.000000,0.000000:
0000
0000
0000
0000
,
0000
0000
0000
0000
,
0000
0000
0000
0000
,
0000
0000
0000
0000
,
1000
0000
0000
0001
0000
0000
0000
0000
,
0100
0000
0000
0010
0000
0000
0000
0000
,
1000
1000
0001
0001
,
0100
0000
0000
0100
0000
0000
0000
0000
,
0010
0000
0000
0010
0000
0000
0000
0000
,
1001
0000
0010
0000
,
0000
1000
0001
0000
,
0100
0000
0100
0000
,
0010
0100
0001
0000
,
1000
1000
1000
0000
,
0001
0000
0001
0000
,
0010
0010
0000
0000
,
0001
0010
0100
0000
,
1000
0000
0001
0000
,
0100
0100
0000
0000
,
0010
0000
0010
0000
,
1000
0100
0010
0001
,
1000
0000
0001
0000
,
0100
0100
0010
0000
,
1000
0000
0001
0000
,
0000
0010
0010
0000
,
0002
0000
0000
2003
,
0000
0000
3010
0000
,
0100
0010
1000
0000
,
0100
0010
1000
0000
,
0100
0010
0001
0000
,
0100
0010
0001
0000
,
1000
0001
0100
0100
,
0010
0100
0001
1000
,
0010
0000
0000
0100
0000
0000
0000
0000
,
0001
0000
0000
1000
0000
0000
0000
0000
,
0100
0000
0000
0100
0000
0000
0000
0000
,
1000
0000
0000
0001
0000
0000
0000
0000
,
0100
0000
0000
0010
0000
0000
0000
0000
,
0010
0000
0000
1000
0000
0000
0000
0000
,
0100
0100
0010
0010
,
0001
0000
0000
1000
0000
0000
0000
0000
,
0010
0010
0010
0010
0010
0010
0010
0000
,
1000
0000
0001
0000
,
0100
0010
1000
0000
,
0001
0000
1000
0000
,
0100
0010
0001
0000
,
1000
0000
0001
0000
,
0100
0100
0010
0000
,
0100
0000
0001
0000
,
1000
0100
0010
0000
,
1001
0000
0010
0000
,
0100
0010
1000
0000
,
0001
0000
1000
0000
,
0100
0010
0001
0000
,
2000
0000
3002
0000
,
0203
0000
0310
0010
,
0100
0001
1000
0100
,
0000
0000
1001
0000
;

//---------------dance-single - ----------------
#NOTES:
     dance-single:
     :
     Easy:
     2:
     0.119799,0.223697,0.060517,0.095098,0.000000,79.000000,7.000000,11.000000,0.000000,0.000000,0.000000,0.119799,0.223697,0.060517,0.095098,0.000000,79.000000,7.000000,11.000000,0.000000,0.000000,0.000000:
0000
0000
0000
0000
,
0000
0000
0000
0000
,
0000
0000
0000
0000
,
0000
0000
0000
0000
,
1000
0000
0000
0000
,
0001
0000
0000
0000
,
0010
0000
0010
0000
,
0100
0000
0100
0000
,
2002
0000
0000
3003
,
0010
0000
0000
0000
,
1000
0000
0000
0000
,
0001
0000
0000
0000
,
0100
0000
0000
0000
,
0001
0000
0000
0000
,
1000
0000
0000
0000
,
0100
0000
0000
0000
,
0100
0000
0000
0000
,
0010
0000
0010
0000
,
0001
0000
0000
0000
,
1000
0000
1000
0000
,
0010
0000
0000
0000
,
0100
0000
0100
0000
,
0001
0000
0000
0000
,
1000
0000
0000
0000
,
0001
0000
0000
0000
,
0110
0000
0000
0000
,
0001
0000
0000
0000
,
1000
0000
0010
0000
,
0100
0000
0100
0000
,
0001
0000
0000
0000
,
0010
0000
0000
0000
,
0001
0000
1000
0000
,
0010
0000
0010
0000
,
1001
0000
0000
0000
,
0100
0000
0000
0000
,
0001
0000
0000
0000
,
1000
0000
0000
0000
,
0020
0000
0030
0000
,
2000
0000
3000
0000
,
0002
0000
0003
0000
,
0200
0000
0300
0000
,
0001
0001
1000
1000
,
0120
0000
0000
0000
,
1030
0000
0100
0000
,
0120
0000
0000
0000
,
0031
0000
0000
0000
,
1000
0000
0001
0000
,
0100
0000
0010
0000
,
1000
1000
0001
0001
,
0000
0000
0100
0000
,
2001
0000
0000
0000
,
3100
0000
1000
0000
,
1002
0000
0000
0000
,
0103
0000
0001
0000
,
0010
0000
0010
0000
,
0001
0000
0001
0000
,
1000
0010
0100
0002
,
0000
0000
1003
0000
;

//---------------dance-single - ----------------
#NOTES:
     dance-single:
     :
     Beginner:
     1:
     0.080278,0.147186,0.043226,0.000000,0.000000,60.000000,5.000000,0.000000,0.000000,0.000000,0.000000,0.080278,0.147186,0.043226,0.000000,0.000000,60.000000,5.000000,0.000000,0.000000,0.000000,0.000000:
0000
0000
0000
0000
,
0000
0000
0000
0000
,
0000
0000
0000
0000
,
0000
0000
0000
0000
,
1000
0000
0000
0000
,
0001
0000
0000
0000
,
0010
0000
0000
0000
,
0100
0000
0000
0000
,
1000
0000
0000
0000
,
1001
0000
0000
0000
,
0000
0000
0000
0000
,
0010
0000
0000
0000
,
0010
0000
0000
0000
,
1000
0000
0000
0000
,
0001
0000
0000
0000
,
0010
0000
0000
0000
,
0100
0000
0000
0000
,
0110
0000
0000
0000
,
0000
0000
0000
0000
,
0001
0000
0000
0000
,
1000
0000
0000
0000
,
0010
0000
0000
0000
,
0100
0000
0000
0000
,
0100
0000
0000
0000
,
0001
0000
0000
0000
,
1000
0000
0000
0000
,
0001
0000
0000
0000
,
0100
0000
0100
0000
,
0100
0000
0000
0000
,
0001
0000
0000
0000
,
1000
0000
0000
0000
,
0100
0000
0100
0000
,
0100
0000
0000
0000
,
1001
0000
0000
0000
,
0010
0000
0000
0000
,
0100
0000
0000
0000
,
0001
0000
0000
0000
,
1000
0000
0000
0000
,
0100
0000
0000
0000
,
1000
0000
0001
0000
,
0100
0000
0100
0000
,
0010
0000
0000
0000
,
1001
0000
0000
0000
,
0000
0000
0000
0000
,
0100
0000
0100
0000
,
1000
0000
0000
0000
,
0001
0000
0000
0000
,
1000
0000
0000
0000
,
0010
0010
0010
0010
,
0000
0000
0000
0000
,
1001
0000
0000
0000
,
0000
0000
0000
0000
,
0100
0000
0000
0000
,
0001
0000
0000
0000
,
0010
0000
0010
0000
,
0010
0000
0000
0000
,
0001
0001
0001
0001
;

//---------------dance-double - ----------------
#NOTES:
     dance-double:
     :
     Challenge:
     6:
     0.351987,0.447393,0.155615,0.069162,0.000000,259.000000,18.000000,8.000000,0.000000,0.000000,0.000000,0.351987,0.447393,0.155615,0.069162,0.000000,259.000000,18.000000,8.000000,0.000000,0.000000,0.000000:
00000000
00000000
00000000
00000000
,
00000000
00000000
00000000
00000000
,
00000000
00000000
00000000
00000000
,
00000000
00000000
00000000
00000000
,
00010000
00000000
00000000
00000100
00000000
00000000
00000000
00000000
,
00010000
00010000
00001000
00100000
00000000
00000000
00010000
00000000
,
10000000
00000000
00100000
01000000
00100000
00000000
01000000
00000000
,
00010000
00100000
00001000
00000000
00000000
00000000
00001000
00000000
,
00010000
00000100
00001000
00000000
00000000
00000000
00000000
00000000
,
00000010
00000000
00001001
00001000
,
00000001
00000100
00000100
00000000
,
00000001
00000010
00000100
00001000
,
00000001
00000100
00000001
00000000
00001000
00000000
00000000
00000000
,
00000100
00000000
00010000
00001000
00010000
00000000
00000100
00000000
,
00010000
00001000
00100000
00010000
,
10000000
00100000
10000000
00000000
00000000
00000000
00010000
01000000
,
00010000
01000000
00100000
10000000
00100000
00000000
10000000
00000000
,
01000000
00000000
00100000
00010000
00100000
00000000
00010000
00100000
,
00001000
00010000
00000100
00000000
00001000
00000000
00000010
00000000
,
00000100
00000100
00000100
00000000
00000010
00000010
00000010
00000000
,
00001000
00000000
00000001
00000000
00000010
00000100
00000010
00000100
,
00000000
00001100
00000011
00000100
,
00000001
00000101
00001010
00000001
,
00000100
00000000
00000000
00000000
00000001
00000010
00000100
00000000
,
00001000
00000100
00010000
00000000
00010100
00000000
00000000
00000000
,
00012000
00000000
00103000
00020000
,
01000000
00000000
10030000
00000000
10000000
01000000
00100000
00010000
,
00000000
01000000
00010000
00000000
10000000
00000000
00100000
10000000
,
00000000
00010000
00100000
00000000
10010000
00000000
00000000
10000000
,
00000000
01000000
00010000
00000000
00001000
00000000
00010000
00001000
,
00000000
00000100
00000001
00000000
00001000
00000000
00000000
00000000
,
00000001
00000010
00000100
00001000
00000010
00000100
00000001
00001000
,
00000010
00000100
00000002
00000000
,
00002003
00000000
00000000
00003100
00000000
00000000
00000000
00000000
,
00000001
00000010
00000100
00001000
00000000
00000000
00000000
00000000
,
00000100
00000100
00001000
00000100
00010000
00010000
00001000
00100000
,
00010000
00010000
01000000
00100000
00000000
00000000
00000000
10000000
,
01000000
00000000
00000000
10000000
00000000
00000000
00000000
00000000
,
00010000
00010000
00100000
00010000
00000000
00000000
10000000
00000000
,
00100000
00100000
10000000
00100000
01000000
01000000
00010000
00100000
,
00010000
00010000
00100000
00001000
00010000
00000000
00001000
00010000
,
00000100
00000100
00001000
00001000
00000010
00000100
00001001
00000000
,
00000201
00000000
00000010
00000000
00000001
00000000
00000310
00000100
,
00000001
00000000
00001000
00000000
00000100
00000010
00000100
00000000
,
00001200
00000000
00010300
00000100
00010000
00000000
00001000
00000000
,
00100000
00000000
00010000
00000000
10000000
00100000
01000000
00010000
,
10000000
00000000
00100000
10000000
00100000
00000000
01000000
00010000
,
01000000
00000000
00010000
00000000
10000000
01000000
00100000
00000000
,
00110000
00101000
00011000
00201000
,
00000000
00000000
00310000
00000000
00100000
00010000
10000000
00000000
,
21000000
00000000
00010000
00000000
30100000
00000000
10000000
00010000
,
10000000
00000000
00100000
00000000
10000000
01000000
00100000
00000000
,
00110000
00000000
01000000
00010000
00100000
00000000
00010000
00100000
,
00001000
00000000
00010000
00000000
00000100
00001000
00000010
00000100
,
00000010
00000000
00001000
00000010
00001000
00000000
00000001
00000010
,
00000001
00000000
00000100
00000000
00000001
00000010
00000100
00001000
,
00000010
00000000
00000100
00000010
00000100
00000000
00000001
00000000
,
00001000
00000100
00010000
00000000
00011000
00000000
00000000
00000000
;
