#TITLE:Rude;
#SUBTITLE:;
#ARTIST:MAGIC!;
#TITLETRANSLIT:;
#SUBTITLETRANSLIT:;
#ARTISTTRANSLIT:;
#GENRE:"NO!";
#CREDIT:;
#BANNER:Rude.png;
#BACKGROUND:Rude-bg.png;
#LYRICSPATH:;
#CDTITLE:;
#MUSIC:Rude.ogg;
#OFFSET:-0.258000;
#SAMPLESTART:86.936310;
#SAMPLELENGTH:13.714000;
#SELECTABLE:YES;
#DISPLAYBPM:72.000000;
#BPMS:0.000000=72.000000
,87.500000=70.500000
,88.000000=72.000000
;
#STOPS:
;
#BGCHANGES:4.000=Rude.avi=1.000=0=0=1=====,
99999=-nosongbg-=1.000=0=0=0 // don't automatically add -songbackground-
;
#KEYSOUNDS:;
#ATTACKS:;

//---------------dance-single - ----------------
#NOTES:
     dance-single:
     :
     Hard:
     8:
     0.518178,0.483094,0.108046,0.455335,0.482346,397.000000,14.000000,59.000000,0.000000,0.000000,0.000000,0.518178,0.483094,0.108046,0.455335,0.482346,397.000000,14.000000,59.000000,0.000000,0.000000,0.000000:
// measure 0
0000
0000
0000
0000
,  // measure 1
0000
0000
0000
0000
0000
0000
0000
0010
,  // measure 2
0000
0000
0000
0000
,  // measure 3
0000
0000
0000
0000
0000
0000
0000
0000
0000
0000
0000
0000
0010
0100
0001
0000
,  // measure 4
1000
0000
0001
0000
0100
0000
0010
1000
0010
0000
0100
0000
0001
0000
1000
0100
,  // measure 5
1000
0000
0000
0000
0001
0000
0000
0000
1000
0100
0010
0001
1000
0000
0001
0000
,  // measure 6
0100
0000
0010
0000
1000
0100
1000
0000
0010
0000
0100
0000
0001
1000
0001
0000
,  // measure 7
0010
0000
0000
0000
0001
0000
1000
0000
0001
0010
0100
0000
1000
0010
0100
0000
,  // measure 8
0001
1000
0001
1000
0001
1000
0010
0100
0010
0100
0002
0000
1003
0000
0200
0000
,  // measure 9
0310
0000
0002
0000
1003
0000
0010
0100
0001
0000
1000
0100
0010
0001
1000
0000
,  // measure 10
0010
1000
0010
1000
0001
0100
0001
0100
0020
0000
2030
0000
3100
0000
1000
0001
,  // measure 11
1000
0000
0020
0000
0130
0000
0001
0100
0020
0000
2030
0000
3001
0000
1001
0000
,  // measure 12
0101
0000
1000
0000
0001
0010
0100
1000
0020
0000
2030
0000
3002
0000
0203
0000
,  // measure 13
0301
0000
1000
0000
0100
1000
0010
0100
0002
0000
2003
0000
3200
0000
0320
0000
,  // measure 14
0031
0000
1000
0000
0010
1000
0001
0100
0020
0000
2030
0000
3002
0000
0203
0000
,  // measure 15
0310
0000
1000
0000
0001
1000
0100
0010
0001
1000
0001
0100
0010
0100
0002
0000
,  // measure 16
1003
0100
1000
0000
2100
0000
3001
0000
1000
0100
0010
0001
1000
0010
0100
0000
,  // measure 17
0001
0100
0001
0000
0102
0000
1003
0000
0001
0100
0010
1000
0001
0100
0100
0000
,  // measure 18
0001
1000
0001
0000
2100
0000
3001
0000
1000
0100
0010
0001
1000
0010
0100
0000
,  // measure 19
0001
0000
1000
0000
0010
0100
0010
0100
0002
0000
2003
0000
3001
0010
0100
1000
,  // measure 20
0020
0000
0130
0000
0002
0000
1003
0100
2000
0000
3010
0000
0100
0000
0001
0000
,  // measure 21
1000
0100
1000
0100
0010
0001
1000
0000
1100
0000
0110
0000
0011
0000
1001
0000
,  // measure 22
0001
0100
0001
0100
0010
1000
0010
1000
0100
0010
0002
0000
1003
0010
2000
0000
,  // measure 23
3002
0000
0203
0000
0320
0000
1030
0100
0010
0000
0001
1000
0010
0100
0001
1000
,  // measure 24
0010
0100
0010
0100
0001
1000
0001
1000
0200
0000
0320
0000
0032
0000
1003
0100
,  // measure 25
2000
0000
3002
0000
0203
0000
0310
1000
0002
0000
0100
0000
1003
0000
1001
0000
,  // measure 26
1010
0000
0001
0000
1000
0100
0010
0001
0200
0000
0302
0000
2003
0000
3020
0000
,  // measure 27
1030
0000
0001
0000
0010
0001
0100
0010
2000
0000
3002
0000
0023
0000
0230
0000
,  // measure 28
1300
0000
0001
0000
0100
0001
1000
0010
0200
0000
0302
0000
2003
0000
3020
0000
,  // measure 29
0130
0000
0001
0000
1000
0001
0010
0100
1000
0001
1000
0010
0100
0010
2000
0000
,  // measure 30
3001
0010
0001
0000
0012
0000
1003
0000
0001
0010
0100
1000
0001
0100
0010
0000
,  // measure 31
1000
0010
1000
0000
2010
0000
3001
0000
1000
0010
0100
0001
1000
0010
0010
0000
,  // measure 32
1000
0001
1000
0000
0012
0000
1003
0000
0001
0010
0100
1000
0001
0100
0010
0000
,  // measure 33
1000
0000
0001
0000
0100
0010
0100
0010
2000
0000
3002
0000
1003
0100
0010
0001
,  // measure 34
1000
0100
1000
0001
0100
0001
1000
0000
0001
0010
0001
1000
0010
1000
0001
0000
,  // measure 35
1000
0100
0010
0001
0100
0010
1000
0001
0100
0100
0010
0010
1000
0100
0010
0000
,  // measure 36
0001
0010
0001
1000
0010
1000
0001
0010
0100
1000
0100
0010
0001
0010
0100
1000
,  // measure 37
0010
0000
0100
0001
1000
0010
0100
0001
1000
1000
0001
0001
0100
0010
1000
0001
;

//---------------dance-single - ----------------
#NOTES:
     dance-single:
     :
     Medium:
     5:
     0.294369,0.306917,0.069458,0.138916,0.054023,240.000000,9.000000,18.000000,0.000000,0.000000,0.000000,0.294369,0.306917,0.069458,0.138916,0.054023,240.000000,9.000000,18.000000,0.000000,0.000000,0.000000:
0000
0000
0000
0000
,
0000
0000
0000
0000
,
0000
0000
0000
0000
,
0000
0000
0000
0000
,
1000
0010
0100
0000
0001
1000
0100
0000
,
0010
0001
1000
0000
0010
0100
0010
0010
,
1000
0001
0100
0000
0001
1000
0100
0000
,
0010
0001
1000
0000
0010
0100
0010
0010
,
2000
0100
0100
0100
3002
0100
0100
0100
,
2003
0010
0010
0010
3002
0010
0010
0013
,
0001
1000
0010
0100
0001
0001
1000
1000
,
0100
0010
0001
1000
0010
0010
0010
1001
,
0000
0000
0101
0000
0100
0001
0100
0000
0010
0000
0010
0000
1000
0000
1000
0000
,
0000
0000
1100
0000
0100
1000
0100
0000
0010
0000
0010
0000
0001
0000
0001
0000
,
0000
0000
1001
0000
1000
0100
1000
0000
0010
0000
0010
0000
0100
0000
0100
0000
,
0000
0000
1001
0000
0001
0100
0001
0000
1000
0000
0100
0000
0010
0000
0000
0000
,
0001
0100
0002
0000
1003
0100
0010
0001
,
1000
0100
2000
0000
3001
0100
0010
1000
,
0100
0010
0200
0000
1300
0010
0100
0001
,
1000
0000
0001
0010
0100
0100
1000
0000
,
0002
2003
3020
0230
,
0301
1000
0001
0100
0010
0010
1000
0000
,
0002
0100
0100
0100
2003
0100
0100
0100
,
3002
0010
0010
0010
2003
0010
0010
3010
,
1000
0001
0100
0010
1000
1000
0001
0001
,
1000
0100
0010
0001
0100
0100
0100
1001
,
0000
0000
1010
0000
0010
1000
0010
0000
1000
0000
0001
0000
1000
0000
0001
0000
,
0000
0000
0011
0000
0010
0001
0010
0000
0001
0000
1000
0000
0001
0000
1000
0000
,
0000
0000
1100
0000
1000
0100
1000
0000
0001
0000
1000
0000
0001
0000
1000
0000
,
0010
0000
0100
0000
0001
1000
0100
0000
,
1000
0001
2000
0000
3010
1000
0100
0100
,
0010
0001
0020
0000
0031
1000
0010
0100
,
0001
1000
0002
0000
0013
0001
1000
0000
,
0100
1000
0010
0010
0100
0100
0001
0000
,
1000
0000
0000
0001
0000
0000
0100
0000
0100
0000
0000
0010
0000
0000
1000
0000
,
1000
0000
0000
0100
0000
0000
0010
0000
0010
0000
0000
0001
0000
0000
1000
0000
,
0010
0000
0000
0100
0000
0000
0001
0000
1000
0000
0000
0100
0000
0000
0010
0000
,
0001
0000
0000
1000
0000
0000
0001
0000
0100
0000
0100
0000
0010
0000
0010
0000
;

//---------------dance-single - ----------------
#NOTES:
     dance-single:
     :
     Easy:
     2:
     0.131198,0.145669,0.023153,0.030870,0.000000,112.000000,3.000000,4.000000,0.000000,0.000000,0.000000,0.131198,0.145669,0.023153,0.030870,0.000000,112.000000,3.000000,4.000000,0.000000,0.000000,0.000000:
0000
0000
0000
0000
,
0000
0000
0000
0000
,
0000
0000
0000
0000
,
0000
0000
0000
0000
,
1000
0010
0100
0100
,
0001
0000
1000
0001
,
0001
0100
0010
0010
,
1000
0000
0001
0000
,
0200
0300
0020
0030
,
1000
1000
0001
0001
,
0020
0030
0200
0300
,
1000
1000
0010
0010
,
1001
0000
0000
0000
0100
0100
0100
0000
,
0010
0000
0000
0000
1000
1000
1000
0000
,
0100
0000
0000
0000
0010
0010
0010
0000
,
0001
0000
1000
0001
,
0100
0100
0010
1000
,
0100
0100
0010
0000
,
0001
0001
0010
0001
,
1000
0000
0000
0000
0010
0010
0010
0000
,
0100
0000
0001
0000
,
1000
0000
0100
0000
,
1000
0000
0010
0000
,
0100
0100
0001
0001
,
0010
0000
0100
0000
,
1000
0000
1000
0000
0010
0010
0010
0010
,
0000
0100
0001
1000
,
0000
0100
1000
0010
,
0000
1000
0001
0010
,
0000
0001
0100
0100
,
0010
0010
0010
0000
1000
0000
0000
0000
,
0001
0001
0001
0000
0100
0000
0000
0000
,
0001
0001
0001
0000
1000
0000
0000
0000
,
0100
0100
0010
0000
,
1001
0000
0010
1000
,
0100
0010
0001
0000
,
1001
0000
1000
0000
,
0001
0010
0100
1000
;

//---------------dance-single - ----------------
#NOTES:
     dance-single:
     :
     Beginner:
     1:
     0.087098,0.101968,0.015435,0.000000,0.000000,77.000000,2.000000,0.000000,0.000000,0.000000,0.000000,0.087098,0.101968,0.015435,0.000000,0.000000,77.000000,2.000000,0.000000,0.000000,0.000000,0.000000:
0000
0000
0000
0000
,
0000
0000
0000
0000
,
0000
0000
0000
0000
,
0000
0000
0000
0000
,
0100
0000
0010
0000
,
1000
0000
0000
0001
,
0001
0000
1000
0000
,
0010
0000
0100
0000
,
0001
0000
1000
0000
,
0010
0010
0010
0000
,
0100
0000
0001
0000
,
1000
1000
1000
0000
,
1001
0000
0010
0010
,
0000
0000
1000
1000
,
0000
0000
0001
0001
,
0000
0000
0100
0000
,
0010
0010
0000
0000
,
1000
1000
0000
0000
,
0001
0001
0000
0000
,
0100
0000
0010
0000
,
1001
0000
0100
0000
,
0001
0000
1000
0000
,
0100
0000
1000
0000
,
0010
0000
0100
0000
,
0001
0000
1000
0000
,
0010
0010
0010
0010
,
0000
1000
1000
1000
,
0000
0001
0001
0001
,
0000
0100
0100
0100
,
0000
0000
0010
0000
,
1000
1000
0000
0000
,
0001
0001
0000
0000
,
0010
0010
0000
0000
,
0100
0000
1000
0000
,
0010
0010
0010
0000
,
1000
0000
0001
0000
,
0100
0100
0100
0000
,
0001
0000
1000
1000
;

//---------------dance-double - ----------------
#NOTES:
     dance-double:
     :
     Challenge:
     8:
     0.482897,0.468455,0.185221,0.393594,0.378159,363.000000,24.000000,51.000000,0.000000,0.000000,0.000000,0.482897,0.468455,0.185221,0.393594,0.378159,363.000000,24.000000,51.000000,0.000000,0.000000,0.000000:
00000000
00000000
00000000
00000000
,
00000000
00000000
00000000
00000000
00000000
00000000
00000000
00100000
,
00000000
00000000
00000000
00000000
,
00000000
00000000
00000000
00000000
00000000
00000000
00000000
00000000
00000000
00000000
00000000
00000000
00100000
01000000
00010000
00000000
,
10000000
00000000
00100000
00000000
01000000
00010000
01000000
00000000
00100000
00000000
10000000
00000000
00010000
00100000
00010000
00000000
,
10000000
00000000
00010000
00000000
00100000
00001000
00010000
00010000
,
00000100
00000000
00001000
00000000
00000010
00000000
00000010
00000000
00000100
00000000
00000001
00000000
00001000
00000100
00001000
00000000
,
00000001
00000000
00000000
00000000
00001000
00000000
00000000
00000000
00000010
00000100
00000010
00000000
00000100
00000000
00000100
00000000
,
00000001
00000100
00000001
00000100
00000010
00001000
00000010
00001000
00000100
00010000
00002000
00000000
00103000
00000000
00201000
00000000
,
00310000
00000000
00102000
00000000
00013000
00000000
00001000
00010000
00100000
00000000
00010000
00100000
10000000
00000000
00100000
10000000
,
00010000
00100000
00010000
00100000
01000000
10000000
01000000
10000000
00100000
00000000
01000000
00000000
00010000
00000000
10000000
01000000
,
00100000
00000000
00002000
00000000
00013000
00000000
00100000
00010000
00001000
00000000
00000010
00000000
00000001
00000000
00001001
00000000
,
00000101
00000000
00001000
00000000
00000001
00000010
00000100
00001000
00000020
00000000
00002030
00000000
00003200
00000000
00020300
00000000
,
00031000
00000000
00010000
00000000
00001000
00010000
00100000
10000000
02000000
00000000
03200000
00000000
00320000
00000000
20030000
00000000
,
30100000
00000000
01000000
00000000
00010000
10000000
01000000
00100000
00020000
00000000
02030000
00000000
03002000
00000000
00023000
00000000
,
00030100
00000000
00001000
00000000
00000010
00000100
00000001
00000000
00001000
00000100
00001000
00000001
00000010
00000001
00001000
00000000
,
00000010
00000100
00000001
00000000
00000102
00000000
00001003
00000000
00000010
00001000
00001000
00000100
00010000
00010000
00001000
00000000
,
00100000
00010000
01000000
00000000
01020000
00000000
10030000
00000000
00100000
01000000
01000000
00010000
10000000
01000000
01000000
00000000
,
10000000
00010000
00100000
00000000
00120000
00000000
10030000
00000000
00100000
01000000
01000000
00010000
00100000
00100000
00001000
00000000
,
00011000
00000000
00001100
00000000
00000100
00000010
00000100
00000010
00000002
00000000
00002003
00000000
00003010
00000100
00000010
00000100
,
00000002
00000103
00000020
00001030
00000200
00010300
00002000
00013000
,
00000000
00000000
00010000
00000000
00000000
00100000
00000000
00000000
10000000
00000000
00000000
00000000
01000000
00000000
00000000
00000000
00100000
00000000
00010000
00000000
10000000
00000000
00000000
00000000
10100000
00000000
00000000
00000000
01010000
00000000
00000000
00000000
,
10000000
00100000
10000000
00100000
01000000
00010000
01000000
00010000
00100000
00001000
00020000
00000000
00030100
00000000
00010200
00000000
,
00001300
00000000
00020100
00000000
00031000
00000000
00010000
00001000
00000100
00000000
00001000
00000100
00000001
00000000
00000100
00000001
,
00001000
00000100
00001000
00000100
00000010
00000001
00000010
00000001
00000100
00000000
00000010
00000000
00001000
00000000
00000001
00000010
,
00000100
00000000
00020000
00000000
00031000
00000000
00000100
00001000
00010000
00000000
01000000
00000000
10000000
00000000
10010000
00000000
,
10100000
00000000
00010000
00000000
10000000
01000000
00100000
00010000
02000000
00000000
03020000
00000000
00230000
00000000
00302000
00000000
,
00013000
00000000
00001000
00000000
00010000
00001000
00000100
00000001
00000020
00000000
00000230
00000000
00002300
00000000
00003002
00000000
,
00000103
00000000
00000010
00000000
00001000
00000001
00000010
00000100
00002000
00000000
00003020
00000000
00020030
00000000
00032000
00000000
,
00103000
00000000
00010000
00000000
01000000
00100000
10000000
00000000
00010000
00100000
00010000
10000000
01000000
10000000
00010000
00000000
,
01000000
00100000
10000000
00000000
20100000
00000000
30010000
00000000
01000000
00010000
00010000
00100000
00001000
00001000
00010000
00000000
,
00000100
00001000
00000010
00000000
00002010
00000000
00003001
00000000
00000100
00000010
00000010
00001000
00000001
00000010
00000010
00000000
,
00000001
00001000
00000100
00000000
00002100
00000000
00003001
00000000
00000100
00000010
00000010
00001000
00000100
00000100
00010000
00000000
,
00011000
00000000
00110000
00000000
00100000
01000000
00100000
01000000
20000000
00000000
30020000
00000000
01030000
00100000
01000000
00100000
,
10000000
00000000
00010000
01020000
00000000
00000000
10030000
00000000
00010000
00000000
10000000
21000000
00000000
00000000
30010000
00000000
,
10000000
00000000
01000000
00000000
00100000
00001000
00010000
00000000
00001000
00000000
00000100
00000000
00000001
00000010
00000010
00000001
,
00001000
00000000
00000100
00000110
00000000
00000000
00000001
00000000
00001000
00000000
00000010
00000110
00000000
00000000
00000100
00000000
,
00000001
00000000
00001000
00000000
00000100
00010000
00002000
00000000
00203000
00000000
00320000
00000000
10030000
00100000
00010000
00100000
;
