#TITLE:No Room In Frame;
#SUBTITLE:;
#ARTIST:Death Cab For Cutie;
#TITLETRANSLIT:;
#SUBTITLETRANSLIT:;
#ARTISTTRANSLIT:;
#GENRE:Too Shy Shy;
#CREDIT:;
#BANNER:No Room In Frame.png;
#BACKGROUND:No Room In Frame-bg.png;
#LYRICSPATH:;
#CDTITLE:;
#MUSIC:No Room In Frame.ogg;
#OFFSET:0.040000;
#SAMPLESTART:95.963867;
#SAMPLELENGTH:13.714000;
#SELECTABLE:YES;
#BPMS:0.000000=124.999992
;
#STOPS:
;
#BGCHANGES:7.500=No Room In Frame.avi=1.000=0=0=1=====,
99999=-nosongbg-=1.000=0=0=0 // don't automatically add -songbackground-
;
#KEYSOUNDS:;
#ATTACKS:;

//---------------dance-single - ----------------
#NOTES:
     dance-single:
     :
     Hard:
     8:
     0.491334,0.511348,0.196133,0.217148,0.640936,432.000000,28.000000,31.000000,0.000000,0.000000,0.000000,0.491334,0.511348,0.196133,0.217148,0.640936,432.000000,28.000000,31.000000,0.000000,0.000000,0.000000:
0000
0000
0000
0000
,
0000
0000
0000
0000
,
0000
0000
0000
0000
,
0000
0000
0000
0000
,
2000
0000
0000
3001
0000
0200
0000
0000
0000
0310
0000
0010
,
2000
0100
0001
3010
,
0001
0000
1000
0100
0000
0010
0000
0000
0001
0000
0000
1000
,
0010
1010
0001
0101
,
1000
0100
0000
1000
0000
0000
0010
0000
0000
1000
0100
0010
,
0001
0100
0000
0001
0000
0000
0010
0000
0000
0001
0100
0010
,
1000
0000
1000
0100
0000
0000
1000
0000
1000
0001
0000
0000
,
0101
1100
0011
1010
,
0001
0010
0000
0001
0000
0000
0100
0000
0000
0001
0010
0100
,
1000
0010
0000
1000
0000
0000
0100
0000
0000
1000
0010
0100
,
0001
0000
0001
0010
0000
0000
0001
0000
0001
1000
0000
0000
,
0010
0000
0010
0100
0001
0100
0010
0000
0010
1000
0100
1000
,
0001
0000
0001
0010
0000
0010
0100
0000
0100
1000
0000
1000
,
0001
0000
0000
0100
0000
0000
0010
0000
1000
0001
0000
0000
,
2100
0000
0000
3100
0000
0010
0001
0000
1000
0001
0000
0000
,
0102
0000
0000
0103
0000
0010
1000
0000
0001
1000
0000
0000
,
0010
0000
0010
0100
0000
0100
0001
0000
0001
1000
0000
1000
,
0100
0000
0000
0010
0000
0000
0001
0000
0000
1000
0000
0010
,
0100
0000
0000
0101
0000
0100
0010
0000
0000
1001
0000
0000
,
0100
0000
0010
1000
0000
0000
0001
0000
0001
0100
0010
0000
,
1000
0000
1000
0100
0000
0100
0010
0000
0010
0001
0000
0001
,
1000
0000
0000
0010
0000
0000
0100
0000
0001
1000
0000
0000
,
0012
0000
0000
0013
0000
0100
1000
0000
0001
1000
0000
0000
,
2010
0000
0000
3010
0000
0100
0001
0000
1000
0001
0000
0000
,
0100
0000
0100
0010
0000
0010
1000
0000
1000
0001
0000
0001
,
0010
0000
0000
0100
0000
0000
1000
0000
0000
0001
0000
0100
,
0010
0000
0000
1010
0000
0010
0100
0000
0000
1001
0000
1000
,
0100
0000
1000
0001
0000
0000
0100
0000
0010
1000
0100
1000
,
0001
0000
0010
0100
0000
2000
0000
0000
3001
1000
0000
0010
,
0100
0000
0001
1000
0000
0200
0000
0000
1300
0010
0000
1000
,
0001
0000
0010
0100
0000
2000
0000
0000
3010
1000
0000
0100
,
0010
0000
0001
1000
0000
0002
0000
0000
0103
0010
0000
0100
,
0001
0000
0010
0100
0000
2000
0000
0000
3010
1000
0000
0100
,
0010
0000
0001
1000
0000
0020
0000
0000
0130
0001
0000
1000
,
0010
0000
0100
0001
0000
0020
0000
0000
0130
0010
0000
0001
,
1000
0000
1000
0100
0010
0001
1000
0000
0010
0100
0010
0100
,
0002
0100
0100
0103
,
2000
0100
0100
3100
,
0001
0000
0000
1000
0000
0000
0010
0000
0100
0000
0000
0001
,
1000
0000
0000
0100
0000
0010
0000
0000
0001
1000
0000
0000
,
0020
0000
0000
0100
0000
0000
0130
0000
0000
0100
0001
1000
,
0100
0000
0010
0000
0001
0000
1000
0000
0020
0000
0000
0000
,
1030
0000
0001
0000
0000
0000
0100
0000
0010
0000
0000
1000
,
0001
0000
0000
0010
0000
0100
0000
0000
1000
0001
0000
0000
,
0200
0000
0000
0010
0000
0000
0310
0000
0000
0010
0000
1001
,
0000
1000
0100
0010
0000
1001
0000
0001
0100
0010
0000
1000
,
0001
0000
0001
0100
0000
0100
1000
0000
1000
0100
0000
0100
,
0002
0000
0000
1003
0000
0000
0100
0000
0010
0001
0000
0000
,
2100
0000
0000
3001
0000
1000
0010
0000
0000
1100
0000
0000
,
0102
0000
0000
1003
0000
0001
0100
0000
0000
1010
0000
0000
,
0001
0000
0001
0010
0000
0010
1000
0000
1000
0010
0000
0010
,
0001
0000
0000
1000
0000
0000
0010
0000
0100
0001
0000
1000
,
0100
0000
0000
0110
0000
0000
0001
0000
0100
0010
0000
0000
,
1000
0000
0100
1000
0010
0000
0100
0000
0001
1000
0010
1000
,
1001
0000
1000
0010
0000
0010
0001
0000
0001
0010
0000
0010
,
2000
0000
0000
3001
0000
0000
0010
0000
0100
1000
0000
0000
,
0012
0000
0000
1003
0000
0001
0100
0000
0000
0011
0000
0000
,
2010
0000
0000
3001
0000
1000
0010
0000
0000
0101
0000
0000
,
1000
0000
1000
0100
0000
0100
0001
0000
0001
0100
0000
0100
,
1000
0000
0000
0001
0000
0000
0100
0000
0010
1000
0000
0001
,
0010
0000
0000
0110
0000
0000
1000
0000
0010
0100
0000
0000
,
0001
0000
0010
0001
0100
0000
0010
0000
1000
0100
0010
0001
,
0100
0000
0100
0010
0000
2000
0000
0000
3100
1000
0000
0100
,
1000
0000
1000
0010
0000
0200
0000
0000
0301
0100
0000
0001
,
0100
0000
0100
0010
0000
2000
0000
0000
3100
0010
0000
0100
,
0010
0000
0010
0001
0000
2000
0000
0000
3010
1000
0000
0010
,
0100
0000
0100
0001
0000
0001
0010
0000
0010
0100
0000
0100
,
1000
0000
1000
0010
0000
1000
0100
0000
0010
0001
0000
2200
,
0000
0000
0000
0000
,
3300
0000
0000
0000
;

//---------------dance-single - ----------------
#NOTES:
     dance-single:
     :
     Medium:
     5:
     0.319217,0.383511,0.077052,0.364248,0.119081,256.000000,11.000000,52.000000,0.000000,0.000000,0.000000,0.319217,0.383511,0.077052,0.364248,0.119081,256.000000,11.000000,52.000000,0.000000,0.000000,0.000000:
0000
0000
0000
0000
,
0000
0000
0000
0000
,
0000
0000
0000
0000
,
0000
0000
0000
0000
,
0100
0010
1000
0100
,
0020
0030
0000
0000
,
0001
1000
0001
1000
,
0010
0100
0010
0100
,
0001
0010
0000
0001
0000
0000
0100
0000
0000
0000
0000
0000
,
0010
1000
0000
0010
0000
0000
0100
0000
0000
0000
0000
0000
,
0001
1000
0000
0001
0000
0000
0100
0000
0000
0000
0000
0000
,
0002
0023
0230
2300
,
3010
0100
0000
0010
0000
0000
1000
0000
0000
0000
0000
0000
,
0100
1000
0000
0100
0000
0000
0010
0000
0000
0000
0000
0000
,
0001
1000
0000
0001
0000
0000
0100
0000
0000
0000
0000
0000
,
0001
0101
1000
1100
,
0001
1000
0010
0100
,
0002
0003
2000
3000
,
0020
0000
0000
0030
0000
0100
0010
0000
0000
1000
0000
0000
,
0200
0000
0000
0300
0000
0010
0100
0000
0000
1000
0000
0000
,
0020
0230
0302
2003
,
3200
0000
0000
0300
0000
0000
0010
0000
0000
0001
0000
0001
,
1000
0100
0010
0001
,
1000
0010
0100
0110
,
1000
0001
0100
0010
,
2000
3000
0002
0003
,
0200
0000
0000
0300
0000
0010
0100
0000
0000
0001
0000
0000
,
0020
0000
0000
0030
0000
0100
0010
0000
0000
0001
0000
0000
,
0200
0320
2030
3002
,
0023
0000
0000
0030
0000
0000
0100
0000
0000
1000
0000
1000
,
0001
0010
0100
1000
,
0001
0100
0010
0110
,
2000
3010
0100
0001
,
0020
0130
1000
0001
,
0100
0000
0100
0010
0000
0000
0000
0000
0000
0010
0000
0000
,
0100
0000
0100
0010
0000
0000
0000
0000
0000
0010
0000
0000
,
2000
3100
0010
0001
,
2000
3001
0100
0010
,
1000
0000
1000
0001
0000
0000
0000
0000
0000
0001
0000
0000
,
1000
0000
1000
0001
0000
0000
0000
0000
0000
0001
0000
0000
,
2200
0000
0000
0000
,
0000
0000
0000
3300
,
0001
0010
1000
0100
,
0001
0000
1000
0001
,
1000
0000
0000
0000
,
0010
0000
0100
0000
0001
0000
0010
0000
0100
0000
0000
0000
,
1000
0100
0001
0010
,
1000
0000
0001
1000
,
0001
0000
0000
0000
0000
0000
0000
0000
0000
0000
0000
1001
,
0000
0000
0000
0000
0000
1001
0000
0000
0000
0000
0000
0000
,
1000
0001
0100
0010
,
2000
3100
0002
0103
,
0200
0000
0000
0300
0000
0010
0100
0000
0000
0001
0000
0000
,
0020
0000
0000
0030
0000
0100
0010
0000
0000
0001
0000
0000
,
0200
0320
2030
3002
,
0023
0000
0000
0030
0000
0000
0100
0000
0000
1000
0000
1000
,
0001
0010
0100
1000
,
0001
0000
0100
0010
0000
0010
1000
0000
0000
0110
0000
0000
,
0001
1000
0010
0100
,
0002
0013
2000
3010
,
0020
0000
0000
0030
0000
0100
0010
0000
0000
1000
0000
0000
,
0200
0000
0000
0300
0000
0010
0100
0000
0000
1000
0000
0000
,
0020
0230
0302
2003
,
3200
0000
0000
0300
0000
0000
0010
0000
0000
0001
0000
0001
,
1000
0100
0010
0001
,
1000
0000
0010
0100
0000
0100
0001
0000
0000
1001
0000
0000
,
2000
3100
0010
0001
,
0200
0310
1000
0100
,
0010
0000
0010
0001
0000
0000
1000
0000
0000
1100
0000
0000
,
0010
0000
0010
0001
0000
0000
1000
0000
0000
1100
0000
0000
,
0002
0103
0010
1000
,
0200
0000
0000
0310
0000
0000
0001
0000
0000
1000
0000
0020
,
0000
0000
0000
0000
,
0030
0000
0000
0000
;

//---------------dance-single - ----------------
#NOTES:
     dance-single:
     :
     Easy:
     3:
     0.223152,0.306809,0.091062,0.238162,0.000000,176.000000,13.000000,34.000000,0.000000,0.000000,0.000000,0.223152,0.306809,0.091062,0.238162,0.000000,176.000000,13.000000,34.000000,0.000000,0.000000,0.000000:
0000
0000
0000
0000
,
0000
0000
0000
0000
,
0000
0000
0000
0000
,
0000
0000
0000
0000
,
0100
0000
0001
0000
,
2000
3000
0000
0000
,
0100
0000
1000
0000
,
0002
0003
2000
3000
,
0010
0100
0010
0000
,
1000
0100
1000
0000
,
0001
0100
0001
0000
,
2000
3000
0002
0003
,
0100
0010
0100
0000
,
0001
0100
0001
0000
,
1000
0010
1000
0000
,
1001
0000
0110
0000
,
1001
1000
0100
0010
,
0001
0000
1000
0000
,
0020
0030
0010
0010
,
0200
0300
0100
0100
,
0001
0010
0100
1000
,
0001
0000
1000
0000
,
2002
3003
0000
0000
,
0010
0000
0010
0000
,
1001
0001
0010
0100
,
1000
0000
0001
0000
,
0200
0300
0100
0100
,
0020
0030
0010
0010
,
1000
0100
0010
0001
,
1000
0000
0001
0000
,
2002
3003
0000
0000
,
0100
0000
0100
0000
,
0001
0001
0010
0010
,
0100
0100
1000
1000
,
0020
0030
0200
0300
,
0002
0003
0020
0030
,
0001
0001
1000
1000
,
0100
0100
0010
0010
,
0002
0003
2000
3000
,
0020
0030
0200
0300
,
2002
0000
0000
0000
,
0000
0000
0000
3003
,
0010
0000
1000
0000
,
0001
0000
0100
0100
,
0100
0000
0000
0000
,
0002
0003
2000
3000
,
0100
0000
1000
0000
,
0010
0000
0100
0100
,
0100
0000
0001
0000
,
1001
0000
0110
0000
,
1001
0001
0010
0100
,
1000
0000
0001
0000
,
0200
0300
0100
0100
,
0020
0030
0010
0010
,
1000
0100
0010
0001
,
1000
0000
0001
0000
,
2002
3003
0000
0000
,
0100
0000
0100
0000
,
1001
1000
0100
0010
,
0001
0000
1000
0000
,
0020
0030
0010
0010
,
0200
0300
0100
0100
,
0001
0010
0100
1000
,
0001
0000
1000
0000
,
2002
3003
0000
0000
,
0010
0000
0010
0000
,
1000
1000
0010
0010
,
0100
0100
0001
0001
,
1000
0000
0001
0000
,
0010
0000
0100
0000
,
1000
1000
0100
0100
,
0010
0010
0001
0001
,
0200
0000
0000
0000
,
0300
0000
0000
0000
;

//---------------dance-single - ----------------
#NOTES:
     dance-single:
     :
     Beginner:
     2:
     0.116079,0.150778,0.014010,0.000000,0.000000,114.000000,2.000000,0.000000,0.000000,0.000000,0.000000,0.116079,0.150778,0.014010,0.000000,0.000000,114.000000,2.000000,0.000000,0.000000,0.000000,0.000000:
0000
0000
0000
0000
,
0000
0000
0000
0000
,
0000
0000
0000
0000
,
0000
0000
0000
0000
,
1000
0000
0000
0000
,
0001
0000
0000
0000
,
0100
0000
0000
0000
,
0010
0000
0000
0000
,
1000
0000
1000
0000
,
0100
0000
0000
0000
,
0010
0000
0010
0000
,
0001
0000
0001
0000
,
0100
0000
0100
0000
,
0010
0000
0000
0000
,
1000
0000
1000
0000
,
0010
0000
0010
0000
,
0000
1000
1000
1000
,
1000
0000
0000
0000
,
0100
0000
0100
0000
,
0010
0000
0010
0000
,
0000
0001
0001
0001
,
0001
0000
0000
0100
,
0100
0000
0000
0000
,
0010
0000
0000
0000
,
0000
1000
1000
1000
,
1000
0000
0000
0000
,
0100
0000
0100
0000
,
0010
0000
0010
0000
,
0000
0001
0001
0001
,
0001
0000
0000
0100
,
0100
0000
0000
0000
,
0001
0000
0000
0000
,
1000
0000
1000
0000
,
0001
0000
0001
0000
,
0010
0000
0000
0000
,
0010
0000
0000
0000
,
0001
0000
0001
0000
,
1000
0000
1000
0000
,
0010
0000
0000
0000
,
0100
0000
0100
0000
,
1001
0000
0000
0000
,
0000
0000
0000
0000
,
1000
0000
1000
0000
,
0001
0000
0100
0000
,
0100
0000
0000
0000
,
0010
0000
0000
0000
,
1000
0000
1000
0000
,
0100
0000
0100
0000
,
0010
0000
0000
0000
,
0001
0000
0000
0000
,
0000
0100
0100
0100
,
0100
0000
0000
0000
,
0010
0000
0010
0000
,
1000
0000
1000
0000
,
0000
0001
0001
0001
,
0001
0000
0000
0010
,
0010
0000
0000
0000
,
0001
0000
0000
0000
,
0000
1000
1000
1000
,
1000
0000
0000
0000
,
0010
0000
0010
0000
,
0100
0000
0100
0000
,
0000
0010
0010
0010
,
0010
0000
0000
1000
,
1000
0000
0000
0000
,
0100
0000
0000
0000
,
1001
0000
0000
0000
,
0010
0000
0010
0000
,
0100
0000
0000
0000
,
0001
0000
0000
0000
,
1000
0000
1000
0000
,
0100
0000
0100
0100
;

//---------------dance-double - ----------------
#NOTES:
     dance-double:
     :
     Challenge:
     7:
     0.434295,0.507845,0.147100,0.273186,0.483329,374.000000,21.000000,39.000000,0.000000,0.000000,0.000000,0.434295,0.507845,0.147100,0.273186,0.483329,374.000000,21.000000,39.000000,0.000000,0.000000,0.000000:
// measure 0
00000000
00000000
00000000
00000000
,  // measure 1
00000000
00000000
00000000
00000000
,  // measure 2
00000000
00000000
00000000
00000000
,  // measure 3
00000000
00000000
00000000
00000000
,  // measure 4
00000002
00000000
00000000
00000000
00000000
00000203
00000000
00000000
00000000
00000000
00000000
00000000
,  // measure 5
00002300
00000000
00000000
00000000
,  // measure 6
00013000
00001000
00100000
00100000
,  // measure 7
00010000
01000000
00100000
00100000
,  // measure 8
10000000
01000000
00000000
10000000
00000000
00000000
00100000
00000000
00000000
01000000
00000000
00000000
,  // measure 9
00010000
10000000
00000000
00010000
00000000
00000000
00100000
00000000
00000000
00001000
00000000
00000000
,  // measure 10
00010000
00000100
00000000
00010000
00000000
00000000
00001000
00000000
00000000
00100000
00000000
00000000
,  // measure 11
00010000
01000000
00000000
00010000
00000000
00000000
10000000
00000000
00000000
10000000
00000000
00000000
,  // measure 12
00100000
10000000
00000000
00010000
00000000
00000000
00100000
00000000
00000000
00100000
00000000
00001000
,  // measure 13
00010000
00000000
00000000
00000100
00000000
00000000
00001000
00000000
00000000
00000010
00000000
00000100
,  // measure 14
00000001
00001000
00000001
00000010
,  // measure 15
00000001
00000000
00000001
00000100
00000000
00000010
00001000
00000000
00001000
00000100
00000000
00000010
,  // measure 16
00000001
00000000
00000001
00000100
00000000
00000100
00001000
00000000
00001000
00010000
00000000
00010000
,  // measure 17
00200000
10000000
01000000
01300000
,  // measure 18
20020000
00000000
00000000
30030000
00000000
00000000
10000000
00000000
01000000
00100000
00000000
00000000
,  // measure 19
00020000
00130000
00020000
01030000
,  // measure 20
00010000
00000000
10000000
00100000
00000000
00100000
01000000
00000000
01000000
00010000
00000000
00010000
,  // measure 21
00100000
00000000
00000000
00001000
00000000
00100000
00001000
00000000
00000000
00010000
00000000
00000100
,  // measure 22
00001000
00001010
00000001
00000011
,  // measure 23
00001000
00000000
00000001
00000100
00000000
00000000
00000010
00000000
00001000
00000001
00001000
00000000
,  // measure 24
00000001
00000000
00000001
00000100
00000000
00000100
00000010
00000000
00000010
00001000
00000000
00001000
,  // measure 25
00000100
00000000
00000000
00010000
00000000
00000000
00000100
00000000
00001000
00000010
00000000
00000000
,  // measure 26
00002020
00003030
00000001
00001000
,  // measure 27
00000202
00000000
00000000
00000303
00000000
00000000
00000001
00000000
00001000
00000010
00000000
00000000
,  // measure 28
00001000
00000000
00000100
00010000
00000000
00001000
00100000
00000000
00010000
01000000
00000000
00100000
,  // measure 29
20000000
00000000
00000000
01000000
00000000
00000000
30010000
00000000
00000000
10000000
00000000
00010000
,  // measure 30
02000000
00000000
00000000
03100000
00000000
00000000
02000000
00000000
00000000
03100000
00000000
10000000
,  // measure 31
00010000
00000000
00000000
00100000
00000000
00000000
00010000
00000000
10000000
01000000
00000000
10000000
,  // measure 32
00000000
00000000
11000000
00000000
00000000
01020000
00000000
00000000
00000000
10030000
00000000
00100000
,  // measure 33
01000000
00000000
01000000
00010000
00000000
00100000
00001000
00000000
00001000
00010000
00000000
00000000
,  // measure 34
00000100
00000000
00001000
00000010
00000000
00000200
00000000
00000000
00000010
00000000
00000000
00000310
,  // measure 35
00000100
00000000
00000001
00001000
00000000
00000100
00001000
00000000
00000001
00000010
00000000
00000000
,  // measure 36
00000011
00000000
00000010
00000001
00000000
00000100
00000010
00000000
00001000
00000100
00000000
00002000
,  // measure 37
00000000
00000000
00003010
00000000
00000000
00001000
00000001
00000000
00000000
00000010
00000000
00000001
,  // measure 38
00000100
00000000
00000000
00000110
00000000
00000000
00000010
00000000
00001000
00000100
00000000
00000000
,  // measure 39
00010000
00000000
00001000
00010000
00000000
00000000
00001000
00000000
00100000
00010000
00000000
00010000
,  // measure 40
02000000
10000000
10000000
10000000
,  // measure 41
03020000
00100000
00100000
00130000
,  // measure 42
10000000
00000000
00000000
01000000
00000000
00000000
00100000
00000000
00010000
00000000
00000000
00100000
,  // measure 43
00001000
00000000
00000000
00010000
00000000
00000100
00000000
00000000
00001000
00000010
00000000
00000000
,  // measure 44
00000200
00000000
00000000
00000000
00000000
00000000
00000300
00000000
00000000
00000000
00000010
00000100
,  // measure 45
00000010
00000000
00001000
00000000
00000100
00000000
00000010
00000000
00000001
00000000
00000000
00000000
,  // measure 46
00000100
00000000
00000001
00000000
00001000
00000000
00000100
00000000
00010000
00000000
00000000
00001000
,  // measure 47
00100000
00000000
00000000
00010000
00000000
01000000
00000000
00000000
00100000
10000000
00000000
00000000
,  // measure 48
00020000
00000000
00000000
00100000
00000000
00000000
00130000
00000000
00000000
00000000
00000000
10010000
,  // measure 49
00000000
10000000
01000000
00100000
00000000
10010000
00000000
00010000
01000000
00100000
00000000
00000000
,  // measure 50
10000000
00000000
00100000
01000000
00000000
00010000
00100000
00000000
00001000
00010000
00000000
00000100
,  // measure 51
00002000
00003010
00001000
00000001
,  // measure 52
00002200
00000000
00000000
00003300
00000000
00000000
00000100
00000000
00001000
00000001
00000000
00000000
,  // measure 53
00000202
00000000
00000000
00000303
00000000
00000000
00000001
00000000
00001000
00000010
00000000
00000000
,  // measure 54
00000100
00000000
00000100
00000010
00000000
00000010
00001000
00000000
00001000
00000100
00000000
00000100
,  // measure 55
00010000
00000000
00000000
00001000
00000000
00100000
00010000
00000000
00000000
01000000
00000000
00010000
,  // measure 56
10000000
11000000
00010000
00110000
,  // measure 57
10000000
00000000
00100000
01000000
00000000
00000000
00010000
00000000
00100000
01000000
00100000
00000000
,  // measure 58
00010000
00000000
00100000
00001000
00000000
00010000
00000100
00000000
00001000
00000010
00000000
00000100
,  // measure 59
00000002
00000103
00000010
00001000
,  // measure 60
00002200
00000000
00000000
00003300
00000000
00000000
00000100
00000000
00010000
00001000
00000000
00000000
,  // measure 61
00011000
00010100
00011000
00110000
,  // measure 62
00100000
00000000
00010000
10000000
00000000
10000000
00100000
00000000
00100000
01000000
00000000
00010000
,  // measure 63
20000000
00000000
00000000
30100000
00000000
00000000
10000000
00000000
00100000
01000000
00000000
00010000
,  // measure 64
00200000
01300000
00200000
01300000
,  // measure 65
00100000
00000000
00010000
01000000
00000000
00000000
00010000
00000000
00100000
00001000
00000000
00010000
,  // measure 66
00000100
00000000
00001000
00000010
00000000
00000200
00000000
00000000
00000301
00000100
00000000
00000100
,  // measure 67
00000010
00000000
00001000
00000100
00000000
00020000
00000000
00000000
00031000
00010000
00000000
00001000
,  // measure 68
00100000
00000000
00100000
00010000
00000000
02000000
00000000
00000000
03100000
10000000
00000000
00010000
,  // measure 69
00100000
00000000
00100000
00010000
00000000
20000000
00000000
00000000
31000000
10000000
00000000
00100000
,  // measure 70
01000000
00000000
01000000
00010000
00000000
00010000
00100000
00000000
00100000
00001000
00000000
00001000
,  // measure 71
00000010
00000000
00000010
00000001
00000000
00000001
00000100
00000000
00000100
00000010
00000000
00002002
,  // measure 72
00000000
00000000
00003003
00000000
;
