#TITLE:Men In Black;
#SUBTITLE:;
#ARTIST:Will Smith;
#TITLETRANSLIT:;
#SUBTITLETRANSLIT:;
#ARTISTTRANSLIT:;
#GENRE:R'n'B;
#CREDIT:;
#BANNER:Men In Black.png;
#BACKGROUND:Men In Black-bg.png;
#LYRICSPATH:;
#CDTITLE:;
#MUSIC:Men In Black.ogg;
#OFFSET:-0.008000;
#SAMPLESTART:82.646210;
#SAMPLELENGTH:13.714000;
#DISPLAYBPM:107;
#SELECTABLE:YES;
#BPMS:0.000000=107.489998
,99.000000=105.010002
,100.000000=107.489998
,190.000000=107.010002
,193.000000=107.510002
,212.000000=106.510002
,213.000000=107.489998
;
#STOPS:144.000000=1.117000
;
#BGCHANGES:1.667=Men In Black.avi=1.000=0=0=1=====,
99999=-nosongbg-=1.000=0=0=0 // don't automatically add -songbackground-
;
#KEYSOUNDS:;
#ATTACKS:;

//---------------dance-single - ----------------
#NOTES:
     dance-single:
     :
     Hard:
     8:
     0.468364,0.517219,0.219041,0.162514,0.173113,410.000000,31.000000,23.000000,0.000000,0.000000,0.000000,0.468364,0.517219,0.219041,0.162514,0.173113,410.000000,31.000000,23.000000,0.000000,0.000000,0.000000:
0000
0000
0000
0000
,
0101
0000
0000
0000
1010
0000
0000
0000
0001
0000
1000
0000
0001
0000
0000
1000
,
0100
0100
0100
0000
0000
1100
0101
0000
,
1000
0000
0001
0000
1000
0000
0010
0100
0010
0000
0100
0000
0001
0000
0000
0000
,
0001
0000
1000
0000
0001
0000
0100
0010
0100
0000
0010
0000
1000
0000
0000
0000
,
1010
0000
0000
0000
0101
0000
0000
0000
1000
0000
0001
0000
1000
0000
0000
0001
,
0010
0010
0010
0000
0000
0011
1010
0000
,
0002
0000
0000
0000
0103
0000
0000
0001
1000
0000
0001
0000
0100
0000
0010
0000
,
2000
0000
3200
0000
0300
1001
1001
0000
,
0001
0000
0100
0000
0010
0000
1000
0100
1000
0000
0001
0100
0001
0000
0000
0000
,
1000
0000
0001
0000
0100
0000
0010
0000
1000
0000
0100
0010
0100
0000
0010
0000
,
0000
0000
0001
0010
0001
0000
1000
0000
0001
0000
1000
0000
0100
0000
1000
0000
,
0000
0000
0001
1000
0001
0000
1000
0000
0010
0000
0100
0010
0100
0000
0001
0000
,
1000
0000
0010
0000
0100
0000
0001
1000
0001
1000
0001
1000
0000
0000
0001
0000
,
0010
0000
0001
0000
1000
0000
0100
0000
1000
0000
0010
0000
0100
0001
0100
0001
,
0000
1000
0001
1000
0100
0010
0001
1000
,
0010
0100
0001
1000
1000
0100
0010
0001
,
0000
1000
0100
0000
1100
0000
0001
0000
0100
0001
1000
0000
0010
1000
0001
1000
,
0001
0000
0010
0001
1000
0000
0001
0000
0100
0001
1000
0000
0100
1000
0010
0000
,
0100
0001
1000
0001
0100
0100
0010
1000
,
0100
0000
0010
0100
0010
0000
0001
0000
0011
0000
0000
0110
0000
0000
1100
0000
,
0002
0100
0000
0100
,
1000
1000
1000
0000
0000
0100
0103
0000
,
2000
0100
0000
0100
,
0001
0000
0100
0000
0010
0010
3010
0000
,
0001
0100
0000
0010
0000
1000
0000
0100
,
0010
0001
1000
0001
0000
0100
0000
0001
,
0000
1000
0000
0010
0000
1000
0000
0100
,
0010
0000
0001
0000
1000
0000
0010
0000
0000
0000
1000
0001
1000
0000
0001
0000
,
0201
0000
0310
1000
1200
0000
0310
0001
,
0201
0000
0000
0000
0310
0000
0000
0000
0100
0000
0001
1000
0001
0000
1000
0000
,
2000
0000
3100
0001
0002
0000
0103
1000
,
2000
0000
3100
0001
0001
0100
0001
1000
,
0010
1000
0100
0001
0010
1000
0100
0001
,
0010
1000
0100
0001
0010
1000
0100
0001
,
0100
0000
0110
0000
0010
0000
0110
0100
,
0002
1000
1003
0000
1000
0100
1100
0000
,
0001
0000
0100
0000
0101
0000
0000
0001
1000
0000
0001
0000
0100
0000
0000
0000
,
0010
0000
0100
0000
0110
0000
0000
0000
0010
0000
1000
0000
0100
0000
1000
0001
,
1000
0001
0100
0010
0210
0000
0302
0000
,
1003
0100
0100
1000
0001
0010
0011
0000
,
1000
0000
0010
0000
1010
0000
0000
1000
0001
0000
1000
0000
0010
0000
0000
0000
,
0100
0000
0010
0000
0110
0000
0000
0000
0100
0000
0001
0000
0010
0000
0001
1000
,
0001
1000
0010
0100
0120
0000
2030
0000
,
3001
0000
0010
0000
0010
0000
0000
0000
0001
0000
1000
0000
0010
0100
0010
0100
,
0010
0000
1000
0000
0100
0000
0000
0000
1000
0000
0001
0000
0100
0010
0100
0000
,
0010
0000
1000
0000
0001
0000
0000
0000
1000
0000
1000
0000
0100
1000
0100
1000
,
0100
1000
0001
0000
0200
0000
0000
0000
,
0000
0000
0000
0000
0310
0000
0100
0000
0001
0010
0000
0100
0000
0010
0000
0001
,
1000
0000
0001
0000
1000
0000
0000
0000
1000
0010
0000
0100
0000
0010
0000
1000
,
0001
1000
0001
0000
1000
0100
0010
0001
,
1000
0000
0010
0000
0100
0000
0000
0000
0001
0000
1000
0100
1000
0000
0001
0000
,
0100
0000
0010
1000
0010
0000
0100
0000
0000
0000
0001
0010
0001
0000
1000
0000
,
0020
0000
0000
0000
0130
0000
0000
0010
1000
0000
1000
0000
1000
0000
0000
0000
,
0100
1000
0001
0000
0100
0000
0001
0000
,
1000
0010
0100
0001
2000
0000
0200
0000
,
3300
1100
0101
0000
1000
0001
0100
0000
,
0001
0000
1000
0000
0010
0000
0000
1000
0100
0000
0100
0000
0100
0000
0000
0000
,
1000
0100
0010
0000
0002
0000
1003
0000
,
0001
1000
0010
0100
0002
0000
1003
0000
,
0000
1010
0011
0200
0000
0000
0000
0000
,
0300
0000
0000
0000
;

//---------------dance-double - ----------------
#NOTES:
     dance-double:
     :
     Challenge:
     8:
     0.458270,0.517219,0.204909,0.134251,0.148383,406.000000,29.000000,19.000000,0.000000,0.000000,0.000000,0.458270,0.517219,0.204909,0.134251,0.148383,406.000000,29.000000,19.000000,0.000000,0.000000,0.000000:
00000000
00000000
00000000
00000000
,
01000000
00010000
01010000
00000000
10000000
01000000
11000000
00000000
,
00010000
00100000
00001000
00000000
00100000
00001000
00010000
00000000
,
00000100
00000000
00010000
00000000
00001000
00000000
00010000
00000100
00010000
00000000
00000100
00000000
00001000
00000000
00000000
00000000
,
00000010
00000000
00001000
00000000
00000100
00000000
00001000
00000001
00001000
00000000
00000001
00000000
00000100
00000000
00000000
00000000
,
00000101
00000000
00001010
00000000
00000001
00001000
00001001
00000000
,
00001000
00000100
00010000
00000000
00001000
00100000
00010000
00000000
,
00100000
00000000
00010000
00000000
10000000
00000000
00100000
01000000
00100000
00000000
10000000
00000000
01000000
00000000
00100000
00000000
,
00020000
00000000
01030000
00000000
00000000
01010000
11000000
00000000
,
00010000
00000000
10000000
00000000
00100000
00000000
01000000
00010000
01000000
00000000
00100000
10000000
00100000
00000000
00000000
00000000
,
10000000
01000000
00100000
00010000
10000000
00010000
01000000
01000000
,
00000000
00000000
00010000
00100000
00010000
00000000
01000000
00000000
00001000
00000000
00010000
00000000
00000100
00000000
00001000
00000000
,
00000000
00000000
00000010
00001000
00000010
00000000
00000100
00000000
00000001
00000000
00001000
00000001
00001000
00000000
00000001
00000000
,
00000000
00000000
00000100
00000001
00000100
00000000
00000010
00000000
00001000
00000100
00001000
00000001
00000000
00000000
00001000
00000000
,
00000100
00000000
00000010
00000000
00000001
00000000
00000100
00000000
00000010
00000000
00000010
00000000
00001000
00000100
00001000
00000100
,
00000000
00010000
00010000
00001000
00100000
00010000
01000000
00100000
,
10000000
01000000
00100000
00010000
01000000
01000000
00010000
00100000
,
00000000
00010000
00100000
00000000
00001000
00000000
00010000
00000000
00001000
00010000
00001000
00000000
00010000
00000100
00010000
00000100
,
00001000
00000000
00000010
00001000
00000010
00000000
00000100
00000000
00000001
00001000
00000001
00000000
00001000
00000100
00001000
00000000
,
00000001
00000000
00000100
00000010
00000100
00000000
00000001
00000000
00001000
00000000
00001000
00000000
00000010
00000000
00000000
00000000
,
00001000
00000000
00000100
00000000
00010000
00000000
00000000
00000000
00011000
00000000
00000000
00101000
00000000
00000000
00110000
00000000
,
00002000
00010000
00000000
00010000
,
00100000
00100000
00100000
00000000
00000000
00010000
00013000
00000000
,
00020000
00001000
00000000
00000100
,
00001000
00001000
00001000
00000000
00000100
00000100
00030100
00000000
,
00010000
00001000
00000000
00100000
00000000
00010000
00000000
01000000
,
00100000
00100000
00100000
00000000
01000000
00010000
10000000
00000000
,
00100000
10000000
00000000
01000000
00000000
00100000
00000000
00010000
,
00000000
01000000
00000000
00001000
00000000
00010000
00001000
00000000
,
00021000
00030100
00012000
00103000
,
00021000
00000000
00000000
00000000
00030100
00000000
00000000
00000000
00010000
00000000
00001000
00010000
00001000
00000000
00010000
00000000
,
00002000
00000000
00000000
00000000
00010000
00000000
10000000
00003000
20000000
00000000
00000000
00000000
00010000
00000000
00001000
00000000
,
30002000
00000000
00000000
00000000
00010000
00000000
10000000
00003000
10000000
00000000
01000000
00000000
10000000
00000000
00100000
00000000
,
10000000
01000000
00010000
00001000
00000010
00000001
00000100
00001000
,
00010000
00100000
10000000
01000000
00010000
00001000
00000010
00000001
,
00000200
00000000
00000310
00000000
00000200
00000000
00000310
00010000
,
00020000
00001000
00031000
00000000
00101000
00100000
00010000
00000000
,
10100000
00000000
00100000
00000000
01000000
00000000
00010000
10000000
00010000
00000000
10000000
00000000
00010000
00000000
00000000
00000000
,
01000000
00000000
01000000
00000000
10010000
00000000
00000000
00000000
00100000
00000000
10000000
00000000
01000000
00000000
00100000
00010000
,
00100000
00010000
01000000
00001000
00020000
00000000
00030100
00000000
,
00001000
00000100
00010000
00010000
00010100
00000100
00001000
00000000
,
00000101
00000000
00000100
00000000
00000010
00000000
00001000
00000001
00001000
00000000
00000001
00000000
00001000
00000000
00000000
00000000
,
00000010
00000000
00000010
00000000
00001001
00000000
00000000
00000000
00000100
00000000
00000001
00000000
00000010
00000000
00000100
00001000
,
00000100
00001000
00000010
00010000
00002000
00000000
00103000
00000000
,
00010000
00000000
01010000
00000000
11000000
00000000
00000000
00000000
00010000
00000000
10000000
00000000
00100000
01000000
00100000
01000000
,
00100000
00000000
10000000
00000000
00010000
00000000
00000000
00000000
10000000
00000000
01000000
00000000
00100000
00010000
00100000
00000000
,
00010000
00000000
01000000
00001000
01000000
00000000
00001000
00000000
00010000
00000000
00010000
00000000
00000100
00000000
00001000
00000000
,
00000010
00000100
00000001
00001000
00000020
00000000
00000000
00000000
,
00000000
00000000
00000000
00000000
00000130
00000000
00000001
00000000
00001000
00000100
00000000
00010000
00000000
00000100
00000000
00010000
,
00001000
00000000
00100000
00000000
00010000
00000000
00000000
00000000
00100000
00010000
00000000
10000000
00000000
00010000
00000000
10000000
,
00100000
00000000
01000000
00000000
00010000
00000000
00000000
00000000
01000000
00000000
00100000
00000000
10000000
00000000
01000000
00100000
,
01000000
00100000
00010000
00000000
00100000
00010000
10000000
00100000
,
01000000
00000000
00010000
10000000
00010000
00000000
01000000
00000000
00001000
00000000
00010000
00001000
00010000
00000000
00000100
00000000
,
00002000
00000000
00003010
00000000
00001000
00000001
00000101
00000000
,
00000000
00000001
00001000
00000000
00000020
00000000
00001030
00000000
,
00000001
00000010
00000100
00001000
00001100
00000000
00000101
00000000
,
00001000
00000100
00010000
00000000
00010100
00000000
00001000
00000000
,
00010000
00001000
00010000
00000000
00001000
00100000
00010000
00000000
,
10000000
00100000
10000000
00000000
11000000
00000000
01010000
00000000
,
00100000
00010000
01000000
00001000
00020000
00000000
00030100
00000000
,
00000000
00010100
00011000
00200000
00000000
00000000
00000000
00000000
,
00300000
00000000
00000000
00000000
;

//---------------dance-single - ----------------
#NOTES:
     dance-single:
     :
     Medium:
     5:
     0.301812,0.366364,0.169580,0.134251,0.000000,256.000000,24.000000,19.000000,0.000000,0.000000,0.000000,0.301812,0.366364,0.169580,0.134251,0.000000,256.000000,24.000000,19.000000,0.000000,0.000000,0.000000:
0000
0000
0000
0000
,
2000
3010
0002
0013
,
0001
1000
0001
0000
0000
0100
0100
0000
,
0001
0000
0010
0000
0100
1000
0100
0000
,
1000
0000
0010
0000
0100
0001
0100
0000
,
1001
1001
0110
1001
,
1000
0100
0010
0000
0000
0001
1000
0000
,
0001
0000
0100
0000
0010
0010
0100
0000
,
0110
0000
0101
0000
0000
1000
1000
0000
,
0020
0000
1030
0000
0010
1000
0001
0000
,
0020
0000
0031
0000
0010
0001
1000
0000
,
0100
0100
0100
0000
1000
0001
1000
0000
,
0001
0100
0001
0000
1000
0010
1000
0000
,
0001
0010
0010
0001
,
1000
0010
0100
0100
,
0010
1000
0100
0010
,
0001
0100
0010
1000
,
0000
0001
0100
0000
0001
0000
1000
0100
,
0000
1000
0001
0000
1000
0000
0010
0010
,
0000
0000
1001
0000
1000
0100
0010
0000
,
0001
1000
0010
0000
0100
0000
0100
0000
,
0020
1000
0000
1030
,
1000
0100
0010
0000
0000
0000
0000
0000
,
0002
0100
0000
0103
,
0000
1001
0000
1001
,
1000
0100
0010
0001
,
0100
0010
0100
0000
0000
0001
1000
0000
,
0001
0100
0010
1000
,
0100
0010
0001
1000
,
1100
0101
1100
0101
,
1100
0000
0101
0000
1000
0001
0100
0000
,
0002
0103
2000
3100
,
0002
0000
0103
0000
0001
1000
0001
0000
,
1000
0100
0001
0010
,
1000
0100
0001
0010
,
1000
0000
1000
0000
0001
0000
0001
1000
,
0010
0000
1001
1100
,
0001
1000
0001
0000
1000
0100
0010
0000
,
0000
0001
1000
0000
0001
0000
1000
0000
,
0010
0100
0010
0000
1010
0000
0011
0000
,
0000
0100
0100
0000
0002
0000
0103
0000
,
0020
0000
1030
0000
0001
1000
0001
0000
,
0000
1000
1000
0000
0200
0000
1300
0000
,
0100
1000
0100
1000
0002
0000
0103
0000
,
0000
0001
1000
0000
0002
0000
0003
0000
,
0100
0100
0100
0000
0020
0000
0030
0000
,
1000
1000
1000
0000
0001
0000
1000
0000
,
0010
0010
0200
0000
,
0000
0300
0000
0000
1001
0000
0000
0000
0010
0000
0000
0000
1000
0000
0000
0000
,
0100
1000
0100
0000
1000
0000
0001
0000
,
0010
0001
0010
0000
0001
0000
1000
0000
,
0010
0010
0100
0001
,
0000
1010
0000
0011
,
0100
0000
0010
0000
1000
0001
1000
0000
,
0000
0000
0001
0000
,
1000
0100
0010
0001
1000
0000
1100
0000
,
0000
0001
0001
0000
0200
0000
0300
0000
,
0010
0000
0010
0000
0100
0001
1000
0000
,
0000
0010
0010
0000
0000
0000
1000
0000
,
0001
0010
0100
1000
0002
0000
0103
0000
,
0000
0001
1001
2000
0000
0000
0000
0000
,
3000
0000
0000
0000
;

//---------------dance-single - ----------------
#NOTES:
     dance-single:
     :
     Easy:
     2:
     0.153430,0.191573,0.084790,0.035329,0.000000,135.000000,12.000000,5.000000,0.000000,0.000000,0.000000,0.153430,0.191573,0.084790,0.035329,0.000000,135.000000,12.000000,5.000000,0.000000,0.000000,0.000000:
0000
0000
0000
0000
,
0000
0000
0001
0100
,
0010
0010
0000
1001
,
0000
1000
0100
0010
,
0000
0001
1000
0010
,
0000
0000
1000
1000
,
0010
0100
0000
1001
,
0000
0001
1000
0001
,
0100
0100
0000
0000
,
0001
0000
0010
0000
,
0001
0100
0010
0000
,
1000
0000
0001
0000
,
1000
0100
0010
0000
,
0001
0100
0010
0010
,
0000
1000
0000
0000
,
0001
1000
0100
0100
,
0000
0010
0000
0000
,
0000
0001
1000
0010
,
0000
1000
0001
0010
,
0000
0001
0000
1000
,
0000
0010
0100
0100
,
0002
0003
0000
0000
,
0001
1000
0000
0000
,
2000
3000
0000
0000
,
1000
0001
0000
0000
,
1000
0100
1000
0000
,
0001
0100
0001
0000
,
1000
0010
1000
0000
,
0001
0010
0001
0000
,
1001
0000
1001
0000
,
1001
0000
0000
0000
,
2000
3000
0002
0003
,
2000
3000
0000
0000
,
0001
0000
0100
0000
,
1000
0000
0010
0000
,
0001
0000
0000
0000
,
1001
0000
0000
0000
,
1000
0001
0100
0100
,
0000
1001
0000
0000
,
0001
1000
0010
0010
,
0000
0000
0000
0000
,
1000
0100
0010
0010
,
0000
1001
0000
0000
,
0001
1000
0010
0010
,
0000
0000
1000
0000
,
0100
0000
0010
0010
,
0001
0000
1000
0000
,
0010
0000
0000
0000
,
0000
1001
1000
0000
,
0100
0100
0000
0000
,
0010
0010
0000
0000
,
0001
0000
1000
0000
,
0010
0000
0000
0000
,
0100
0001
1000
1000
,
0000
1001
0000
0000
,
0001
1000
0010
0100
,
0000
0000
0000
0000
,
0001
1000
0100
0100
,
0000
1001
0000
0000
,
0001
1000
0010
0010
,
0000
1001
0000
0000
;

//---------------dance-single - ----------------
#NOTES:
     dance-single:
     :
     Beginner:
     1:
     0.087818,0.127715,0.042395,0.000000,0.000000,81.000000,6.000000,0.000000,0.000000,0.000000,0.000000,0.087818,0.127715,0.042395,0.000000,0.000000,81.000000,6.000000,0.000000,0.000000,0.000000,0.000000:
// measure 0
0000
0000
0000
0000
,  // measure 1
0000
0000
0001
0000
,  // measure 2
0100
0100
0000
0000
,  // measure 3
0001
0000
0000
0000
,  // measure 4
1000
0000
0000
0000
,  // measure 5
0000
0000
1000
0000
,  // measure 6
0010
0010
0000
0000
,  // measure 7
1000
0000
0000
0000
,  // measure 8
0001
0001
0000
0000
,  // measure 9
0100
0000
0000
0000
,  // measure 10
0010
0000
0010
0000
,  // measure 11
0010
0000
0000
0000
,  // measure 12
1000
0000
1000
0000
,  // measure 13
0000
0001
0001
0000
,  // measure 14
0000
1000
1000
0000
,  // measure 15
0010
0000
0000
0000
,  // measure 16
0010
0000
0000
0000
,  // measure 17
0000
1000
1000
0000
,  // measure 18
0000
0100
0100
0000
,  // measure 19
0000
0010
0010
0000
,  // measure 20
0000
0001
0001
0000
,  // measure 21
1001
0000
0000
0000
,  // measure 22
0010
0010
0000
0000
,  // measure 23
0000
0000
0000
0000
,  // measure 24
0100
0000
0000
0000
,  // measure 25
1001
0000
0000
0000
,  // measure 26
0010
0010
0000
0000
,  // measure 27
0000
0000
0000
0000
,  // measure 28
0100
0000
0000
0000
,  // measure 29
1001
0000
0000
0000
,  // measure 30
1001
0000
0000
0000
,  // measure 31
1000
0000
0000
0000
,  // measure 32
0001
0000
0000
0000
,  // measure 33
0100
0000
0000
0000
,  // measure 34
0100
0000
0000
0000
,  // measure 35
0010
0000
0010
0000
,  // measure 36
0010
0000
0000
0000
,  // measure 37
0000
0000
1000
1000
,  // measure 38
0000
0000
0100
0000
,  // measure 39
0000
0000
1000
1000
,  // measure 40
0000
0000
0001
0000
,  // measure 41
0000
0000
0001
0001
,  // measure 42
0000
0000
0100
0000
,  // measure 43
0000
0000
0010
0010
,  // measure 44
0000
0000
1001
0000
,  // measure 45
0000
0000
0100
0000
,  // measure 46
0000
0000
0001
0000
,  // measure 47
0000
0000
0000
0000
,  // measure 48
0000
0010
0010
0000
,  // measure 49
0000
1000
0000
0000
,  // measure 50
0000
0001
0000
0000
,  // measure 51
0000
0000
0100
0000
,  // measure 52
0100
0000
0100
0000
,  // measure 53
0000
0000
0010
0010
,  // measure 54
0000
0000
0000
0000
,  // measure 55
0000
1000
1000
1000
,  // measure 56
0000
0000
0001
0000
,  // measure 57
0000
0000
0100
0100
,  // measure 58
0000
0000
0000
0000
,  // measure 59
0000
0001
0001
0001
,  // measure 60
0000
1001
0000
0000
;
