#TITLE:Love Me Like You Do;
#SUBTITLE:;
#ARTIST:Ellie Goulding;
#TITLETRANSLIT:;
#SUBTITLETRANSLIT:;
#ARTISTTRANSLIT:;
#GENRE:50 Shades of Pop;
#CREDIT:;
#BANNER:Love Me Like You Do.png;
#BACKGROUND:Love Me Like You Do-bg.png;
#LYRICSPATH:;
#CDTITLE:;
#MUSIC:Love Me Like You Do.ogg;
#OFFSET:-0.780000;
#SAMPLESTART:86.653976;
#SAMPLELENGTH:13.714000;
#SELECTABLE:YES;
#DISPLAYBPM:95.000000;
#BPMS:0.000000=95.000000
,135.000000=95.500000
,136.000000=95.000000
;
#STOPS:
;
#BGCHANGES:4.000=Love Me Like You Do.avi=1.000=0=0=1=====,
99999=-nosongbg-=1.000=0=0=0 // don't automatically add -songbackground-
;
#KEYSOUNDS:;
#ATTACKS:;

//---------------dance-single - ----------------
#NOTES:
     dance-single:
     :
     Hard:
     6:
     0.375099,0.447666,0.282415,0.251883,0.030531,274.000000,37.000000,33.000000,0.000000,0.000000,0.000000,0.375099,0.447666,0.282415,0.251883,0.030531,274.000000,37.000000,33.000000,0.000000,0.000000,0.000000:
0000
0000
0000
0000
,
0000
0000
0000
0000
0000
0000
0000
1000
,
0002
0000
0003
0100
0020
0000
0030
0100
,
0001
0000
1000
0000
0110
0000
0000
0010
,
0200
0000
0300
1000
0002
0000
0003
0100
,
0010
1000
1001
0110
,
0002
0000
0100
0100
0000
0000
1003
0000
,
1000
0100
1000
0001
0100
0000
0001
1000
,
0020
0000
0130
0000
0000
0000
0100
0001
,
2000
0000
3100
0000
1000
0100
0010
0000
,
0001
0001
0100
0001
0010
0000
0001
0001
,
0001
0100
0001
0010
0002
0000
0003
0000
,
1000
1000
0100
1000
0010
0000
1000
1000
,
1000
0100
1000
0010
2000
0000
3000
0000
,
0010
0010
0100
0010
1000
0000
0010
0010
,
0010
0100
0010
1000
0020
0000
0030
0000
,
0200
0001
0001
0010
,
0020
0000
0000
0000
0000
0330
1001
0100
,
0002
0000
1003
0100
2000
0000
3010
1000
,
0001
0001
0010
0001
2000
0000
3010
0100
,
0020
0000
1030
0100
2000
0000
3010
1000
,
0001
0001
0100
0001
2000
0000
3100
0010
,
0002
0000
0100
0100
0000
0000
1003
0000
,
0010
1000
0100
0010
0001
1000
0010
1000
,
0002
0000
0103
0000
2000
0000
3100
0001
,
2000
0010
0001
3100
,
0010
0000
0000
0001
0000
0000
1000
0000
0000
0010
0000
0000
0200
0000
0000
0000
,
0010
0000
0001
0001
0000
0000
0310
0000
,
0100
0000
0000
0001
0000
0000
0010
0000
0000
0100
0000
0000
2000
0000
0000
0000
,
0010
0000
0100
0100
0000
0000
3010
0000
,
1000
0000
0000
0001
0000
0000
0100
0000
0000
0010
0000
0000
1000
0000
0000
0100
,
0000
0000
0010
0000
0000
0001
0000
0000
2000
0000
0000
0000
3100
0000
1000
0000
,
0001
0000
0100
0010
1000
0100
0010
0000
,
0002
0000
0000
1003
,
1100
1000
0001
0100
0010
0000
1010
0011
,
1010
0100
0001
1000
0020
0000
1030
0000
,
0101
1000
0001
0010
0100
0000
1100
0011
,
1100
0010
0001
1000
0020
0000
1030
0000
,
1001
0100
0001
1000
0100
0000
1001
0110
,
1001
0010
0001
0100
0020
0000
1030
0000
,
0001
0100
0001
1000
0100
0010
0001
1000
,
0010
1000
0001
0100
0010
1000
0001
0000
,
1100
0101
1000
0101
1100
0000
1001
0110
,
1001
0010
0001
0100
0200
0000
0310
0000
,
0110
0101
1000
0101
1100
0000
1001
0110
,
1001
0010
0001
1000
2000
0000
3100
0000
,
1001
0011
1000
1001
1010
0000
0101
1010
,
1001
0010
0001
0100
0020
0000
0130
0000
,
0001
0100
0010
1000
0001
1000
0100
0010
,
0001
0100
1000
0100
0010
1000
0100
0010
,
0002
0000
0000
0000
,
0003
0000
0000
0000
;

//---------------dance-single - ----------------
#NOTES:
     dance-single:
     :
     Challenge:
     8:
     0.493953,0.583912,0.221352,0.152657,0.335845,404.000000,29.000000,20.000000,0.000000,0.000000,0.000000,0.493953,0.583912,0.221352,0.152657,0.335845,404.000000,29.000000,20.000000,0.000000,0.000000,0.000000:
// measure 0
0000
0000
0000
0000
,  // measure 1
0000
0000
0000
0000
0000
0000
0000
0000
0000
0000
0000
0000
0000
0000
0100
0001
,  // measure 2
2000
0000
0000
0000
3100
0000
0100
1000
0002
0000
0000
0000
0103
0000
0100
0001
,  // measure 3
1000
0000
0010
0000
0100
0000
0001
0000
0020
0000
0000
0000
0130
0000
0010
0001
,  // measure 4
2000
0000
0000
0000
3010
0000
0010
1000
0002
0000
0000
0000
0013
0000
0010
0001
,  // measure 5
0100
0010
1000
0100
0010
0001
1000
0000
,  // measure 6
0010
0000
0000
0100
0001
0000
1000
0000
0100
0000
1000
0000
0001
0000
0010
0100
,  // measure 7
0010
0001
0100
0010
1000
1000
0100
1000
,  // measure 8
0001
0000
0000
1000
0100
0000
1000
0000
0001
0000
0100
0000
0010
0000
1000
0000
,  // measure 9
0001
0000
0010
0100
0010
0000
0001
0000
1000
0100
0100
0000
1000
0000
0001
0000
,  // measure 10
0100
0100
0010
0100
0001
2000
0010
0010
,  // measure 11
3010
1000
0001
0100
0010
1000
1100
0000
,  // measure 12
0010
0010
0001
1000
0010
0200
0001
0001
,  // measure 13
0301
0100
0010
0100
0001
1000
1001
0000
,  // measure 14
0010
0010
0100
0010
0001
2000
0010
0010
,  // measure 15
3010
1000
0001
1000
0010
0100
0110
0000
,  // measure 16
0002
0000
0000
0000
0000
0000
0000
0000
0000
0000
0000
0003
0100
0010
1000
0100
,  // measure 17
0000
0010
0000
0002
0000
0000
0000
0000
0000
0000
0000
0000
1003
0000
0100
1000
,  // measure 18
0010
0000
0000
0100
0010
0000
0100
0001
0010
0000
0100
0000
0010
0000
0100
1000
,  // measure 19
0001
0000
0010
0000
0001
0000
1000
0000
0010
0000
0100
0000
0001
0000
0010
0001
,  // measure 20
0100
0000
0000
0010
0100
0000
0010
1000
0100
0000
0010
0000
0100
0000
0010
0001
,  // measure 21
1000
0100
1000
0001
0100
0010
1000
0000
,  // measure 22
0001
0000
0000
0010
0100
0000
0010
0000
0000
0000
0001
0000
1000
0000
0010
0100
,  // measure 23
0010
1000
0100
0010
0001
1000
0010
1000
,  // measure 24
0001
0000
0000
1000
0100
0000
1000
0000
0001
0000
0100
0000
0010
0000
1000
0000
,  // measure 25
0001
0000
0000
0010
0100
0000
0010
0000
0001
0000
1000
0000
0100
0000
0100
0000
,  // measure 26
1000
0001
0000
0100
0010
0000
1000
0100
0000
0010
0001
0000
2000
0000
0000
0000
,  // measure 27
3100
1000
0010
0100
0001
1000
0010
0000
,  // measure 28
0100
0001
0000
1000
0100
0000
0010
0001
0000
1000
0010
0000
0200
0000
0000
0000
,  // measure 29
0301
0100
0010
1000
0100
0010
0001
0000
,  // measure 30
1000
0000
0100
0010
0000
0010
0001
0000
0001
0100
0000
0100
0010
0000
0010
1000
,  // measure 31
0000
1000
0001
0000
0001
0010
0000
0010
0100
0000
1000
0000
0001
0000
0100
0000
,  // measure 32
0020
0000
0000
0000
1000
0000
0000
0000
0031
0000
0000
0000
0100
0010
1000
0100
,  // measure 33
0000
0010
0000
0002
0000
0000
0000
0000
0000
0000
0000
0000
1003
0000
0000
0000
,  // measure 34
0101
0000
0100
0010
1000
0000
1100
0000
0101
0000
1000
0000
1100
0000
0011
0000
,  // measure 35
1001
0000
1000
0001
0100
0000
0101
0000
1001
0000
0010
1000
0100
0000
0000
0000
,  // measure 36
1010
0000
0010
0100
0001
0000
0011
0000
1010
0000
0001
0000
0011
0000
1100
0000
,  // measure 37
1001
0000
0001
1000
0010
0000
1010
0000
1001
0000
0100
0001
0010
0000
0000
0000
,  // measure 38
1001
0000
0100
0001
1000
0000
1001
0000
1100
0000
1000
0000
1001
0000
0101
0000
,  // measure 39
1001
0000
0010
1000
0100
0000
1001
0000
0101
0000
0100
0010
1000
0000
0100
0000
,  // measure 40
0010
0000
0001
1000
0001
0000
0100
0000
0010
0000
1000
0000
0001
0010
0100
1000
,  // measure 41
0000
0001
0000
0200
0000
0000
0000
0000
0000
0000
0000
0000
0310
0000
0000
0000
,  // measure 42
1000
0010
1000
0000
0100
0000
0010
0000
0010
0000
0001
0000
1000
0010
1000
0001
,  // measure 43
0100
0010
0100
0000
0001
0000
0010
0000
0100
0010
0100
0000
1001
0000
0000
0000
,  // measure 44
0001
0100
0001
0000
0010
0000
0100
0000
0100
0000
1000
0000
0001
0100
0001
1000
,  // measure 45
0010
0100
0010
0000
1000
0000
0100
0000
0010
0100
0010
0000
1001
0000
0000
0000
,  // measure 46
0100
0001
0100
0010
0100
0001
0010
0100
2000
0000
0000
0000
3001
0010
0001
1000
,  // measure 47
0001
0010
0001
1000
0010
0100
0010
1000
0100
0010
0001
1000
0020
0000
0000
0000
,  // measure 48
0130
0000
0001
1000
0001
0000
0100
0000
0010
0000
1000
0000
0001
0010
0100
1000
,  // measure 49
0000
0010
0000
0200
0000
0000
0000
0000
0001
0000
0000
0000
0320
0000
0000
0000
,  // measure 50
2000
0000
0000
0000
,  // measure 51
3030
0000
0000
0000
;

//---------------dance-single - ----------------
#NOTES:
     dance-single:
     :
     Medium:
     4:
     0.201725,0.272492,0.030531,0.145024,0.000000,162.000000,4.000000,19.000000,0.000000,0.000000,0.000000,0.201725,0.272492,0.030531,0.145024,0.000000,162.000000,4.000000,19.000000,0.000000,0.000000,0.000000:
0000
0000
0000
0000
,
0000
0000
0000
0000
,
2000
3000
0002
0003
,
0100
0010
1000
0000
,
0200
0300
0020
0030
,
0100
0010
0001
1000
,
0010
0000
0000
0000
,
1000
0001
0100
0010
,
0010
0000
0000
1000
,
0001
0000
0000
0100
,
0020
0000
0000
0000
,
2030
0000
0000
0000
,
3002
0000
0000
0000
,
0023
0000
0000
0000
,
0230
1000
1000
1300
,
0020
0100
0100
0130
,
2002
0000
0000
0000
,
3003
0000
0000
0000
0000
0000
0100
0010
,
0020
0000
0030
1000
2000
0000
3000
0100
,
0100
0000
0010
0000
0001
0000
0000
1000
,
2000
0000
3000
0010
0020
0000
0030
1000
,
1000
0001
0010
0001
,
0100
0010
0000
1000
,
0100
0010
0001
1000
,
0010
1000
0000
0001
,
0100
0001
0000
1000
,
0001
0000
1000
0000
0010
0100
0001
0000
,
1000
0000
0001
0000
,
0010
0000
0001
0000
1000
0100
0010
0000
,
0001
0000
1000
0000
,
0010
0000
1000
0000
0100
0010
0001
0000
,
1000
0000
0001
0000
0100
0000
0010
1000
,
0200
0000
0000
0010
,
0020
0000
0330
1001
,
0100
0000
0001
0000
1000
0000
0100
0100
,
0100
1000
0010
0000
,
1000
0000
0001
0000
0100
0000
0010
0010
,
0010
0100
0001
0000
,
0010
0000
0001
0000
0100
0000
0001
0001
,
0001
1000
0100
0000
,
1000
0010
1000
0001
,
0010
0100
0010
0000
,
1001
0000
0100
0000
0001
0000
0010
0010
,
0010
0001
1000
0000
,
1001
0000
0100
0000
0010
0000
1000
1000
,
1000
0100
1000
0000
,
0010
1000
0010
1000
0001
0000
0010
0001
,
0010
0001
0010
0001
1000
0000
0010
0000
,
1000
0001
0100
0001
,
1000
0000
1000
0000
0100
0100
0100
0000
,
0020
0000
0000
0000
,
0030
0000
0000
0000
;

//---------------dance-single - ----------------
#NOTES:
     dance-single:
     :
     Easy:
     2:
     0.118854,0.171739,0.061063,0.000000,0.000000,101.000000,8.000000,0.000000,0.000000,0.000000,0.000000,0.118854,0.171739,0.061063,0.000000,0.000000,101.000000,8.000000,0.000000,0.000000,0.000000,0.000000:
0000
0000
0000
0000
,
0000
0000
0000
0000
,
1000
0000
0001
0000
,
0100
0100
0100
0000
,
0001
0000
1000
0000
,
0100
0100
0100
0000
,
0010
0000
0000
0000
,
0001
0000
1000
0000
,
0010
0000
0000
0000
,
1000
0000
0000
0000
,
1001
0000
0000
0000
,
0100
0000
0000
0000
,
0010
0000
0000
0000
,
1000
0000
0000
0000
,
0001
0000
0000
0000
,
0010
0000
0000
0000
,
0100
0000
0000
0000
,
0000
0000
0000
0000
,
1000
0000
0010
0000
,
1000
0001
0010
0000
,
0001
0000
1000
0000
,
0100
1000
0001
0000
,
0100
0000
0001
0000
,
1000
1000
0100
0010
,
0001
0000
1000
0000
,
0010
0000
1000
0000
,
0001
0010
0001
0001
,
0000
0000
1000
0000
,
0100
0100
0010
0100
,
0000
0000
0000
1000
,
0001
1000
0000
0010
,
0000
1000
0000
0001
,
0100
0000
0000
0001
,
1000
0000
0000
0000
,
1001
0000
0100
1000
,
0010
0000
0010
0000
,
1001
0000
0100
0001
,
0010
0000
0010
0000
,
0100
0100
0100
0000
,
1000
1000
1000
0000
,
0010
0000
1000
0000
,
0001
0000
0001
0000
,
0110
0000
0001
1000
,
0010
0000
0010
0000
,
1001
0000
0100
0001
,
1000
0000
1000
0000
,
0110
0000
1001
0000
,
0100
0010
0100
0000
,
1001
0000
0100
0000
,
0001
1000
0100
0000
,
0010
0000
0000
0000
;

//---------------dance-single - ----------------
#NOTES:
     dance-single:
     :
     Beginner:
     1:
     0.090504,0.133575,0.045797,0.000000,0.000000,77.000000,6.000000,0.000000,0.000000,0.000000,0.000000,0.090504,0.133575,0.045797,0.000000,0.000000,77.000000,6.000000,0.000000,0.000000,0.000000,0.000000:
0000
0000
0000
0000
,
0000
0000
0000
0000
,
1000
0000
0001
0000
,
0100
0000
0000
0000
,
0001
0000
1000
0000
,
0100
0000
0000
0000
,
0010
0000
0000
0000
,
0001
0000
1000
0000
,
0010
0000
0000
0000
,
1000
0000
0000
0000
,
1001
0000
0000
0000
,
0100
0000
0000
0000
,
0010
0000
0000
0000
,
1000
0000
0000
0000
,
0001
0000
0000
0000
,
1000
0000
0000
0000
,
0100
0000
0000
0000
,
0010
0000
0000
0000
,
0110
0000
0001
0000
,
1000
1000
1000
0000
,
1000
0000
0010
0000
,
0100
0100
0100
0000
,
0100
0000
0000
0000
,
0001
0000
1000
0000
,
0100
0000
0000
0000
,
0010
0000
0000
0000
,
1001
0000
0100
0100
,
0000
0000
1000
0000
,
0010
0000
0100
0100
,
0000
0000
0001
0000
,
0010
0000
0100
0000
,
1000
0000
0001
0000
,
1001
0000
0000
0000
,
0100
0000
0000
0000
,
0110
0000
1000
0000
,
0010
0010
0000
0000
,
0110
0000
0001
0000
,
0010
0010
0000
0000
,
0001
0000
1000
0000
,
0100
0000
0100
0000
,
1000
0000
0001
0000
,
0100
0000
0000
0000
,
0010
0010
0000
0010
,
0000
0000
0000
0000
,
1000
1000
0000
1000
,
0000
0000
0000
0000
,
0001
0001
0000
0001
,
0000
0000
0000
0000
,
0100
0000
0100
0000
,
0010
0000
1000
0000
,
0100
0000
0000
0000
;

//---------------dance-double - ----------------
#NOTES:
     dance-double:
     :
     Challenge:
     8:
     0.471055,0.550613,0.358743,0.228985,0.255700,355.000000,47.000000,30.000000,0.000000,0.000000,0.000000,0.471055,0.550613,0.358743,0.228985,0.255700,355.000000,47.000000,30.000000,0.000000,0.000000,0.000000:
00000000
00000000
00000000
00000000
,
00000000
00000000
00000000
00000000
00000000
00000000
00000000
00000000
00000000
00000000
00000000
00000000
00000000
00000000
10000000
01000000
,
20000000
00000000
00000000
00000000
30010000
00000000
00010000
01000000
00020000
00000000
00000000
00000000
10030000
00000000
10000000
01000000
,
00010000
00000000
00001000
00000000
00000100
00000000
00000001
00000000
00001000
00000000
00000010
00000000
00000100
00000000
00000001
00000010
,
00000002
00000000
00000000
00000000
00001003
00000000
00001000
00000010
00002000
00000000
00000000
00000000
00003001
00000000
00000001
00000010
,
00001000
00010000
00100000
10000000
00010000
01000000
01000000
00000000
,
10010000
00000000
00000000
10000000
01000000
00000000
00100000
00000000
00000000
00000000
00010000
00000000
10000000
00000000
00100000
01000000
,
00100000
01000000
00010000
00100000
00001000
00010000
00000100
00001000
,
00001010
00000000
00000000
00001000
00000100
00000000
00000010
00000000
00000000
00000001
00001000
00000000
00000001
00000000
00001000
00000000
,
00000101
00000000
00000000
00001000
00000100
00000000
00001000
00000000
00000000
00000010
00000100
00000000
00000001
00000000
00000100
00000000
,
00000110
00000010
00001000
00000100
00000010
00000001
00001000
00001000
,
00001000
00000100
00010000
00001000
00200000
00000000
00310000
00000000
,
10000000
10000000
10000000
00100000
01000000
00010000
00100000
00100000
,
00100000
00010000
00100000
00001000
00020000
00000000
00030100
00000000
,
00001000
00001000
00001000
00000100
00000010
00000001
00000100
00000100
,
00000100
00000010
00000100
00000001
00001000
00000100
00000010
00000000
,
00002002
00000000
00000000
00000000
00000000
00000000
00000000
00000003
00003000
00000000
00000000
00000000
00000001
00000100
00001000
00020000
,
00000000
02030000
00000000
23000000
00000000
00000000
00000000
00000000
00000000
00000000
00000000
00000000
30010000
00000000
01000000
00100000
,
01000000
00000000
00000000
00010000
10000000
00000000
01000000
00100000
01000000
00000000
00000000
10000000
00010000
00000000
10000000
01000000
,
10000000
00000000
00010000
00000000
00100000
00000000
00001000
00000000
00010000
00000000
00000100
00000000
00001000
00000000
00000010
00000100
,
00000010
00000000
00000000
00001000
00000001
00000000
00000010
00000100
00000010
00000000
00000000
00000001
00001000
00000000
00000010
00000100
,
00000010
00001000
00000100
00000010
00000001
00000100
00000010
00000000
,
00002000
00000000
00000000
00000000
00003100
00000000
00001000
00000000
00000000
00000000
00000001
00000000
00000100
00000000
00000010
00001000
,
00000010
00001000
00000100
00000010
00000001
00001000
00000100
00010000
,
00020000
00000000
00031000
00100000
00001000
00010000
00020000
00000000
,
00032000
00000000
00013000
00000010
00010000
00001000
00001000
00000000
,
00010000
00000000
00000000
00100000
00000000
00000000
10000000
00000000
00000000
01000000
00000000
00000000
00120000
00000000
00000000
00000000
,
10030000
00000000
00000000
00000000
00010000
00000000
01000000
00000000
00100000
10000000
00100000
00000000
01000000
00000000
00010000
00000000
,
00100000
00000000
00000000
00001000
00000000
00000000
00010000
00000000
00000000
00000100
00000000
00000000
00002001
00000000
00000000
00000000
,
00003010
00000000
00000000
00000000
00001000
00000000
00000001
00000000
00000100
00000010
00000100
00000000
00000001
00000000
00000000
00000000
,
00000100
00000000
00000000
00000010
00000000
00000000
00001000
00000000
00000000
00000100
00000000
00000000
00010000
00000000
00000000
00001000
,
00000000
00000000
00100000
00000000
00000000
00010000
00000000
00000000
02000000
00000000
00000000
00000000
03100000
00000000
10000000
00000000
,
02000000
00000000
00000000
00000000
00000000
00000000
00000000
00000000
03000000
00000000
00000000
00000000
10000000
01000000
00100000
00020000
,
00000000
20030000
00000000
30200000
00000000
00000000
00000000
00000000
00000000
00000000
00000000
00000000
01300000
00000000
00000000
00000000
,
01010000
00000000
01000000
00100000
10000000
00000000
11000000
00000000
00110000
00000000
10000000
00000000
10100000
00000000
10010000
00000000
,
01010000
00000000
01000000
00010000
00100000
00000000
00001000
00000000
00100000
00000000
00010000
00100000
00001000
00000000
00000000
00000000
,
00101000
00000000
00001000
00010000
00001000
00000000
00011000
00000000
00010100
00000000
00001000
00000000
00001100
00000000
00001010
00000000
,
00001001
00000000
00000100
00000001
00000100
00000000
00000010
00000000
00001000
00000000
00000001
00000010
00000100
00000000
00000000
00000000
,
00001100
00000000
00000100
00001000
00000001
00000000
00000101
00000000
00001001
00000000
00000010
00000000
00001010
00000000
00000011
00000000
,
00001001
00000000
00001000
00000100
00010000
00000000
00001000
00000000
00010000
00000000
00000100
00010000
00001000
00000000
00000000
00000000
,
00201000
00000000
00000000
00000000
00010000
00000000
00000000
00000000
00301000
00000000
00000000
00000000
00100000
00010000
01000000
00002000
,
00000000
00023000
00000000
00000200
00030000
00000000
00000000
00000000
00000000
00000000
00000000
00000000
00001300
00000000
00000000
00000000
,
00001100
00000000
00000100
00001000
00000001
00000000
00000101
00000000
00001010
00000000
00000001
00000000
00000011
00000000
00001001
00000000
,
00001100
00000000
00000001
00001000
00000010
00000000
00001010
00000000
00000001
00000000
00000100
00000010
00001000
00000000
00000000
00000000
,
00000101
00000000
00000100
00000010
00001000
00000000
00001100
00000000
00000011
00000000
00001000
00000000
00001010
00000000
00001100
00000000
,
00011000
00000000
00001000
00100000
00010000
00000000
00100000
00000000
00001000
00000000
00010000
00100000
00010000
00000000
00000000
00000000
,
00110000
00000000
00100000
10000000
00100000
00000000
10100000
00000000
11000000
00000000
00100000
00000000
00110000
00000000
01100000
00000000
,
10010000
00000000
10000000
01000000
00100000
00000000
00110000
00000000
01000000
00000000
10000000
00010000
01000000
00000000
00100000
00000000
,
20010000
00000000
00000000
00000000
00100000
00000000
00000000
00000000
30010000
00000000
00000000
00000000
10000000
01000000
00100000
00020000
,
00000000
02030000
00000000
00002000
03000000
00000000
00000000
00000000
00000000
00000000
00000000
00000000
00013000
00000000
00000000
00000000
;
