#VERSION:0.83;
#TITLE:Lone Digger;
#SUBTITLE:[CowEye Ver.];
#ARTIST:Caravan Palace;
#TITLETRANSLIT:;
#SUBTITLETRANSLIT:;
#ARTISTTRANSLIT:;
#GENRE:Electro-Swing;
#ORIGIN:;
#CREDIT:Ben Speirs;
#BANNER:Lone Digger [CowEye Ver.]-bn.png;
#BACKGROUND:Lone Digger [CowEye Ver.]-bg.png;
#PREVIEWVID:;
#JACKET:Lone Digger [CowEye Ver.]-jacket.png;
#CDIMAGE:;
#DISCIMAGE:;
#LYRICSPATH:;
#CDTITLE:;
#MUSIC:Lone Digger [CowEye Ver.].ogg;
#OFFSET:0.338000;
#SAMPLESTART:124.328003;
#SAMPLELENGTH:13.714000;
#SELECTABLE:YES;
#BPMS:0.000=124.000;
#STOPS:;
#DELAYS:;
#WARPS:;
#TIMESIGNATURES:0.000=4=4;
#TICKCOUNTS:0.000=4;
#COMBOS:0.000=1;
#SPEEDS:0.000=1.000=0.000=0;
#SCROLLS:0.000=1.000;
#FAKES:;
#LABELS:0.000=Song Start,;
#BGCHANGES:0.750=Lone Digger [CowEye Ver.].mp4=1.000=1=0=1===CrossFade==,
99999=-nosongbg-=1.000=0=0=0 // don't automatically add -songbackground-
;
#KEYSOUNDS:;
#ATTACKS:
;

//---------------dance-single - Ben Speirs----------------
#NOTEDATA:;
#CHARTNAME:;
#STEPSTYPE:dance-single;
#DESCRIPTION:Ben Speirs + CowEye;
#CHARTSTYLE:;
#DIFFICULTY:Challenge;
#METER:10;
#RADARVALUES:0.737546,0.783832,0.229328,0.129365,0.814409,878.000000,839.000000,39.000000,22.000000,0.000000,0.000000,0.000000,0.000000,0.000000,0.737546,0.783832,0.229328,0.129365,0.814409,878.000000,839.000000,39.000000,22.000000,0.000000,0.000000,0.000000,0.000000,0.000000;
#CREDIT:Ben Speirs;
#NOTES:
// measure 0
0000
0000
0000
0000
,  // measure 1
0000
0000
0000
0000
0000
0000
1000
0000
0100
1000
0000
0010
0100
0000
0001
1000
0000
0001
0010
0000
0100
1000
0000
0001
,  // measure 2
0000
0000
0000
0000
2100
0000
0000
0000
0000
0000
0000
0000
3001
0000
0000
0000
0000
0000
0101
0000
0000
0000
0000
0000
0100
0000
0000
0000
0000
0000
0000
0000
0000
0000
0000
0000
0010
0000
0000
1000
0000
0000
0000
0000
0000
0010
0000
0000
,  // measure 3
0000
0000
1000
0000
1100
0000
0100
0000
1000
0000
0000
0000
0001
0100
0000
0001
,  // measure 4
0000
0000
1000
0000
1010
0000
0010
0000
0100
0000
0000
0000
0001
1000
0000
0001
,  // measure 5
0000
0000
0000
1000
0000
0000
0010
0000
0100
0001
0000
0000
1000
0000
0000
1100
0000
0000
0001
0000
0000
0101
0000
0000
,  // measure 6
0100
0000
0000
0000
0010
0000
0000
0000
0000
0000
1000
0000
0001
0000
0000
0000
0000
0000
0100
0000
0000
0000
0000
0000
0101
0000
0000
0000
0000
0000
0000
0000
0000
0000
0000
0000
0010
0000
0000
1000
0000
0000
0010
0000
0000
1000
0000
0000
,  // measure 7
0100
0000
0000
0000
1000
0000
0100
0000
1100
0000
0000
0000
1000
0100
1000
0100
,  // measure 8
0010
0000
0000
0000
0001
0000
0100
0000
0101
0000
0000
0000
1000
0001
1000
0001
,  // measure 9
1000
0000
0000
0000
0000
0000
0001
0000
0100
0010
0000
1000
0001
0000
1000
0100
0000
0010
0000
0000
0001
0010
0000
0001
,  // measure 10
1000
0000
0010
0100
0000
0001
2000
0000
0000
0000
0000
0000
3100
0000
0000
1000
0000
0000
0010
0000
0000
0010
0000
0000
,  // measure 11
0100
0001
0000
1000
0001
1000
0010
0010
,  // measure 12
0100
0100
0001
0010
0100
1000
0001
0001
,  // measure 13
1000
0000
0000
1000
0000
0000
1010
0000
0000
0100
0000
0000
0002
0000
0000
0000
0000
0000
0103
0000
0000
0010
0000
1000
,  // measure 14
0100
0000
1000
0100
0000
1000
0200
0000
0000
0000
0000
0000
1300
0000
0000
0010
0000
0000
0100
0000
0000
0001
0000
0000
,  // measure 15
1000
0000
0001
0000
0000
0000
0100
0000
0100
0000
0000
0001
1000
0000
0001
0000
,  // measure 16
0000
0000
1001
0000
1000
0000
0010
0000
0100
0000
0000
0000
0001
0010
0100
0000
,  // measure 17
1000
0000
0000
0001
0000
0000
0101
0000
0000
0100
0000
0000
0020
0000
0000
0000
0000
0000
1030
0000
0000
0100
0000
0010
,  // measure 18
0001
0000
0000
0000
0010
0000
0001
0000
0000
0000
0010
0000
0001
0000
0000
0100
0000
0000
0010
0000
0000
0000
0000
0000
1000
0000
0000
0000
0000
0000
0001
0000
0000
0000
0000
0000
1000
0000
0000
0100
0000
0000
0010
0000
0000
0000
0000
0000
,  // measure 19
0001
0000
1000
0000
0010
0100
0001
0000
0100
0000
0010
0000
1000
0100
0010
0000
,  // measure 20
0001
0000
1000
0000
0010
0100
0001
0000
1000
0000
0100
0000
0010
0001
1000
0000
,  // measure 21
0010
0000
0000
0100
0000
0000
0101
0000
0000
0100
0000
0000
0020
0000
0000
0000
0000
0000
1030
0000
0000
0001
0000
0100
,  // measure 22
0010
0000
0000
0000
1000
0000
0001
0000
0000
0000
0100
0000
0010
0000
0000
1000
0000
0000
0001
0000
0000
0000
0000
0000
0010
0000
0000
0000
0000
0000
0001
0000
0000
0000
0000
0000
1000
0000
0000
0100
0000
0000
0010
0000
0000
0000
0000
0000
,  // measure 23
0001
0000
1000
0000
0010
0100
0001
0000
1000
0000
0010
0000
1000
0100
0010
0000
,  // measure 24
0001
0000
1000
0000
0001
0100
0010
0000
1000
0000
0001
0000
0010
0001
1000
0000
,  // measure 25
0010
0000
0100
0001
2000
0000
0000
0000
0000
0000
0000
0000
3100
0000
0000
0000
,  // measure 26
0001
1000
0001
1000
0010
0100
0001
0010
0100
1000
0001
0100
0010
0000
0100
0000
,  // measure 27
0001
0100
0010
1000
0001
0000
1000
0000
0100
1000
0000
0001
0100
0001
1000
0000
,  // measure 28
0010
0000
0100
0000
0101
0000
0101
0000
1000
0100
1000
0100
0010
0001
1000
0010
,  // measure 29
0100
0000
0000
0001
0000
0000
1000
0000
0000
0100
0000
0000
0010
0000
0000
0000
0001
0000
1000
0000
0000
0000
0000
0000
0010
0000
0000
0000
0000
0000
1010
0000
0000
0000
0000
0000
0001
0000
0000
0000
0000
0000
0101
0000
0000
0000
0000
0000
,  // measure 30
1000
0000
0000
0000
0100
0000
0000
0000
0000
0000
1000
0000
0001
0000
0000
0100
0000
0000
0010
0000
0000
0100
0000
0000
0001
0000
0000
0100
0000
0000
0010
0000
0000
1000
0000
0000
0100
0000
0000
0000
0000
0000
1000
0000
0000
0000
0000
0000
,  // measure 31
0001
0000
0000
0010
0000
0000
0001
0000
0010
0000
0100
0000
1000
0000
0000
0000
0000
0000
0001
0000
0000
0000
0000
0000
0100
0000
0000
0010
0000
0000
0100
0000
0000
0000
0000
0000
0001
0000
0000
1000
0000
0000
0001
0000
0000
1000
0000
0000
,  // measure 32
0100
1000
0001
0000
1000
0100
1000
0001
0010
0001
1000
0010
0100
0001
1000
0100
,  // measure 33
0010
0000
0000
0001
0000
0000
1000
0000
0000
0000
0000
0000
0001
0000
0000
0000
0100
0000
0001
0000
0000
0000
1000
0000
0100
0000
0000
0000
1000
0000
0010
0000
0000
0000
0100
0000
0000
0000
0000
0000
0001
0000
0010
0000
0000
0000
0100
0000
,  // measure 34
1000
0000
0010
0100
0000
0001
2000
0000
0000
0000
0000
0000
0000
0000
0000
0000
0000
0000
3200
0000
0000
0000
0000
0000
,  // measure 35
0000
0302
0000
0023
,  // measure 36
0000
0000
1030
0000
0001
0000
0100
0001
,  // measure 37
1000
0000
0000
0000
0000
0000
0010
0000
0000
1000
0000
0000
0100
0000
0000
0000
0000
0000
0010
0000
0000
0001
0000
1000
,  // measure 38
0100
0000
1000
0100
0000
1000
0200
0000
0000
0000
0000
0000
1300
0000
0000
0010
0000
0000
0100
0000
0000
0000
0000
0000
,  // measure 39
0001
0000
0200
0000
0301
0010
0200
0000
,  // measure 40
1300
0000
1002
0000
0103
0010
2000
0000
,  // measure 41
3001
2200
0000
3300
,  // measure 42
0000
0000
0000
0000
0001
0000
0100
0001
0100
0000
0001
1000
0001
0000
1000
0100
,  // measure 43
1000
0000
0001
0100
0001
0000
1000
0010
1000
0000
0001
0010
0001
0000
1000
0010
,  // measure 44
1000
0000
0001
0000
0101
0000
0100
0010
0100
0000
0010
1000
0010
0000
1000
0100
,  // measure 45
1000
0000
0000
0000
0000
0000
0001
0000
0000
1000
0000
0000
0001
0000
0000
0000
0000
0000
0100
0000
0000
0000
0000
0000
0010
0000
0000
0000
0000
0000
0000
0000
0000
0000
0000
0000
1000
0000
0000
0000
0000
0000
0001
0000
0000
0000
0100
0000
,  // measure 46
0010
0000
0000
0000
0100
0000
0010
0000
0000
0000
0100
0000
0010
0000
0000
0000
0000
0000
1000
0000
0000
0100
0000
0000
1000
0000
0000
0000
0000
0000
0001
0000
0000
0100
0000
0000
0001
0000
0000
0000
0000
0000
1000
0000
0000
0001
0000
0000
,  // measure 47
1000
0000
0001
0010
0001
0000
1000
0010
1000
0000
0001
0100
0001
0000
0100
0010
,  // measure 48
0100
0000
0001
0000
0101
0000
0100
0010
0100
0000
0010
1000
0010
0000
1000
0100
,  // measure 49
1000
0000
0001
0100
0002
0000
0000
0000
0000
0000
0000
0000
1003
0000
0000
0000
,  // measure 50
0001
1000
0001
1000
0010
0100
0001
0010
0100
1000
0001
0100
0010
0000
0100
0000
,  // measure 51
0001
0100
0010
1000
0001
0000
1000
0000
0100
1000
0000
0001
0100
0001
1000
0000
,  // measure 52
0010
0000
0100
0000
0101
0000
0101
0000
1000
0100
1000
0100
0010
0001
1000
0010
,  // measure 53
0100
0000
0000
0001
0000
0000
1000
0000
0000
0100
0000
0000
0010
0000
0000
0000
0001
0000
1000
0000
0000
0000
0000
0000
0010
0000
0000
0000
0000
0000
1010
0000
0000
0000
0000
0000
0001
0000
0000
0000
0000
0000
0101
0000
0000
0000
0000
0000
,  // measure 54
1000
0000
0000
0000
0100
0000
0000
0000
0000
0000
1000
0000
0001
0000
0000
0100
0000
0000
0010
0000
0000
0100
0000
0000
0001
0000
0000
0100
0000
0000
0010
0000
0000
1000
0000
0000
0100
0000
0000
0000
0000
0000
1000
0000
0000
0000
0000
0000
,  // measure 55
0001
0000
0000
0010
0000
0000
0001
0000
0010
0000
0100
0000
1000
0000
0000
0000
0000
0000
0001
0000
0000
0000
0000
0000
0100
0000
0000
0010
0000
0000
0100
0000
0000
0000
0000
0000
0001
0000
0000
1000
0000
0000
0001
0000
0000
1000
0000
0000
,  // measure 56
0100
1000
0001
0000
1000
0100
1000
0001
0010
0001
1000
0010
0100
0001
1000
0100
,  // measure 57
0010
0000
0000
0001
0000
0000
1000
0000
0000
0000
0000
0000
0100
0000
0000
0000
1000
0000
0001
0000
0000
0000
0000
0000
0100
0000
0000
0000
0000
0000
0101
0000
0000
0000
0000
0000
1000
0000
0000
0000
0000
0000
1010
0000
0000
0000
0000
0000
,  // measure 58
0001
0000
0000
0000
0010
0000
0000
0000
0000
0000
0001
0000
1000
0000
0000
0010
0000
0000
0100
0000
0000
0000
0000
0000
0001
0000
0000
0000
0000
0000
0010
0000
0000
0000
0000
0000
0100
0000
0000
1000
0000
0000
0010
0000
0000
0000
0000
0000
,  // measure 59
0100
0000
0001
0000
1000
0001
0100
0001
0000
0001
0100
0010
1000
0010
0100
0000
,  // measure 60
0001
0010
0100
1000
0001
0100
0010
0000
1000
0000
0100
0000
0010
0001
0100
0000
,  // measure 61
0010
0000
1000
0000
0001
1000
0010
1000
0000
1000
0010
0100
0001
0100
0010
0000
,  // measure 62
1000
0100
0010
0001
0100
0010
1000
0000
1000
0000
0001
0000
0100
0001
0010
0000
,  // measure 63
0100
0000
1000
0000
0001
1000
0100
1000
0000
1000
0100
0010
0001
0010
0100
0000
,  // measure 64
1000
0010
0100
0001
1000
0010
0100
0000
0001
0000
0100
0000
1000
0100
0001
0000
,  // measure 65
0001
0000
0000
1000
0000
0000
0001
0000
0010
0001
0000
0100
0010
0000
1000
0001
0000
1000
0100
0000
0010
0001
0000
1000
,  // measure 66
0000
0000
0012
0000
0000
0000
1003
0000
0100
0010
0000
0100
0010
0000
0000
0001
0000
0100
0000
0000
0001
0010
0000
0100
,  // measure 67
1000
0000
0000
1001
0000
0000
0001
0000
0010
0100
0000
0010
0100
0000
0000
1000
0000
0010
0000
0000
1000
0100
0000
0010
,  // measure 68
0001
0000
0000
1001
0000
0000
1000
0000
0010
0100
0000
0001
1000
0000
0000
0001
0000
0100
0000
0000
0001
0010
0000
0100
,  // measure 69
1000
0000
0000
0001
0000
0000
1000
0000
0010
0100
0000
0000
0001
0000
0000
0011
0000
0000
1000
0000
0000
1010
0000
0000
,  // measure 70
0001
0000
1000
0000
0000
0010
0100
0000
0001
0010
0000
0001
0010
0000
0000
0001
0000
0010
0100
0000
0100
1000
0000
1000
,  // measure 71
0010
0000
0000
0100
0000
0000
0010
0000
1000
0100
0000
1000
0100
0000
0000
1000
0000
0100
0010
0000
0010
0001
0000
0001
,  // measure 72
0100
0000
0000
0010
0000
0000
0100
0000
0001
1000
0000
0001
1000
0000
0000
0001
0000
0010
0100
0000
1000
0010
0000
0100
,  // measure 73
0001
0000
0000
0001
0000
0000
0100
0000
0001
1000
0000
0000
0010
0000
0000
1010
0000
0000
0001
0000
0000
0101
0000
0000
,  // measure 74
1000
0001
1000
0001
0100
0010
1000
0100
0010
0001
1000
0010
0100
0000
0010
0000
,  // measure 75
1000
0010
0100
0001
1000
0000
0001
0000
0010
0001
0000
1000
0010
1000
0001
0000
,  // measure 76
0100
0000
0010
0000
1010
0000
1010
0000
0001
0010
0001
0010
0100
1000
0001
0100
,  // measure 77
0010
0000
0000
1000
0000
0000
0001
0000
0000
0010
0000
0000
0100
0000
0000
0000
1000
0000
0001
0000
0000
0000
0000
0000
0100
0000
0000
0000
0000
0000
0101
0000
0000
0000
0000
0000
1000
0000
0000
0000
0000
0000
1010
0000
0000
0000
0000
0000
,  // measure 78
0001
0000
0000
0000
0010
0000
0000
0000
0000
0000
0001
0000
1000
0000
0000
0010
0000
0000
0100
0000
0000
0010
0000
0000
1000
0000
0000
0010
0000
0000
0100
0000
0000
0001
0000
0000
0010
0000
0000
0000
0000
0000
0001
0000
0000
0000
0000
0000
,  // measure 79
1000
0000
0000
0100
0000
0000
1000
0000
0100
0000
0010
0000
0001
0000
0000
0000
0000
0000
1000
0000
0000
0000
0000
0000
0010
0000
0000
0100
0000
0000
0010
0000
0000
0000
0000
0000
1000
0000
0000
0001
0000
0000
1000
0000
0000
0001
0000
0000
,  // measure 80
0010
0001
1000
0000
0001
0010
0001
1000
0100
1000
0001
0100
0010
1000
0001
0010
,  // measure 81
0100
1000
0001
0000
0100
0000
0010
0000
1000
0000
0100
0000
0010
0000
0001
0000
,  // measure 82
1000
0010
2002
0000
0000
0000
0000
0000
,  // measure 83
0000
0000
0000
0000
,  // measure 84
0000
0000
0000
0000
,  // measure 85
0000
0000
0000
0000
,  // measure 86
3003
0000
0000
0000
;
