#TITLE:Kiss;
#SUBTITLE:;
#ARTIST:Prince and The Revolutions;
#TITLETRANSLIT:;
#SUBTITLETRANSLIT:;
#ARTISTTRANSLIT:;
#GENRE:RIP Prince;
#CREDIT:;
#BANNER:Kiss.png;
#BACKGROUND:Kiss-bg.png;
#LYRICSPATH:;
#CDTITLE:cdtitle.png;
#MUSIC:Kiss.ogg;
#OFFSET:-0.123000;
#SAMPLESTART:43.748329;
#SAMPLELENGTH:19.599995;
#SELECTABLE:YES;
#DISPLAYBPM:111.000000;
#BPMS:0.000000=106.641998
,1.000000=117.422997
,2.000000=110.869003
,3.000000=113.308998
,4.000000=110.485001
,5.000000=108.950996
,6.000000=112.598999
,7.000000=112.500000
,10.000000=110.102997
,11.000000=112.075996
,12.000000=110.902000
,13.000000=108.171997
,14.000000=114.144997
,15.000000=113.334000
,16.000000=110.102997
,17.000000=108.171997
,18.000000=104.165001
,19.000000=114.783997
,20.000000=110.305000
,21.000000=112.500000
,22.000000=111.890999
,23.000000=113.115997
,24.000000=107.977997
,25.000000=112.716003
,26.000000=111.495003
,27.000000=113.304001
,28.000000=109.692001
,29.000000=111.111000
,30.000000=110.869003
,31.000000=113.958000
,32.000000=112.716003
,33.000000=112.500000
,34.000000=108.171997
,35.000000=113.334000
,36.000000=110.693001
,37.000000=109.112999
,38.000000=114.768997
,39.000000=109.692001
,40.000000=110.516998
,41.000000=113.737999
,42.000000=110.102997
,43.000000=112.070999
,44.000000=110.102997
,45.000000=112.500000
,46.000000=110.488998
,47.000000=114.584999
,48.000000=108.372002
,49.000000=112.290001
,50.000000=112.500000
,52.000000=109.316002
,53.000000=113.737999
,54.000000=109.316002
,55.000000=113.334000
,56.000000=112.500000
,57.000000=114.960999
,58.000000=107.806000
,59.000000=110.102997
,60.000000=110.070999
,61.000000=112.931999
,62.000000=108.171997
,63.000000=116.296997
,64.000000=108.943001
,65.000000=117.189003
,66.000000=105.224998
,67.000000=113.737999
,68.000000=110.102997
,69.000000=112.500000
,71.000000=111.083000
,72.000000=112.980003
,73.000000=115.838997
,74.000000=107.865997
,75.000000=112.903000
,76.000000=108.171997
,77.000000=116.098000
,78.000000=108.943001
,79.000000=112.471001
,80.000000=112.716003
,81.000000=112.500000
,82.000000=107.973999
,83.000000=112.716003
,84.000000=110.902000
,85.000000=114.144997
,86.000000=108.171997
,87.000000=117.189003
,88.000000=106.857002
,89.000000=118.772003
,90.000000=108.171997
,91.000000=112.500000
,92.000000=107.806000
,93.000000=111.890999
,94.000000=110.485001
,95.000000=115.647003
,96.000000=108.177002
,97.000000=114.259003
,98.000000=109.389000
,99.000000=112.500000
,100.000000=109.519997
,101.000000=111.078003
,102.000000=112.500000
,103.000000=113.334000
,104.000000=107.413002
,105.000000=117.189003
,106.000000=108.943001
,107.000000=114.144997
,108.000000=110.102997
,109.000000=112.500000
,110.000000=109.316002
,111.000000=113.737999
,112.000000=105.602997
,113.000000=105.767998
,114.000000=118.293999
,115.000000=107.806000
,116.000000=110.485001
,117.000000=117.189003
,118.000000=108.171997
,119.000000=111.078003
,120.000000=109.692001
,121.000000=112.319000
,122.000000=110.485001
,123.000000=114.366997
,124.000000=112.716003
,125.000000=112.500000
,126.000000=107.247002
,127.000000=114.366997
,128.000000=102.285004
,129.000000=107.417000
,130.000000=110.278000
,131.000000=106.952003
,132.000000=109.519997
,133.000000=116.068001
,134.000000=108.003998
,135.000000=112.686996
,136.000000=111.707001
,137.000000=112.898003
,138.000000=112.339996
,139.000000=112.290001
,140.000000=109.925003
,141.000000=109.492996
,142.000000=113.334000
,143.000000=113.517998
,144.000000=110.693001
,145.000000=108.171997
,146.000000=117.189003
,147.000000=110.485001
,148.000000=110.721001
,149.000000=107.583000
,150.000000=112.948997
,151.000000=112.500000
,152.000000=108.171997
,153.000000=117.189003
,154.000000=108.171997
,155.000000=112.500000
,156.000000=110.902000
,157.000000=114.144997
,158.000000=109.117996
,159.000000=111.707001
,160.000000=107.977997
,161.000000=108.171997
,162.000000=108.612000
,163.000000=114.144997
,164.000000=111.987999
,165.000000=114.144997
,166.000000=106.146004
,167.000000=114.778999
,168.000000=111.500000
,169.000000=113.517998
,170.000000=111.078003
,171.000000=109.320999
,172.000000=113.547997
,173.000000=116.296997
,174.000000=108.171997
,175.000000=112.716003
,176.000000=108.544998
,177.000000=111.495003
,178.000000=109.320999
,179.000000=116.296997
,180.000000=108.943001
,181.000000=111.679001
,182.000000=109.723999
,183.000000=115.419998
,184.000000=112.500000
,186.000000=108.571999
,187.000000=113.704002
,188.000000=111.711998
,189.000000=111.679001
,190.000000=109.897003
,191.000000=114.366997
,192.000000=108.773003
,193.000000=112.681999
,194.000000=109.897003
,195.000000=115.228996
,196.000000=109.519997
,197.000000=111.078003
,198.000000=110.488998
,199.000000=114.584999
,200.000000=108.943001
,201.000000=111.682999
,202.000000=113.329002
,203.000000=112.500000
,204.000000=109.696999
,205.000000=114.589996
,206.000000=108.171997
,207.000000=114.144997
,208.000000=111.111000
,209.000000=112.285004
,210.000000=108.171997
,211.000000=114.366997
,212.000000=108.571999
,213.000000=114.778999
,214.000000=111.739998
,215.000000=113.115997
,216.000000=110.485001
,217.000000=113.334000
,218.000000=111.679001
,219.000000=112.500000
,220.000000=108.171997
,221.000000=112.500000
,222.000000=111.083000
,223.000000=112.513000
,224.000000=113.523003
,225.000000=108.943001
,226.000000=110.693001
,227.000000=111.679001
,228.000000=110.693001
,229.000000=113.009003
,230.000000=112.500000
,232.000000=111.211998
,233.000000=117.189003
,234.000000=107.247002
,235.000000=109.112999
,236.000000=110.902000
,237.000000=113.300003
,238.000000=108.943001
,239.000000=111.570000
,240.000000=109.362999
,241.000000=118.974998
,242.000000=109.339996
,243.000000=114.144997
,244.000000=109.348000
,245.000000=116.068001
,246.000000=108.171997
,247.000000=113.332001
,248.000000=109.994003
,249.000000=107.417000
,250.000000=113.876999
,251.000000=113.334000
,252.000000=112.500000
,253.000000=111.679001
,254.000000=108.171997
,255.000000=113.609001
,256.000000=108.943001
,257.000000=112.285004
,258.000000=111.078003
;
#STOPS:
;
#BGCHANGES:0.500=Kiss.avi=1.000=0=0=1=====,
99999=-nosongbg-=1.000=0=0=0 // don't automatically add -songbackground-
;
#KEYSOUNDS:;
#ATTACKS:;

//---------------dance-single - ----------------
#NOTES:
     dance-single:
     :
     Hard:
     8:
     0.542179,0.506153,0.185482,0.199750,0.235420,478.000000,26.000000,28.000000,0.000000,0.000000,0.000000,0.542179,0.506153,0.185482,0.199750,0.235420,478.000000,26.000000,28.000000,0.000000,0.000000,0.000000:
0000
0000
0000
0000
,
1000
0100
1000
0000
0100
0000
0010
0000
0010
0000
0001
0000
1000
0000
0000
0000
,
0001
0100
0001
0000
0100
0000
0010
0000
0010
0000
1000
0000
0001
0000
0000
0000
,
1000
0100
1000
0000
0001
0000
1000
0000
1000
0000
0010
0000
0100
0000
0000
0000
,
1001
0000
0000
0110
,
0002
0000
0100
0203
0310
0100
0101
0000
,
0010
1000
0100
0010
0001
1000
1001
0000
,
1000
0010
1000
0010
1000
0000
0100
0000
0100
0000
0010
0000
0001
0000
0000
0000
,
0100
0001
0100
0001
0100
0000
0010
0000
0010
0000
0100
0000
0001
0000
0000
0000
,
2000
0000
0010
3020
0130
0010
1010
0000
,
0100
0001
0010
0100
1000
0001
1001
0000
,
0001
0100
0001
0100
0001
0000
0010
0000
0010
0000
0100
0000
1000
0000
0000
0000
,
0010
1000
0010
1000
0010
0000
0100
0000
0100
0000
0010
0000
1000
0000
1000
0000
,
0102
0000
1003
1200
0000
0000
0310
0000
,
0001
1000
0001
0000
1000
0000
0100
0000
0100
0000
0010
0000
0001
0000
0000
0000
,
2100
0000
3001
0201
0000
0000
0310
0000
,
1000
0001
1000
0000
0001
0000
0010
0000
0010
0000
0100
0000
1000
0000
0001
0000
,
0100
0000
0100
0010
0000
0000
0100
0000
0100
0000
0001
0000
1000
0000
0000
0000
,
0100
1000
0001
0010
0001
1000
0010
0100
,
0001
0010
0001
0000
1000
0000
0001
0000
0001
0000
0010
0000
0011
0000
0000
0000
,
1000
0010
1000
0000
0002
0000
0000
0000
0103
0000
0010
0000
2000
0000
0000
0000
,
3001
0000
0000
0000
1100
0000
0100
0000
0010
0001
0010
0000
0100
0000
2000
0000
,
0000
3001
0100
0010
1000
0010
0100
0001
,
1000
0000
0100
0000
1100
0000
0001
0000
0010
0100
0010
0000
0001
0000
2000
0000
,
0000
3010
0100
0010
0100
0100
0010
1000
,
0002
0000
0013
0001
0010
0001
1000
0010
,
0100
0000
0001
0100
0010
1000
0100
0000
,
1100
0000
0001
0101
0000
1000
1010
0000
,
0001
1000
0001
1000
0001
1000
0001
1000
0001
0000
0000
0000
0110
0000
0000
0000
,
1001
1000
0100
0100
0010
0001
1000
0000
,
0001
0100
0001
0100
0010
0000
0010
0000
0100
0000
0001
0000
1000
0000
0000
0000
,
0010
0100
0010
0000
1000
0000
1000
0000
0100
0000
0010
0000
0001
0000
0000
0000
,
1000
0001
0000
0000
0000
0000
0000
0000
0000
0000
0000
0000
0110
0000
0000
0000
,
1000
0100
1000
0001
0000
0000
0001
0100
0001
1000
0000
0000
1000
0000
0001
0000
,
0100
0010
0100
0010
1000
0000
0100
0000
0100
0000
0010
0000
0001
0000
1000
0000
,
0010
0100
0010
0100
0001
0000
1000
0000
0100
0000
0010
0000
0001
0000
1000
0000
,
0010
1000
0010
1000
0100
0000
0010
0000
0001
0100
0001
0000
1000
0000
0000
0000
,
0001
0010
0001
1000
0000
0000
1000
0010
1000
0001
0000
0000
0001
0000
1000
0000
,
0010
0100
0010
0100
0001
0000
0010
0000
0010
0000
0100
0000
1000
0000
0001
0000
,
0100
0010
0100
0010
1000
0000
0001
0000
0010
0000
0100
0000
1000
0000
0001
0000
,
1001
0000
0000
1001
,
1100
0000
0000
0100
0000
0000
1000
0000
0010
0000
0100
0000
0010
0000
0000
0000
,
0100
0100
0001
1000
0100
0010
0001
0000
,
0011
0000
0000
0001
0000
0000
1000
0000
0010
0000
1000
0000
0001
0000
0000
0000
,
0100
0001
0100
0010
1000
1000
0001
0000
,
1000
0100
1000
0100
0000
1000
0100
0000
0010
0000
0010
0000
0002
0000
0000
0000
,
1003
0010
0100
0001
1000
1000
0010
0000
,
0100
0001
0100
0001
0000
0100
0001
0000
0100
0000
0100
0000
0020
0000
0000
0000
,
1030
0100
0010
0001
1000
0010
0100
0000
,
2001
0000
3010
0002
0000
0103
2000
0000
,
3001
0000
0010
0000
0100
0000
0010
0000
0001
0000
1000
0000
0010
0100
0010
0000
,
0200
0000
0301
1000
0001
1000
0100
0000
,
1000
0001
1000
0000
0010
0000
0010
0000
0100
0000
0001
0000
1000
0000
0000
0000
,
2100
0000
0010
3002
0000
0000
0103
0000
,
0010
1000
0001
0010
0100
1000
0001
1000
,
0020
0000
0130
0001
0100
0010
1000
0000
,
0001
0010
0001
0010
0200
0000
0000
0000
1300
0000
0010
0000
0100
0000
0001
0000
,
2001
0000
0000
0000
3010
0000
1000
0000
0001
0010
0100
0000
1000
0000
0010
0000
,
0200
0000
0301
0100
0010
1000
0100
0010
,
0002
0000
0000
0000
1003
0000
0001
0000
0100
0010
0100
0000
0010
0000
1000
0000
,
0001
0010
1000
0010
0001
0100
1000
0100
,
0020
0000
1030
0001
0010
0100
1000
0002
,
0000
0000
0103
0000
0010
0000
1000
0001
0010
0000
0100
0000
1000
0000
0010
0000
,
0100
0000
0000
0100
0010
0000
1000
0000
0000
1000
0100
0000
0010
0000
0001
0000
,
0100
0001
0100
0001
0100
0001
0100
0001
0100
0000
0000
0000
0000
0000
0000
0000
;

//---------------dance-single - ----------------
#NOTES:
     dance-single:
     :
     Medium:
     5:
     0.345486,0.391118,0.185482,0.306759,0.000000,270.000000,26.000000,43.000000,0.000000,0.000000,0.000000,0.345486,0.391118,0.185482,0.306759,0.000000,270.000000,26.000000,43.000000,0.000000,0.000000,0.000000:
0000
0000
0000
0000
,
0001
1000
0010
0010
,
1000
0001
1000
0000
0010
0000
0000
0000
,
0001
0000
0100
0000
0010
1000
0010
0000
,
1001
0000
0000
0010
,
2000
0000
3100
0020
0000
0000
0031
0000
,
1000
0000
0001
0000
0100
0010
0100
0010
,
1000
0001
0010
0000
,
0001
0000
1000
0000
0010
0100
0010
0000
,
2000
0000
3100
0020
0000
0000
0030
0000
,
0001
0000
1000
0000
0001
0010
0100
1000
,
0001
0000
0100
0100
,
0010
0000
1000
0000
0001
1000
0001
0000
,
0200
0000
0310
2000
0000
0000
3100
0000
,
0020
0000
0030
0000
0001
0010
0100
1000
,
0010
0100
0001
0000
,
1000
0100
1000
0000
0001
0010
0001
0000
,
0200
0000
0000
0320
0000
0000
1030
0000
,
0001
0000
1000
0000
0100
1000
0001
0000
,
0101
0000
0000
1100
0000
0000
0001
0000
,
0100
0000
0010
0000
1000
0010
0200
0000
,
0002
0000
0303
0000
0001
0010
0001
0100
,
0001
0000
0010
0000
0001
0010
0100
1000
,
0020
0000
0030
0000
1000
0100
1000
0010
,
1000
0001
1000
0010
,
0101
1100
0001
0010
,
2002
0000
3003
0000
0010
1000
0010
0000
,
0100
0000
0100
0001
0000
0001
1000
0000
,
0100
0010
0100
0010
0100
0000
0000
0000
,
1001
1000
0100
0000
,
1001
0001
0100
0000
,
1001
0000
1000
0010
0100
0000
1001
0000
,
0100
0000
0000
0000
,
0001
0000
0100
0000
0010
0000
1000
0100
,
2000
3001
0100
0000
,
0010
1000
0010
0000
0100
0000
0000
0000
,
0001
0010
0001
0000
1000
0000
1001
0000
,
2000
0000
3200
0000
0320
0000
0031
1000
,
0010
0110
0000
0101
,
1000
0100
1000
0000
0000
0000
0011
0000
,
1001
0000
0000
0010
,
2100
0000
3001
0000
0100
0000
0010
0100
,
0001
0000
0000
0000
1000
0100
1000
0000
,
0012
1003
0010
0000
,
0100
0000
0100
0000
0010
1000
0001
0000
,
2100
3002
0203
0320
,
1030
0000
0000
0000
0001
1000
0001
1000
,
0020
0000
0130
0002
0000
0000
1003
0000
,
0010
0000
1000
0000
0001
0010
0100
0000
,
2100
0000
0000
3002
0000
0000
0103
0000
,
0010
0110
0100
0110
,
2002
0000
3003
0000
1000
0100
0010
0000
,
0001
0000
1000
0000
0001
0001
1000
0010
,
0200
0000
0000
0302
0000
0000
1003
0000
,
0010
0000
0000
0000
1000
0100
1000
0000
,
0012
0000
1003
0000
,
1100
0000
0001
0000
0100
0100
0100
0000
,
2002
0000
3003
0000
0001
0100
0010
1000
,
0001
0000
0100
0000
0010
0010
0010
0000
,
2002
0000
3003
0000
1000
0100
0010
0001
,
1000
0000
0001
0000
0100
0100
0100
0000
,
0020
2030
3200
0320
,
0032
0000
2003
0000
3010
0100
0010
0000
,
1000
0000
1000
0100
0000
0100
0010
0000
,
0001
1000
0001
1000
0001
0000
0000
0000
;

//---------------dance-single - ----------------
#NOTES:
     dance-single:
     :
     Easy:
     3:
     0.180387,0.184056,0.042804,0.057072,0.000000,163.000000,6.000000,8.000000,0.000000,0.000000,0.000000,0.180387,0.184056,0.042804,0.057072,0.000000,163.000000,6.000000,8.000000,0.000000,0.000000,0.000000:
0000
0000
0000
0000
,
1000
0001
0000
0100
,
0000
0010
0000
1000
,
0100
0010
0000
0001
,
1000
0000
0000
0000
,
0020
0030
0100
0100
,
0001
0000
1000
0100
,
0010
0000
0001
0000
,
1000
0001
1000
0000
,
0020
0030
0100
0000
,
0001
1000
0010
0000
,
1000
0000
0001
0000
,
1000
0100
0010
0000
,
0002
0003
2000
3000
,
0010
0000
0100
0100
,
0001
0000
1000
0000
,
0001
0100
0010
0000
,
2000
3000
0002
0003
,
1000
0100
0010
0000
,
0001
1000
0010
0000
,
0100
0000
0010
0000
,
1001
0000
1000
1000
,
0100
0000
1000
0000
,
0001
0000
0100
0100
,
0010
0000
1000
0000
,
0001
0000
1000
0000
,
0100
0100
0010
0010
,
0001
0000
1000
0000
,
0020
0000
0030
0010
,
1001
0000
1000
0000
,
0100
0100
0010
0000
,
0001
0001
0100
0000
,
1001
0000
0000
0000
,
1000
0000
0100
0100
,
0010
0001
1000
0000
,
0010
0010
0100
0000
,
0001
0001
1000
0000
,
0100
0000
1000
1000
,
0010
0100
0100
0000
,
0001
1000
1000
0000
,
0100
0000
0000
0000
,
1001
0000
0010
0010
,
0001
0000
1000
0001
,
1000
0000
0010
0000
,
0100
0100
0010
0010
,
1000
0000
0001
0001
,
0010
0000
0001
0000
,
1000
0000
0010
0000
,
0100
0100
0010
0010
,
1000
0000
0001
0000
,
0010
0000
0001
0001
,
1000
0000
0000
0010
,
0010
0000
0100
0100
,
0100
0000
0001
0000
,
1000
0100
0010
0001
,
1000
0000
0001
0000
,
0100
0100
0010
0000
,
1001
0000
1000
0100
,
0010
0000
0001
1000
,
0001
0000
0100
0000
,
0100
0000
0010
0000
,
1001
0000
1000
0000
,
0001
0000
0100
0010
,
1000
0000
0001
0000
,
0200
0000
0300
0000
;

//---------------dance-single - ----------------
#NOTES:
     dance-single:
     :
     Beginner:
     1:
     0.103952,0.138042,0.007134,0.000000,0.000000,101.000000,1.000000,0.000000,0.000000,0.000000,0.000000,0.103952,0.138042,0.007134,0.000000,0.000000,101.000000,1.000000,0.000000,0.000000,0.000000,0.000000:
0000
0000
0000
0000
,
0001
0000
0000
0000
,
1000
0000
0000
0000
,
0010
0000
0000
0000
,
0100
0000
0000
0000
,
0001
0000
0001
0000
,
0100
0000
0000
0000
,
0010
0000
0000
0000
,
1000
0000
0000
0000
,
1000
0000
1000
0000
,
0100
0000
0000
0000
,
0010
0000
0000
0000
,
0001
0000
0000
0000
,
0100
0100
0000
0000
,
0001
0000
0001
0000
,
1000
0000
0000
0000
,
0010
0000
0000
0000
,
1000
1000
0000
0000
,
0001
0000
0001
0000
,
0100
0000
0000
0000
,
0010
0000
0000
0000
,
1001
0000
1000
0000
,
0100
0000
0000
0000
,
0010
0000
0010
0000
,
0001
0000
0000
0000
,
0001
0000
0100
0000
,
0100
0000
0000
0000
,
0010
0000
0010
0000
,
1000
0000
0000
0001
,
0001
0000
0000
0100
,
0100
0000
0000
0000
,
0001
0000
0001
0000
,
1000
0000
0000
0000
,
0010
0000
0010
0000
,
0010
0010
0000
0000
,
1000
1000
0000
0000
,
0001
0001
0000
0000
,
0100
0000
0100
0100
,
0100
0000
0000
0010
,
0010
0000
0000
1000
,
1000
0000
0000
0000
,
0001
0000
0000
0000
,
1000
0000
0000
0010
,
0010
0000
0000
0000
,
0100
0000
0100
0000
,
0100
0000
0001
0001
,
0000
0000
1000
1000
,
1000
0000
0000
0000
,
0010
0000
0000
0000
,
0100
0000
0100
0000
,
0001
0000
0000
1000
,
1000
0000
0000
0010
,
0010
0000
0100
0000
,
0100
0000
0000
0000
,
0001
0000
1000
0000
,
0001
0000
0000
0000
,
0100
0000
0000
0000
,
0010
0000
0000
0000
,
1000
0000
0100
0100
,
0100
0000
0000
0000
,
0010
0000
0010
0000
,
0001
0000
0000
0000
,
1000
0000
0000
0000
,
0010
0000
0010
0000
,
0100
0100
0100
0000
;

//---------------dance-double - ----------------
#NOTES:
     dance-double:
     :
     Challenge:
     8:
     0.508548,0.529160,0.114143,0.235420,0.210451,450.000000,16.000000,33.000000,0.000000,0.000000,0.000000,0.508548,0.529160,0.114143,0.235420,0.210451,450.000000,16.000000,33.000000,0.000000,0.000000,0.000000:
// measure 0
00000000
00000000
00000000
00000000
,  // measure 1
00000001
00000100
00000001
00000000
00000100
00000000
00000100
00000000
00000010
00000000
00000000
00000000
00001000
00000000
00000000
00000000
,  // measure 2
00000100
00001000
00000100
00000000
00010000
00000000
00010000
00000000
00001000
00000000
00000000
00000000
00100000
00000000
00000000
00000000
,  // measure 3
00010000
01000000
00010000
00000000
01000000
00000000
01000000
00000000
00100000
00000000
00000000
00000000
10000000
00000000
00000000
00000000
,  // measure 4
10010000
00000000
00000000
00000000
,  // measure 5
20000000
00000000
31000000
00100000
01000000
00100000
00010000
00000000
,  // measure 6
10000000
00000000
00100000
00000000
01000000
00010000
01000000
00100000
,  // measure 7
20000000
00000000
31000000
00000000
00100000
00010000
00100000
00000000
,  // measure 8
00010000
00100000
00001000
00000000
00010000
00000100
00001000
00000000
,  // measure 9
00000020
00000000
00001030
00000100
00001000
00000100
00000010
00000000
,  // measure 10
00000002
00000000
00001003
00000000
00000010
00001000
00000100
00000000
,  // measure 11
00002200
00000000
00003300
00000000
00000001
00001000
00000001
00000000
,  // measure 12
00000100
00000100
00000010
00001000
00000100
00000100
00010000
00000000
,  // measure 13
00020100
00000000
00031000
00102000
00000000
00000000
00013000
00000000
,  // measure 14
00001000
00010000
00100000
10000000
01000000
00100000
00010000
00000000
,  // measure 15
10000000
01000000
10000000
01000000
10000000
00000000
00100000
00000000
00100000
00000000
10000000
00000000
00010000
00000000
00000000
00000000
,  // measure 16
01000000
00010000
01000000
00010000
01000000
00000000
00100000
00000000
00100000
00000000
10000000
00000000
01000000
00000000
00000000
00000000
,  // measure 17
10000000
01000000
00100000
00010000
01000000
00010000
10000000
00000000
,  // measure 18
00100000
00000000
01000000
00100000
01000000
00000000
00100000
00000000
10000000
00000000
01000000
00000000
00100000
00000000
00010000
00000000
,  // measure 19
02000000
00000000
03010000
00200000
00001000
00000000
00310000
00000000
,  // measure 20
00001000
00100000
00001000
00010000
00000100
00001000
00000010
00000000
,  // measure 21
00001002
00000000
00000000
00000000
00000103
00000000
00000010
00000000
00001000
00000100
00001000
00000000
00000010
00000000
00000100
00000000
,  // measure 22
00000001
00001000
00000100
00000100
00010000
00010000
00001000
00100000
,  // measure 23
00020000
00000000
00000000
00000000
01030000
00000000
00100000
00000000
10000000
00010000
10000000
00000000
01000000
00000000
00200000
00000000
,  // measure 24
00000000
00310000
00010000
00100000
00100000
00001000
00010000
00000100
,  // measure 25
00002000
00000000
00003100
00001000
00000010
00000100
00000001
00001000
,  // measure 26
00000001
00000100
00000010
00001000
00000100
00010000
00001000
00000000
,  // measure 27
00101000
00000000
00010000
00010100
00000000
00001000
00011000
00000000
,  // measure 28
00010000
00001000
00010000
00001000
00010000
00001000
00010000
00001000
00010000
00000000
00000000
00000000
00100100
00000000
00000000
00000000
,  // measure 29
00011000
00000000
00010000
00000000
00100000
00000000
10000000
00000000
01000000
10000000
01000000
00000000
10000000
00000000
00000000
00000000
,  // measure 30
00100000
00000000
00100000
00000000
10000000
00000000
01000000
00000000
00100000
00010000
00100000
00000000
00010000
00000000
00000000
00000000
,  // measure 31
10000000
00100000
10000000
00100000
01000000
00000000
01000000
00000000
00010000
00000000
10000000
00000000
01000000
00000000
00100000
00000000
,  // measure 32
10010000
00000000
00000000
00000000
,  // measure 33
10000000
01000000
00010000
00001000
00000000
00000000
00001000
00010000
01000000
10000000
00000000
00000000
00010000
00000000
10000000
00000000
,  // measure 34
00100000
01000000
00100000
01000000
00000000
00000000
00000000
00000000
00010000
00000000
10000000
00000000
01000000
00000000
00100000
00000000
,  // measure 35
00010000
00100000
00010000
00100000
00000000
00000000
00000000
00000000
00001000
00000000
00001000
00000000
00100000
00000000
00001000
00000000
,  // measure 36
00010000
00000100
00010000
00000100
00000000
00000000
00000000
00000000
00001000
00000000
00000010
00000000
00000100
00000000
00000000
00000000
,  // measure 37
00000001
00000010
00001000
00010000
00000000
00000000
00010000
00001000
00000010
00000001
00000000
00000000
00001000
00000000
00000001
00000000
,  // measure 38
00000100
00000010
00000100
00000010
00000000
00000000
00000000
00000000
00001000
00000000
00000001
00000000
00000010
00000000
00000100
00000000
,  // measure 39
00001000
00000100
00001000
00000100
00000000
00000000
00000000
00000000
00010000
00000000
00010000
00000000
00000100
00000000
00010000
00000000
,  // measure 40
00011000
00000000
00000000
00000000
,  // measure 41
00110000
00000000
00000000
00100000
00000000
00000000
00100000
00000000
00010000
00000000
10000000
00000000
00010000
00000000
00000000
00000000
,  // measure 42
10000000
10000000
01000000
00100000
00010000
01000000
00010000
01000000
,  // measure 43
00200000
00000000
10300000
00000000
00010000
10000000
00100000
00000000
,  // measure 44
10000000
00000000
10000000
01000000
00000000
01000000
00100000
00000000
00010000
00000000
10000000
00000000
00100000
00000000
00000000
00000000
,  // measure 45
10000000
01000000
00100000
00010000
00210000
00000000
00302000
00000000
,  // measure 46
00013000
00000000
00000100
00000000
00010000
00000000
00000100
00000000
00001000
00000000
00000010
00000000
00000100
00000001
00000100
00000010
,  // measure 47
00002000
00000000
00003100
00002000
00000000
00003001
00000200
00000000
,  // measure 48
00000310
00000000
00000100
00000000
00000001
00000000
00000010
00000000
00000100
00000010
00000100
00000000
00001000
00000000
00000010
00000000
,  // measure 49
00000200
00000000
00000301
00002000
00000000
00000000
00003010
00000000
,  // measure 50
00001000
00000100
00001000
00000010
00001000
00000000
00000100
00000000
00001000
00000000
00000010
00000000
00000100
00000000
00000001
00000000
,  // measure 51
00001000
00000000
00001000
00000100
00000000
00000000
00000100
00000000
00010000
00000000
00000100
00000000
00010000
00000000
00000000
00000000
,  // measure 52
00001000
00000000
00100000
00001000
00000000
00001000
00010000
00000000
00100000
00000000
10000000
00000000
01000000
00000000
00100000
00000000
,  // measure 53
00020000
00000000
01030000
00100000
01000000
00100000
20000000
00000000
,  // measure 54
31000000
10000000
00010000
00100000
00010000
01000000
00002000
00000000
,  // measure 55
00013000
00000000
00010000
00000100
00000000
00000000
00010000
00000000
00010000
00000000
00001000
00000000
00100000
00000000
00000000
00000000
,  // measure 56
00010000
00100000
00001000
00010000
00000100
00001000
00000010
00000100
,  // measure 57
00002001
00000000
00000000
00000000
00003010
00000000
00000100
00000000
00000001
00000010
00000001
00000010
00000001
00000000
00000010
00000000
,  // measure 58
00000100
00000000
00001000
00000000
00000010
00001000
00000010
00001000
00000100
00000000
00000100
00000000
00001000
00000000
00000100
00000000
,  // measure 59
00020000
00000000
00000000
00000000
00031000
00010000
00001000
00000000
00010000
00000000
00010000
00000000
00001000
00000000
00200000
00000000
,  // measure 60
00000000
00310000
01000000
00100000
10000000
01000000
00100000
00010000
,  // measure 61
20010000
00000000
00000000
00000000
30100000
00000000
10000000
00000000
01000000
00100000
01000000
00000000
00100000
00000000
00020000
00000000
,  // measure 62
00000000
00000000
10030000
00000000
00100000
00000000
01000000
00000000
00010000
10000000
00010000
00000000
01000000
00000000
00100000
00000000
,  // measure 63
20000000
00000000
31000000
00020000
00000000
00031000
00020000
00000000
,  // measure 64
00031000
00010000
00001000
00010000
00001000
00010000
00001000
00010000
00001000
00000000
00000000
00000000
00000000
00000000
00000000
00000000
;
