#TITLE:Karyawisata;
#SUBTITLE:;
#ARTIST:Vesuvia X REDSHiFT;
#TITLETRANSLIT:;
#SUBTITLETRANSLIT:;
#ARTISTTRANSLIT:;
#GENRE:Egyptian Johnny Depp;
#CREDIT:;
#BANNER:Karyawisata.png;
#BACKGROUND:Karyawisata-bg.png;
#LYRICSPATH:;
#CDTITLE:cdtitle.png;
#MUSIC:Karyawisata.ogg;
#OFFSET:-0.120000;
#SAMPLESTART:22.253368;
#SAMPLELENGTH:15.979992;
#SELECTABLE:YES;
#BPMS:0.000000=173.000000
,100.000000=150.000000
,164.000000=173.000000
;
#STOPS:
;
#BGCHANGES:4.000=Karyawisata.avi=1.000=0=0=1=====,
99999=-nosongbg-=1.000=0=0=0 // don't automatically add -songbackground-
;
#KEYSOUNDS:;
#ATTACKS:;

//---------------dance-single - ----------------
#NOTES:
     dance-single:
     :
     Hard:
     8:
     0.596206,0.665718,0.445426,0.251762,0.082307,359.000000,46.000000,26.000000,0.000000,0.000000,0.000000,0.596206,0.665718,0.445426,0.251762,0.082307,359.000000,46.000000,26.000000,0.000000,0.000000,0.000000:
0000
0000
0000
0000
,
0000
0000
0000
0000
,
0000
0000
0000
0000
,
0000
0000
0000
0000
,
1000
0000
0000
0100
0000
0000
1000
0000
0000
0000
1000
0000
0100
0000
0010
0000
,
0001
0000
0000
0100
0000
0000
0001
0000
0000
0000
0001
0000
0100
0000
0010
0000
,
1000
0000
0000
0010
0000
0000
1000
0000
0000
0000
1000
0000
0010
0000
1000
0000
,
0001
0010
0001
0010
0100
1000
0001
0000
,
1100
0000
0001
1000
0001
1000
0010
0000
,
0101
0000
1000
0100
0000
1000
0002
0000
,
0103
0010
0100
0001
1000
0100
0010
0000
,
0001
0010
0001
1000
0010
1000
0001
0000
,
0011
0000
1000
0001
1000
0001
0100
0000
,
1010
0000
0001
0010
0000
0001
2000
0000
,
3010
0100
0010
1000
0001
0010
0100
0000
,
1000
0100
1100
0000
0000
0101
0000
0000
,
1001
0000
1000
0010
0010
0010
0100
0000
,
1001
0000
0001
0010
0010
0010
0100
0000
,
1100
0000
0001
0100
0100
0100
0010
0000
,
1010
0000
1000
0100
0100
0100
0010
0000
,
0011
0001
1000
0010
0010
0010
0100
0000
,
0101
0100
0010
1000
1000
1000
0100
0000
,
1100
0100
0010
0001
0001
0001
0100
0000
,
0010
1000
1010
0000
0000
0011
0000
0000
,
2002
0000
0000
0000
,
0000
0000
0000
3003
,
0010
0000
0000
0000
0000
0000
0000
0000
1010
0000
0000
1001
0000
0000
0101
0000
,
0000
0000
0001
0000
0000
1000
0000
0000
0100
0000
0000
0010
0000
0000
0001
0000
,
1000
0000
0001
0000
0000
0000
0000
0000
0101
0000
0000
1001
0000
0000
1100
0000
,
0000
0000
1000
0000
0000
0100
0000
0000
0010
0000
0000
0001
0000
0000
1000
0000
,
0010
0000
0100
0000
0000
0000
0000
0000
0101
0000
0000
0010
0000
0000
1001
0000
,
0000
0000
1000
0000
0000
0100
0000
0000
1000
0000
0000
0001
0000
0000
0010
0000
,
0001
0000
1000
0000
0000
0000
0000
0000
1100
0000
0000
0010
0000
0000
1001
0000
,
0000
0000
0100
0000
0000
0001
0000
0000
1000
0000
0000
1000
0000
0000
0010
0000
,
0100
0100
0001
1000
0020
0000
0230
0000
,
0301
0010
0100
1000
0001
0100
0010
0000
,
1000
1000
0100
1000
0002
0000
0203
0000
,
0310
1000
0010
0100
0001
1000
0100
0000
,
0010
0010
0001
1000
2000
0000
3100
0000
,
1000
0010
0100
0001
1000
0100
0010
0000
,
2002
0000
0000
0000
,
0000
0000
0000
3003
,
1020
0000
0000
0000
1030
0100
1000
0010
,
0100
0001
0010
0100
0010
0001
1000
0000
,
0102
0000
0000
0000
0103
0010
0100
0001
,
0010
0100
0010
0001
1000
0010
0100
0001
,
2000
0000
3010
1000
0002
0000
0013
0001
,
1000
0100
1000
0010
0100
0001
1000
0000
,
0101
0000
1000
0100
0000
0000
0101
0000
,
1000
0100
2000
0000
0001
0000
3010
0000
,
1001
1000
0100
1000
0010
0100
0001
0010
,
0100
1000
0001
0100
0101
0000
0010
1000
,
1010
1000
0100
0010
0001
1000
0010
0100
,
0001
0000
1000
0000
0010
0000
0100
0001
0200
0000
0000
0000
0310
0000
1000
0000
,
0200
0000
0310
0001
2000
0000
3001
0010
,
0100
0010
0001
1000
0010
0100
0001
0000
,
0101
0100
0110
0000
1010
0000
1100
0000
,
0110
0000
0011
0001
1001
0000
1100
0000
,
1001
0001
0100
0010
1000
0100
0010
0001
,
1000
0010
0100
0001
1001
0000
1000
0100
,
1100
0100
0010
0001
1000
0010
0100
0001
,
1000
0000
0100
0000
1000
0000
0001
0010
0002
0000
0000
0000
0103
0000
0010
0000
,
2000
0000
3100
0010
0002
0000
0103
0010
,
0100
0001
0010
0100
1000
0001
0100
0000
,
0001
0100
1000
0100
0002
0000
1003
0100
,
0001
0100
0020
0000
0031
0100
0000
0000
,
2020
0000
0000
0000
,
0000
0000
0000
0000
,
0000
0000
3000
0030
;

//---------------dance-single - ----------------
#NOTES:
     dance-single:
     :
     Challenge:
     12:
     0.998749,1.000000,0.145248,0.213030,1.000000,685.000000,15.000000,22.000000,0.000000,0.000000,0.000000,0.998749,1.000000,0.145248,0.213030,1.000000,685.000000,15.000000,22.000000,0.000000,0.000000,0.000000:
0000
0000
0000
0000
,
0000
0000
0000
0000
,
0000
0000
0000
0000
,
0000
0000
0000
0000
,
0001
0000
0001
0100
0000
0100
0010
0000
1000
0000
0100
0000
0010
0000
0001
0000
,
1000
0000
1000
0010
0000
0010
0100
0000
0001
0000
1000
0000
0100
0000
0010
0000
,
0001
0000
0001
0100
0000
0100
0010
0000
1000
0000
0100
0000
0010
0000
0001
0000
,
2002
0000
0000
3003
,
0001
0100
0001
0100
0010
0100
0010
0100
0010
1000
0010
1000
0100
1000
0100
1000
,
0100
0010
0100
0010
0001
0010
0001
0010
0001
1000
0001
1000
0010
1000
0010
1000
,
0001
0100
0010
1000
0100
0010
0001
1000
0010
0100
0010
1000
0100
0010
0001
1000
,
0010
0100
0001
1000
0100
0010
0001
1000
0010
0000
0010
0000
0100
0000
0001
0000
,
1000
0010
1000
0010
0100
0010
0100
0010
0100
0001
0100
0001
0010
0001
0010
0001
,
0010
0100
0010
0100
1000
0100
1000
0100
1000
0001
1000
0001
0100
0001
0100
0001
,
1000
0010
0100
0001
0010
0100
1000
0001
0100
0010
0100
0001
0010
0100
1000
0001
,
0100
0010
0110
0000
0010
0110
0100
0000
,
0002
0000
0000
0000
0103
0010
0100
0010
0100
0010
0100
0010
1000
0000
0000
0000
,
0200
0000
0000
0000
1300
0001
1000
0001
1000
0001
1000
0001
0010
0000
0000
0000
,
0002
0000
0000
0000
1003
0010
1000
0010
1000
0010
1000
0010
0100
0000
0000
0000
,
0020
0000
0000
0000
0130
0001
0100
0001
0100
0001
0100
0001
1000
0000
0000
0000
,
0002
0000
0000
0000
1003
0100
0010
0001
0100
0010
1000
0001
0100
0000
0000
0000
,
0020
0000
0000
0000
0130
0001
0010
0100
1000
0001
0010
0001
1000
0000
0000
0000
,
0200
0000
0000
0000
1300
0010
0100
0001
0010
0100
1000
0001
1000
0000
0000
0000
,
0010
0100
0110
0000
0100
0110
0010
1000
,
2002
0000
0000
0000
,
0000
0000
0000
3003
,
1000
0000
0100
0000
1000
0100
0000
0100
0010
0000
0010
0001
0000
0001
1000
0000
,
0000
0000
0001
0000
1000
0010
0000
0010
0100
0000
0100
0001
0000
0001
1000
0000
,
0010
0000
0100
0000
0001
0010
0000
0010
0100
0000
0100
1000
0000
1000
0001
0000
,
0000
0000
1000
0000
0010
0100
0000
0100
0001
0000
0001
1000
0000
1000
0100
0000
,
0010
0000
0001
0000
1000
0100
0000
0010
0001
0000
1000
0010
0000
0100
0001
0000
,
0000
0000
1000
0000
0001
0010
0000
0100
1000
0000
0001
0100
0000
0010
1000
0000
,
0001
0000
0010
0000
0100
0010
0000
0001
0100
0000
0010
1000
0000
0001
0010
0000
,
0000
0000
0100
0000
1000
0010
0000
1000
0100
0000
0010
0001
0000
1000
0010
0000
,
0100
0001
0100
0001
1000
0100
1000
0100
0010
0001
0010
0001
1000
0010
1000
0010
,
1000
0100
0010
0001
1000
0100
0010
0001
1000
0010
0100
0001
1000
0010
0100
0001
,
1000
0100
1000
0100
0010
0001
0010
0001
0100
0010
0100
0010
1000
0001
1000
0001
,
0010
0100
1000
0001
0010
0100
1000
0001
0100
0010
1000
0001
0100
0010
1000
0001
,
0100
0010
0100
0010
1000
0010
1000
0010
0100
0001
0100
0001
1000
0001
1000
0001
,
0100
0010
1000
0001
0100
0010
1000
0001
0010
0100
1000
0001
0010
0100
1000
0001
,
0200
0000
0000
0000
,
0000
0000
0000
0300
,
0102
0000
0000
0000
1003
0000
0000
0000
1000
0100
0010
0001
0100
0010
1000
0001
,
0010
0001
0100
0010
1000
0100
0010
0001
0100
0010
1000
0001
1000
0000
0100
0000
,
2100
0000
0000
0000
3001
0000
0000
0000
0001
0010
0100
1000
0010
0100
0001
1000
,
0100
1000
0010
0100
0001
0010
0100
1000
0010
0100
0001
1000
0001
0000
0010
0000
,
0012
0000
1003
0100
2100
0000
3001
0000
,
1000
0100
0010
0001
1000
0100
0010
0001
0100
0010
0100
0010
1000
0000
0001
0000
,
0100
0010
0100
0010
1000
0000
0010
0100
,
0010
0100
0002
0000
2003
0000
3100
0000
,
1100
0000
0000
0000
1000
0100
1000
0100
1000
0100
1000
0100
0010
0000
0001
0000
,
0100
0010
0100
0001
0010
0100
1000
0000
1100
0000
0000
0000
0010
0000
0100
0000
,
0101
0000
0000
0000
0001
0010
0001
0010
0001
0010
0001
0010
0100
0000
1000
0000
,
0010
0100
0010
1000
0100
0010
0001
1000
0001
0000
0100
0010
2000
0000
0000
0000
,
3001
0100
0010
1000
0100
0010
0001
1000
0100
1000
0010
0100
0001
0010
0100
1000
,
0001
0100
0010
1000
0100
0010
0001
1000
0100
1000
0010
0100
0001
0000
1000
0000
,
0010
0100
0010
0100
0001
0100
0001
0100
0010
1000
0010
1000
0001
1000
0001
1000
,
0010
0100
0010
0100
0001
0010
0001
0010
0100
1000
0100
1000
0010
0100
0010
0100
,
0001
0000
0000
0000
0001
0010
0001
0010
0001
0010
0001
0010
0100
0000
1000
0000
,
0010
0100
0010
1000
0100
0010
0001
0000
0011
0000
0000
0000
0100
0000
0010
0000
,
1010
0000
0000
0000
1000
0100
1000
0100
1000
0100
1000
0100
0010
0000
0001
0000
,
0100
0010
0100
0001
0010
0100
1000
0001
1000
0000
0010
0100
0002
0000
0000
0000
,
1003
0010
0100
0001
0010
0100
1000
0001
0010
0001
0100
0010
1000
0100
0010
0001
,
1000
0010
0100
0001
0010
0100
1000
0001
0010
0001
0100
0010
1000
0000
0001
0000
,
0100
0010
0100
0010
1000
0010
1000
0010
0100
0001
0100
0001
1000
0001
1000
0001
,
0100
0010
0100
0010
1000
0100
1000
0100
0010
0001
0010
0001
0100
0010
0100
0002
,
2000
0000
0000
0000
,
0000
0000
0000
0000
,
0000
0000
3000
0003
;

//---------------dance-double - ----------------
#NOTES:
     dance-double:
     :
     Challenge:
     9:
     0.616956,0.665718,0.387327,0.242079,0.111356,381.000000,40.000000,25.000000,0.000000,0.000000,0.000000,0.616956,0.665718,0.387327,0.242079,0.111356,381.000000,40.000000,25.000000,0.000000,0.000000,0.000000:
// measure 0
00000000
00000000
00000000
00000000
,  // measure 1
00000000
00000000
00000000
00000000
,  // measure 2
00000000
00000000
00000000
00000000
,  // measure 3
00000000
00000000
00000000
00000000
,  // measure 4
10000000
00000000
00000000
10000000
00000000
00000000
10000000
00000000
00000000
00000000
10000000
00000000
01000000
00000000
00010000
00000000
,  // measure 5
00001000
00000000
00000000
00001000
00000000
00000000
00001000
00000000
00000000
00000000
00001000
00000000
00000100
00000000
00000001
00000000
,  // measure 6
00001000
00000000
00000000
00001000
00000000
00000000
00001000
00000000
00000000
00000000
00000001
00000000
00000100
00000000
00001000
00000000
,  // measure 7
00010000
00010000
00001000
00100000
00010000
01000000
00100000
00000000
,  // measure 8
10000000
00100000
10000000
00100000
10000000
00010000
10000000
00010000
,  // measure 9
00100000
00010000
00100000
00010000
00100000
00001000
00100000
00001000
,  // measure 10
00010000
00000100
00010000
00000100
00001000
00000010
00001000
00000010
,  // measure 11
00000100
00000001
00000010
00000100
00001000
00001000
00000100
00000010
,  // measure 12
00000001
00000100
00000001
00000100
00000001
00001000
00000001
00001000
,  // measure 13
00000100
00001000
00000100
00001000
00000100
00010000
00000100
00010000
,  // measure 14
00001000
00100000
00001000
00100000
00010000
01000000
00010000
01000000
,  // measure 15
00100000
10000000
11000000
00000000
00010000
01000000
01010000
00000000
,  // measure 16
10010000
00000000
10000000
00100000
00010000
00001000
00010000
00000000
,  // measure 17
00011000
00000000
00010000
00001000
00000010
00000001
00001000
00000000
,  // measure 18
00001001
00000000
00000001
00000100
00001000
00010000
00001000
00000000
,  // measure 19
00011000
00000000
00001000
00010000
01000000
10000000
00010000
00000000
,  // measure 20
10010000
00000000
10000000
00100000
00010000
00001000
00010000
00000000
,  // measure 21
00011000
00000000
00010000
00001000
00000010
00000001
00001000
00000000
,  // measure 22
00001001
00000000
00000001
00000100
00001000
00010000
00011000
00000000
,  // measure 23
00001000
00010000
02000000
00000000
13000000
00010000
10000000
00000000
,  // measure 24
20020000
00000000
00000000
00000000
,  // measure 25
00000000
00000000
00000000
30030000
,  // measure 26
10000000
00000000
00000000
00000000
00000000
00000000
00000000
00000000
11000000
00000000
00000000
01100000
00000000
00000000
00110000
00000000
,  // measure 27
00000000
00000000
10000000
00000000
00000000
00010000
00000000
00000000
00100000
00000000
00000000
00001000
00000000
00000000
00100000
00000000
,  // measure 28
00001000
00000000
00010000
00000000
00000000
00000000
00000000
00000000
00011000
00000000
00000000
00010100
00000000
00000000
00001100
00000000
,  // measure 29
00000000
00000000
00001000
00000000
00000000
00000001
00000000
00000000
00000100
00000000
00000000
00000010
00000000
00000000
00001000
00000000
,  // measure 30
00000001
00000000
00001000
00000000
00000000
00000000
00000000
00000000
00000101
00000000
00000000
00000110
00000000
00000000
00001010
00000000
,  // measure 31
00000000
00000000
00001000
00000000
00000000
00000001
00000000
00000000
00000010
00000000
00000000
00000100
00000000
00000000
00001000
00000000
,  // measure 32
00000100
00000000
00001000
00000000
00000000
00000000
00000000
00000000
00001100
00000000
00000000
00010100
00000000
00000000
00011000
00000000
,  // measure 33
00000000
00000000
00010000
00000000
00000000
00001000
00000000
00000000
00100000
00000000
00000000
00100000
00000000
00000000
00010000
00000000
,  // measure 34
01000000
01000000
00100000
10000000
01000000
00100000
00010000
10000000
,  // measure 35
00100000
01000000
00100000
00000000
10000000
00000000
01000000
00000000
00100000
01000000
00100000
00000000
00010000
00000000
10000000
00000000
,  // measure 36
00100000
01000000
00010000
00100000
00001000
00001000
00100000
00001000
,  // measure 37
00010000
00001000
00010000
00000000
00000100
00000000
00010000
00000000
00000010
00001000
00000010
00000000
00001000
00000000
00000100
00000000
,  // measure 38
00000010
00000010
00000001
00000100
00000010
00001000
00000001
00000100
,  // measure 39
00000010
00000100
00000010
00000000
00000100
00000000
00000001
00000000
00001000
00000100
00001000
00000000
00000010
00000000
00000100
00000000
,  // measure 40
00000002
00000000
00000000
00000000
,  // measure 41
00000000
00000000
00000000
00000003
,  // measure 42
00002100
00000000
00000000
00000000
00003001
00000100
00000001
00000100
,  // measure 43
00000010
00001000
00000100
00000010
00000001
00001000
00000010
00000000
,  // measure 44
00010200
00000000
00000000
00000000
00001300
00000001
00001000
00000100
,  // measure 45
00000010
00000001
00000100
00000010
00001000
00000001
00001000
00000000
,  // measure 46
00000200
00000000
00010300
00001000
00200000
00000000
00320000
00000000
,  // measure 47
01030000
00100000
10000000
01000000
00100000
00010000
10000000
00000000
,  // measure 48
00100000
01000000
00100000
01000000
00020000
00000000
00130000
01000000
,  // measure 49
00100000
01000000
20000000
00000000
30020000
00000000
01030000
00000000
,  // measure 50
10010000
10000000
01000000
00100000
00010000
10000000
00100000
01000000
,  // measure 51
00010000
10000000
01000000
00000000
01100000
00100000
00010000
00000000
,  // measure 52
01010000
01000000
00100000
10000000
01000000
00100000
00010000
00100000
,  // measure 53
00001000
00000000
00000000
00000000
00010000
00000000
00000100
00001000
00000200
00000000
00000000
00000000
00001300
00000000
00000000
00000000
,  // measure 54
00002010
00000000
00000000
00000000
00003001
00000000
00000100
00000000
00000020
00000000
00000000
00000000
00002000
00000030
00000000
00000000
,  // measure 55
00003001
00000010
00000100
00001000
00000010
00000100
00000001
00000000
,  // measure 56
00000101
00001100
00011000
01010000
,  // measure 57
11000000
01010000
00011000
00001100
,  // measure 58
00000101
00000100
00000010
00001000
00000100
00000010
00000001
00001000
,  // measure 59
00000010
00000100
00000001
00000000
00001001
00001000
00000100
00000000
,  // measure 60
00010100
00010000
00001000
00010000
00000100
00001000
00000010
00000100
,  // measure 61
00000001
00000000
00001000
00000000
00000100
00000000
00010000
00001000
00020000
00000000
00000000
00000000
00032000
00000000
00000000
00000000
,  // measure 62
00203000
00000000
00310000
01000000
00200000
00000000
20300000
00000000
,  // measure 63
30010000
00100000
01000000
10000000
00100000
01000000
00010000
00000000
,  // measure 64
10000000
01000000
00010000
00001000
00020000
00000000
00031000
00010000
,  // measure 65
00001000
00000100
00000002
00000000
00001003
00000100
00020000
00000000
,  // measure 66
00000200
00000000
00000000
00000000
,  // measure 67
00000000
00000000
00000000
00000000
,  // measure 68
00000000
00000000
00030000
00000300
;

//---------------dance-single - ----------------
#NOTES:
     dance-single:
     :
     Medium:
     6:
     0.431593,0.632432,0.300178,0.377643,0.000000,242.000000,31.000000,39.000000,0.000000,0.000000,0.000000,0.431593,0.632432,0.300178,0.377643,0.000000,242.000000,31.000000,39.000000,0.000000,0.000000,0.000000:
0000
0000
0000
0000
,
0000
0000
0000
0000
,
0000
0000
0000
0000
,
0000
0000
0000
0000
,
0002
0103
0000
0101
,
2000
3100
0000
1100
,
0002
0013
0000
0011
,
2002
0000
0000
3003
,
1000
0000
0001
0000
0100
0010
0100
0000
,
0001
0100
0001
0000
1000
0100
1000
0000
,
0002
0023
0230
2300
,
3020
0230
0302
0003
,
1000
0000
0001
0000
1000
0100
1000
0000
,
0001
0100
0001
0000
1000
0010
1000
0000
,
0002
0023
0230
2300
,
3001
0000
1001
0000
0000
1001
0000
0000
,
1000
0000
0100
0010
0100
0010
0000
0000
,
0001
0000
0100
0010
0100
0010
0000
0000
,
1000
0000
0100
0010
0100
0010
0000
0000
,
0001
0000
0100
0010
0100
0010
0000
0000
,
1000
0000
0001
0100
0001
0100
0000
0000
,
0010
0000
1000
0100
1000
0100
0000
0000
,
0010
0000
0001
1000
0001
1000
0000
0000
,
0010
0000
1001
0000
0000
1001
0000
0000
,
0200
0000
0000
0000
,
0000
0000
0000
0300
,
2002
3003
0010
0000
,
1000
0000
0100
0000
0010
0001
1000
0000
,
0020
0030
1001
0000
,
0010
0000
1000
0000
0001
0010
0100
0000
,
2000
3000
1100
0000
,
0001
0000
1000
0000
0100
0010
0001
0000
,
0100
0100
0010
0010
,
1000
1000
0001
0001
,
1000
0100
1000
0100
0010
0000
0010
0000
,
0001
1000
0001
0000
0200
0000
0300
0000
,
0001
0100
0001
0100
0010
0000
0010
0000
,
1000
0001
1000
0000
0200
0000
0300
0000
,
1000
0100
0020
0000
0032
0000
2003
0000
,
3010
1000
0002
0000
0203
0000
0310
0000
,
2002
0000
0000
0000
,
0000
0000
0000
3003
,
2200
3300
0100
1000
,
0010
0000
0010
0000
1000
0100
0010
0000
,
0022
0033
0001
0100
,
0010
1000
0001
0000
0100
0000
0000
0000
,
0001
0000
0000
1000
1000
0000
0001
0000
,
0100
0100
0010
0000
,
2002
0000
0000
0000
,
0000
0000
0000
3003
,
0101
0000
0100
0000
0010
1000
0100
0000
,
0010
0001
0011
1000
,
1100
0000
0001
0000
1000
0100
0010
0000
,
0001
0000
0000
0100
0020
0000
0000
0000
,
1030
0000
0001
1000
0001
0000
0100
0000
,
0010
1000
0010
0000
0100
0000
0001
0000
,
0101
0110
1010
1001
,
1100
0110
0011
1001
,
1010
0000
0010
0000
0100
0001
0010
0000
,
0100
1000
1100
0001
,
0011
0000
1000
0000
0001
0010
0100
0000
,
1000
0000
0000
0010
0200
0000
0000
0000
,
0301
0000
1000
0001
1000
0000
0010
0000
,
0100
0001
0100
0000
0010
0000
1000
0000
,
0001
0100
0001
0100
0010
1000
0010
1000
,
0100
0000
1001
0000
0000
1001
0000
0000
,
0200
0000
0000
0000
,
0000
0000
0000
0000
,
0000
0000
0000
0300
;

//---------------dance-single - ----------------
#NOTES:
     dance-single:
     :
     Easy:
     4:
     0.254529,0.366145,0.116198,0.096832,0.000000,162.000000,12.000000,10.000000,0.000000,0.000000,0.000000,0.254529,0.366145,0.116198,0.096832,0.000000,162.000000,12.000000,10.000000,0.000000,0.000000,0.000000:
0000
0000
0000
0000
,
0000
0000
0000
0000
,
0000
0000
0000
0000
,
0000
0000
0000
0000
,
1000
0100
0000
0100
,
0010
0001
0000
0001
,
0100
0010
0000
0010
,
1000
0000
0000
0000
,
0001
0000
1000
0000
,
0010
0000
0010
0000
,
1000
1000
0100
0100
,
0010
0010
0001
0001
,
1000
0000
1000
0000
,
0001
0000
0100
0000
,
0010
0010
1000
1000
,
0001
1000
0000
0000
,
0001
0100
0100
0000
,
0010
1000
1000
0000
,
0001
0010
0010
0000
,
0100
1000
1000
0000
,
0001
0100
0100
0010
,
1000
0100
0100
0000
,
1000
0010
0010
0100
,
0001
0010
0010
0000
,
2002
0000
0000
0000
,
0000
0000
0000
3003
,
0010
0000
1000
0000
,
0100
0000
0100
0010
,
0001
0000
1000
0000
,
0010
0000
0010
1000
,
0100
0000
0100
0000
,
1000
0000
0001
1000
,
0010
0000
0010
0000
,
0100
0000
0100
0001
,
1000
1000
0100
0100
,
0010
0000
0001
0000
,
1000
1000
0001
0001
,
0100
0000
0010
0000
,
0100
0100
0001
0001
,
1000
0000
0010
0000
,
2002
0000
0000
0000
,
0000
0000
0000
3003
,
0020
0000
0030
0000
,
1000
0010
0100
0100
,
0002
0000
0003
0000
,
1000
1000
0001
0001
,
0010
0000
0010
0000
,
0001
1000
0001
0000
,
2002
0000
0000
0000
,
0000
0000
0000
3003
,
1001
0000
1000
0010
,
0100
0000
0110
0000
,
1001
0000
0001
0010
,
0100
0000
1001
0000
,
1000
0100
1000
1000
,
0001
0100
0001
0000
,
1000
1000
0001
0001
,
0100
0100
0010
0000
,
1001
0000
0100
0001
,
0010
0000
0110
0000
,
1001
0000
1000
0001
,
0100
0000
1001
0000
,
0010
0010
1000
1000
,
0000
0001
1000
0000
,
0001
0100
0010
1000
,
0100
0010
0001
0000
,
2002
0000
0000
0000
,
0000
0000
0000
0000
,
0000
0000
0000
3003
;

//---------------dance-single - ----------------
#NOTES:
     dance-single:
     :
     Beginner:
     2:
     0.145248,0.255636,0.048416,0.000000,0.000000,100.000000,5.000000,0.000000,0.000000,0.000000,0.000000,0.145248,0.255636,0.048416,0.000000,0.000000,100.000000,5.000000,0.000000,0.000000,0.000000,0.000000:
0000
0000
0000
0000
,
0000
0000
0000
0000
,
0000
0000
0000
0000
,
0000
0000
0000
0000
,
0000
0001
0000
0001
,
0000
1000
0000
1000
,
0000
0010
0000
0010
,
0000
0000
0000
0000
,
1000
0000
1000
0000
,
0100
0000
0100
0000
,
0010
0000
0010
0000
,
0001
0000
0001
0000
,
1000
0000
1000
0000
,
0100
0000
0100
0000
,
0010
0000
0010
0000
,
0001
0000
0000
0000
,
0000
0100
0100
0000
,
0000
0001
0001
0000
,
0000
1000
1000
0000
,
0000
0010
0010
0000
,
0000
1000
1000
0000
,
0000
0001
0001
0000
,
0000
0100
0100
0000
,
0100
0000
0000
0000
,
1001
0000
0000
0000
,
0000
0000
0000
0000
,
0010
0000
0000
0000
,
1000
0000
0001
0000
,
0100
0000
0000
0000
,
0001
0000
1000
0000
,
0010
0000
0000
0000
,
1000
0000
1000
0000
,
0100
0000
0000
0000
,
0010
0000
0010
0000
,
0001
0000
0000
0000
,
0100
0000
0000
0000
,
0010
0000
0000
0000
,
1000
0000
0000
0000
,
0100
0000
0100
0000
,
0010
0000
0010
0000
,
0001
0000
0000
0000
,
0000
0000
0000
0000
,
1001
0000
0000
0000
,
1000
0000
0010
0000
,
0010
0000
0000
0000
,
0100
0000
0100
0000
,
0001
0000
0000
0000
,
1000
0000
0000
0000
,
0010
0000
0000
0000
,
0010
0000
0000
0000
,
1001
0000
0000
0000
,
1000
0000
0100
0000
,
0100
0000
0000
0000
,
0010
0000
0010
0000
,
0001
0000
0000
0000
,
1000
0000
0000
0000
,
0010
0010
0010
0000
,
0100
0100
0100
0000
,
1001
0000
0000
0000
,
0001
0000
1000
0000
,
0010
0000
0000
0000
,
1000
0000
0100
0000
,
0010
0000
0001
0001
,
0000
1000
1000
0000
,
0010
0010
0010
0000
,
0100
0100
0100
0000
,
1001
0000
0000
0000
;
