#TITLE:Hotline Bling;
#SUBTITLE:;
#ARTIST:Drake;
#TITLETRANSLIT:;
#SUBTITLETRANSLIT:;
#ARTISTTRANSLIT:;
#GENRE:Nokia Jingle;
#CREDIT:;
#BANNER:Hotline Bling.png;
#BACKGROUND:Hotline Bling-bg.png;
#LYRICSPATH:;
#CDTITLE:;
#MUSIC:Hotline Bling.ogg;
#OFFSET:0.010000;
#SAMPLESTART:77.304047;
#SAMPLELENGTH:15.533999;
#SELECTABLE:YES;
#BPMS:0.000000=67.500000
;
#STOPS:
;
#BGCHANGES:3.333=Hotline Bling.avi=1.000=0=0=1=====,
99999=-nosongbg-=1.000=0=0=0 // don't automatically add -songbackground-
;
#KEYSOUNDS:;
#ATTACKS:;

//---------------dance-single - ----------------
#NOTES:
     dance-single:
     :
     Hard:
     7:
     0.391057,0.373441,0.069966,0.148677,0.397929,288.000000,8.000000,17.000000,0.000000,0.000000,0.000000,0.391057,0.373441,0.069966,0.148677,0.397929,288.000000,8.000000,17.000000,0.000000,0.000000,0.000000:
// measure 0
0000
0000
0000
0000
,  // measure 1
0000
0000
0000
0000
,  // measure 2
1000
0000
0000
0000
0001
0000
1000
0100
0000
1000
0001
0000
1000
0100
0010
0001
,  // measure 3
2000
0000
0000
0000
3020
0000
0000
0000
0130
0000
0001
0000
1000
0100
0010
0000
,  // measure 4
0001
0000
0000
0000
1000
0000
0001
0010
0000
0001
1000
0000
0001
0010
0100
1000
,  // measure 5
0002
0000
0000
0000
0203
0000
0000
0000
0310
0000
1000
0000
0001
0010
0100
0000
,  // measure 6
1000
0100
1100
0000
0001
0000
1000
0010
0000
1000
0001
0000
1000
0100
0010
0000
,  // measure 7
0001
0010
0011
0000
1000
0000
0001
0100
0000
0001
1000
0000
0001
0010
0100
0000
,  // measure 8
1000
0001
1001
0000
1000
0000
0010
0100
0000
0100
0001
0000
1000
0100
0010
0000
,  // measure 9
0001
1000
1001
0000
0001
0000
0010
0000
0001
0010
0100
1000
0010
0100
0001
1000
,  // measure 10
0200
0000
0000
0000
0310
0000
0001
0000
1000
0100
1000
0001
0100
0001
1000
0010
,  // measure 11
0200
0000
0302
0000
1003
0000
0000
0000
0001
1000
0001
0000
1000
0100
1000
0000
,  // measure 12
0001
0000
0100
0000
0010
0000
0010
0000
1000
0100
1000
0001
0100
0001
1000
0010
,  // measure 13
0100
0000
0100
0000
0001
1000
0001
0000
1000
0100
0010
0001
0100
0010
1000
0001
,  // measure 14
0020
0000
0000
0000
0130
0000
1000
0000
0001
0010
0001
1000
0010
1000
0001
0100
,  // measure 15
0020
0000
2030
0000
3001
0000
0000
0000
1000
0001
1000
0000
0001
0010
0001
0000
,  // measure 16
1000
0000
0010
0000
0100
0000
0100
0000
0001
0010
0001
1000
0010
1000
0001
0100
,  // measure 17
0010
0000
0010
0000
1000
0001
1000
0000
0001
0010
0010
0001
1000
0010
1000
0001
,  // measure 18
0100
0000
0100
0000
0010
0000
0010
0000
1000
0000
1000
0000
0100
0010
0001
0000
,  // measure 19
2000
0000
0100
0000
3002
0000
0100
0000
2003
0000
0000
0000
3010
0100
0001
1000
,  // measure 20
0010
0000
0010
0000
0100
0000
0100
0000
0001
0000
0001
0000
0010
0100
1000
0000
,  // measure 21
0002
0000
0010
0000
2003
0000
0010
0000
3002
0000
0000
0000
0103
0010
1000
0001
,  // measure 22
0001
0010
0011
0000
1000
0000
0001
0100
0000
0001
1000
0000
0001
0010
0100
0000
,  // measure 23
1000
0100
1100
0000
0001
0000
1000
0010
0000
1000
0001
0000
1000
0100
0010
0000
,  // measure 24
0001
1000
1001
0000
0001
0000
0100
0010
0000
0010
1000
0000
0001
0010
0100
0000
,  // measure 25
1000
0001
1001
0000
1000
0000
0100
0000
1000
0100
0010
0001
0100
0010
1000
0001
,  // measure 26
0010
0000
0000
0000
0100
0000
0100
0000
1000
0000
0000
0000
0100
1000
0100
1000
,  // measure 27
0001
0000
0000
0000
0100
0000
0100
0000
0010
0000
0000
0000
1000
0010
1000
0010
,  // measure 28
0100
0000
0000
0000
0001
1000
0001
1000
0100
0000
0000
0000
0010
0001
0010
0001
,  // measure 29
1000
0000
0000
0000
0100
1000
0100
1000
0001
0000
0000
0000
0100
0100
0100
0000
,  // measure 30
0020
0000
0030
0000
;

//---------------dance-double - ----------------
#NOTES:
     dance-double:
     :
     Challenge:
     7:
     0.401052,0.373441,0.087457,0.253625,0.380438,282.000000,10.000000,29.000000,0.000000,0.000000,0.000000,0.401052,0.373441,0.087457,0.253625,0.380438,282.000000,10.000000,29.000000,0.000000,0.000000,0.000000:
00000000
00000000
00000000
00000000
,
00000000
00000000
00000000
00000000
,
10000000
00010000
10000000
00000000
00100000
00000000
01000000
00010000
00000000
00010000
10000000
00000000
00010000
00100000
01000000
10000000
,
00020000
00000000
01030000
00000000
00002000
00000000
00013000
00000000
00000200
00000000
00001300
00000000
00001000
00000010
00000100
00000000
,
00000001
00001000
00000001
00000000
00000100
00000000
00000010
00001000
00000000
00001000
00000001
00000000
00001000
00000100
00000010
00000001
,
00002000
00000000
00003010
00000000
00020000
00000000
00031000
00000000
00200000
00000000
00310000
00000000
00010000
01000000
00100000
10000000
,
01000000
01000000
01000000
00000000
11000000
00000000
00000000
00000000
00010000
00000000
10000000
00000000
00100000
01000000
00010000
00000000
,
00100000
00100000
00100000
00000000
00110000
00000000
00000000
00000000
00001000
00000000
00010000
00000000
00000100
00000100
00001000
00000100
,
00000010
00000010
00000010
00000000
00000011
00000000
00000000
00000000
00001000
00000000
00000001
00000000
00000100
00000010
00001000
00000000
,
00000100
00000100
00000100
00000000
00001100
00000000
00000000
00000000
00001000
00000100
00001000
00000100
00010000
00001000
00010000
00001000
,
02000000
00000000
00000000
00000000
03010000
00000000
00000000
00000000
00010000
01000000
00100000
00100000
10000000
01000000
00100000
00100000
,
00020000
00000000
20030000
00000000
31000000
00000000
00000000
00000000
10000000
01000000
00100000
00100000
00010000
01000000
00100000
00100000
,
20000000
00000000
32000000
00000000
03100000
00000000
00000000
00000000
00010000
00100000
00001000
00001000
00010000
00000010
00001000
00001000
,
00000002
00000000
00000203
00000000
00000310
00000000
00000000
00000000
00000100
00000010
00000100
00000010
00001000
00001000
00000001
00001000
,
00000020
00000000
00000000
00000000
00001030
00000000
00000000
00000000
00001000
00000010
00000100
00000100
00000001
00000010
00000100
00000100
,
00002000
00000000
00003002
00000000
00000013
00000000
00000000
00000000
00000001
00000010
00000100
00000100
00001000
00000010
00000100
00000100
,
00000002
00000000
00000023
00000000
00000130
00000000
00000000
00000000
00001000
00000100
00010000
00010000
00001000
01000000
00010000
00010000
,
20000000
00000000
30200000
00000000
01300000
00000000
00000000
00000000
00010000
10000000
01000000
10000000
01000000
00100000
00010000
01000000
,
00100000
00000000
00100000
00000000
10000000
00000000
01000000
00000000
00100000
00000000
00010000
00000000
10000000
00100000
01000000
00010000
,
00200000
00000000
00301000
00000000
00020000
00000000
00031000
00000000
00002200
00000000
00003300
00000000
00001000
00000100
00000010
00000001
,
00000100
00000000
00000100
00000000
00000001
00000000
00000010
00000000
00000100
00000000
00001000
00000000
00000001
00000100
00000010
00001000
,
00000200
00000000
00010300
00000000
00002000
00000000
00013000
00000000
00220000
00000000
00330000
00000000
00010000
00100000
01000000
10000000
,
01000000
01000000
01000000
00000000
11000000
00000000
00000000
00000000
00010000
00000000
10000000
00000000
00100000
01000000
00010000
00000000
,
00100000
00100000
00100000
00000000
00110000
00000000
00000000
00000000
00001000
00000000
00010000
00000000
00000100
00000100
00001000
00000100
,
00000010
00000010
00000010
00000000
00000011
00000000
00000000
00000000
00001000
00000000
00000001
00000000
00000100
00000010
00001000
00000000
,
00000100
00000100
00000100
00000000
00001100
00000000
00000000
00000000
00001000
00000100
00001000
00000100
00010000
00001000
00010000
00001000
,
01000000
00000000
00000000
00000000
00100000
01000000
00100000
00000000
10000000
00000000
00000000
00000000
10000000
01000000
10000000
00000000
,
00010000
00000000
00000000
00000000
00010000
01000000
00010000
00000000
10000000
00000000
00000000
00000000
01000000
00010000
00001000
00000100
,
00000001
00000000
00000000
00000000
00001000
00000100
00001000
00000000
00000010
00000000
00000000
00000000
00000100
00000010
00000100
00000000
,
00000001
00000000
00000000
00000000
00000001
00000010
00000001
00000000
00001000
00000000
00000000
00000000
00000001
00000100
00001000
00010000
,
02000000
00000000
03000000
00000000
;

//---------------dance-single - ----------------
#NOTES:
     dance-single:
     :
     Medium:
     4:
     0.221141,0.226732,0.000000,0.139931,0.034983,161.000000,0.000000,16.000000,0.000000,0.000000,0.000000,0.221141,0.226732,0.000000,0.139931,0.034983,161.000000,0.000000,16.000000,0.000000,0.000000,0.000000:
0000
0000
0000
0000
,
0000
0000
0000
0000
,
1000
0000
0001
0010
0001
1000
0100
0000
,
2000
3000
0002
0003
0200
0300
0001
1000
,
0010
0010
1000
0000
0100
0010
0001
0000
,
2000
3000
0002
0003
0020
0030
0001
0000
,
1000
0100
1000
0000
0100
0000
0000
0000
1000
0000
0000
0000
0010
0000
1000
0000
,
0001
0100
0001
0000
0100
0000
0000
0000
0001
0000
0000
0000
1000
0000
0001
0000
,
0010
0100
0010
0000
0100
0000
0000
0000
0010
0000
0000
0000
0001
0000
1000
0000
,
0100
1000
0100
0000
1000
0000
0000
0000
0002
0000
0000
0000
0000
0000
0000
0000
,
0103
0000
0010
0000
1000
0001
0100
0010
,
1000
1000
0100
0000
1000
0000
0100
0010
,
0001
0001
0100
0000
0010
0000
1000
0001
,
1000
1000
0100
0000
2000
0000
0000
0000
,
3010
0000
0100
0000
0001
0100
0010
1000
,
0100
0100
0010
0000
0001
0000
1000
0000
,
0010
1000
0001
0000
0100
0000
0010
0000
,
1000
0100
0010
0000
0001
0000
1000
0000
,
0010
0010
0010
0000
1000
0000
0001
0000
,
0200
0300
0002
0003
2000
3000
0100
1000
,
0001
0001
0100
0000
0010
0000
1000
0000
,
0200
0300
0020
0030
0002
0003
0100
0001
,
1000
0100
1000
0000
0100
0000
0000
0000
1000
0000
0000
0000
0010
0000
1000
0000
,
0001
0010
0001
0000
0010
0000
0000
0000
0001
0000
0000
0000
0010
0000
0001
0000
,
0100
0010
0100
0000
0010
0000
0000
0000
0100
0000
0000
0000
0010
0000
0100
0000
,
0001
1000
0001
0000
1000
0000
0000
0000
0200
0000
0000
0000
0000
0000
0000
0000
,
0310
0000
0010
0010
0001
0000
0001
0001
,
0100
0000
0100
0100
0010
0000
0010
0010
,
1000
0000
0100
1000
0001
0000
0010
0001
,
1000
0000
0010
0100
0001
0000
0100
0001
,
2000
0000
3000
0000
;

//---------------dance-single - ----------------
#NOTES:
     dance-single:
     :
     Easy:
     2:
     0.124938,0.160046,0.034983,0.069966,0.000000,88.000000,4.000000,8.000000,0.000000,0.000000,0.000000,0.124938,0.160046,0.034983,0.069966,0.000000,88.000000,4.000000,8.000000,0.000000,0.000000,0.000000:
0000
0000
0000
0000
,
0000
0000
0000
0000
,
0100
0001
1000
0000
,
0100
0100
0100
0000
,
0010
0001
1000
0000
,
0010
0010
0010
0000
,
1000
1000
0000
0000
0100
0000
0010
0000
,
0001
0001
0000
0000
0100
0000
0001
0000
,
1000
1000
0000
0000
0100
0000
1000
0000
,
0001
0001
0000
0000
2002
0000
3003
0000
,
0100
0000
1000
0010
,
0100
0100
0000
0000
0001
0000
1000
0000
,
0100
0100
0000
0000
0010
0000
0001
0000
,
1000
1000
0000
0000
2002
0000
3003
0000
,
0001
0000
1000
0100
,
0010
0010
0000
0000
0001
0000
1000
0000
,
0010
0010
0000
0000
1000
0000
0001
0000
,
0100
0100
0000
0000
0001
0000
0000
0000
,
1000
0000
0100
0000
,
1000
1000
0010
0000
,
0100
0000
0100
0000
,
0001
0001
0010
0000
,
0001
0001
0000
0000
0100
0000
0000
0000
,
0010
0010
0000
0000
1000
0000
0000
0000
,
0100
0100
0000
0000
1000
0000
0000
0000
,
0001
0001
0000
0000
2002
0000
3003
0000
,
1000
0000
0001
0000
,
0010
0000
0100
0000
,
1000
1000
0001
0000
,
0100
0100
0010
0000
,
2002
0000
3003
0000
;

//---------------dance-single - ----------------
#NOTES:
     dance-single:
     :
     Beginner:
     1:
     0.102450,0.104948,0.034983,0.000000,0.000000,78.000000,4.000000,0.000000,0.000000,0.000000,0.000000,0.102450,0.104948,0.034983,0.000000,0.000000,78.000000,4.000000,0.000000,0.000000,0.000000,0.000000:
0000
0000
0000
0000
,
0000
0000
0000
0000
,
0010
1000
0001
0000
,
0010
0010
0010
0000
,
0100
1000
0001
0000
,
0100
0100
0100
0000
,
0001
0000
0010
0100
,
1000
0000
0010
1000
,
0001
0000
0010
0001
,
1000
0000
1001
0000
,
0010
0000
0001
0100
,
0010
0000
1000
0001
,
0010
0000
0100
1000
,
0001
0000
1001
0000
,
1000
0000
0001
0010
,
0100
0000
1000
0001
,
0100
0000
0001
1000
,
0010
0000
1000
0000
,
0001
0000
0010
0000
,
0001
0001
0100
0000
,
0010
0000
0010
0000
,
1000
1000
0100
0000
,
1000
1000
0010
0000
,
0100
0100
0001
0000
,
0010
0010
0001
0000
,
1000
1000
1001
0000
,
0001
0000
1000
0000
,
0100
0000
0010
0000
,
0001
0001
1000
0000
,
0010
0010
0100
0000
,
1001
0000
0000
0000
;
