#TITLE:Chained To The Rhythm;
#SUBTITLE:(feat. Skip Marley);
#ARTIST:Katy Perry;
#TITLETRANSLIT:;
#SUBTITLETRANSLIT:;
#ARTISTTRANSLIT:;
#GENRE:Pop;
#CREDIT:;
#BANNER:Chained To The Rhythm.png;
#BACKGROUND:Chained To The Rhythm-bg.png;
#LYRICSPATH:;
#CDTITLE:;
#MUSIC:Chained To The Rhythm.ogg;
#OFFSET:-0.010000;
#SAMPLESTART:55.584229;
#SAMPLELENGTH:13.714000;
#SELECTABLE:YES;
#BPMS:0.000000=95.000000
;
#STOPS:
;
#BGCHANGES:4.000=Chained To The Rhythm.avi=1.000=0=0=1=====,
99999=-nosongbg-=1.000=0=0=0 // don't automatically add -songbackground-
;
#KEYSOUNDS:;
#ATTACKS:;

//---------------dance-single - ----------------
#NOTES:
     dance-single:
     :
     Hard:
     7:
     0.377580,0.419699,0.242801,0.104058,0.038154,331.000000,35.000000,15.000000,0.000000,0.000000,0.000000,0.377580,0.419699,0.242801,0.104058,0.038154,331.000000,35.000000,15.000000,0.000000,0.000000,0.000000:
0000
0000
0000
0000
,
0000
0000
0000
0000
,
2000
0100
3010
1010
,
1000
0010
0100
0000
0001
1000
0100
0010
,
0002
0000
0103
0001
2000
0000
3010
0000
,
0200
0000
0310
0000
0100
0001
0010
0100
,
2000
0000
3010
1000
0002
0000
0013
0000
,
0001
0000
0100
0010
0100
0001
1000
0000
,
0010
1000
0010
1000
0101
0000
0101
0000
,
1000
0010
1000
0010
0101
0000
0101
0000
,
2000
0000
3010
0100
0001
1000
1001
0000
,
1000
0100
0010
0000
0001
1000
0010
0100
,
0002
0000
0103
0010
0100
0001
0101
0000
,
1000
1000
1000
0000
0010
1000
0100
1000
,
0002
0000
0013
0100
2000
0000
3010
0100
,
0002
0000
0103
0010
1000
0001
1000
0000
,
0001
0100
0001
0100
1010
0000
1010
0000
,
0100
0001
0100
0001
1010
0000
1010
0000
,
0001
0000
1000
0000
0000
0010
0000
0100
,
0100
0000
0001
0000
0000
1000
0100
0010
,
0001
0000
1000
0000
0000
0000
0010
0100
,
0001
0100
0010
1001
,
1000
0000
0010
0100
0010
0000
0100
0001
0100
0000
0001
0000
1000
0000
0000
0000
,
1001
0000
0110
0000
1001
0000
1000
0100
1000
0000
0001
0000
0100
0000
0000
0000
,
0010
0000
0100
0001
1000
0001
0010
0000
,
0001
0000
1000
0100
1000
0000
0010
0000
0100
0000
0100
0000
0001
0000
1000
0000
,
0020
0000
0130
0000
0110
0110
1001
0000
,
1000
0000
0101
0000
1000
1000
0010
0000
,
1000
0100
1000
0010
0100
0001
1000
0000
,
0001
0100
0010
0000
0100
0001
1000
1000
,
0001
0000
0100
0010
0100
0000
0010
1000
0010
0000
1000
0000
0001
0000
0000
0000
,
1001
0000
0110
0000
1001
0000
0001
0010
0001
0000
1000
0000
0010
0000
0000
0000
,
0100
0000
0010
1000
0001
1000
0100
0000
,
1000
0000
0001
0010
0001
0000
0100
0000
0010
0000
0010
0000
1000
0000
0001
0000
,
0200
0000
0310
0000
0110
0110
1001
0000
,
0001
0000
1010
0000
0001
0001
0100
0000
,
0001
0010
0001
0100
0010
1000
0001
0000
,
1000
0010
0100
0000
0010
1000
0001
0001
,
0020
0000
0030
0000
0001
1000
0010
0000
,
1000
0100
0010
0000
0001
0100
0010
0010
,
1000
0000
0100
0000
1000
0001
0100
0000
,
0010
0010
0010
0000
0100
0001
1000
0000
,
0001
0100
0101
0000
1000
0100
1100
0000
,
0001
0010
0001
1000
,
0010
0010
0100
0100
0010
0000
0100
0000
,
0001
0010
0100
1000
0010
0100
0001
0000
,
1000
0100
0010
0001
0100
0100
0100
0100
,
0000
0000
1001
0000
1000
0100
1000
0000
,
0101
0000
1100
0000
0101
0000
1000
0100
1000
0000
0010
0000
0100
0000
0001
0000
,
1000
0000
1010
0000
0001
0010
0001
0000
,
1000
0000
0010
0100
0010
0000
0100
0001
0100
0000
0010
0000
1000
0000
0001
0000
,
0020
0000
0031
0000
0010
0001
1000
0000
,
0010
0100
1001
0000
1000
0100
0010
0000
,
0001
0100
0010
1000
0001
1000
0001
0000
,
1000
0100
1000
0000
0001
1000
0010
0100
,
1001
0000
0000
0000
;

//---------------dance-single - ----------------
#NOTES:
     dance-single:
     :
     Challenge:
     9:
     0.533171,0.534162,0.201178,0.041623,0.502945,503.000000,29.000000,6.000000,0.000000,0.000000,0.000000,0.533171,0.534162,0.201178,0.041623,0.502945,503.000000,29.000000,6.000000,0.000000,0.000000,0.000000:
// measure 0
0000
0000
0000
0000
,  // measure 1
0000
0000
0000
0000
,  // measure 2
0001
0000
0010
0001
0000
0100
0000
0010
0000
0100
0010
0000
1000
0000
0000
0000
,  // measure 3
0010
0000
1000
0000
0001
0000
0000
0000
1000
0100
0000
0010
0000
0001
0000
0000
,  // measure 4
0100
0000
0010
0000
0100
0000
0001
1000
0001
0000
0010
0000
0001
0000
0000
0000
,  // measure 5
1000
0000
0100
0000
1100
0000
0000
0000
0001
0100
0001
0000
0100
0000
0010
0000
,  // measure 6
2010
0000
0000
0000
3001
0000
0010
0100
0010
0000
0001
0000
1000
0000
0100
0000
,  // measure 7
1000
0000
0010
0000
0100
0000
0001
1000
0001
0000
0100
0000
0010
0000
0000
0000
,  // measure 8
0100
0001
0100
0001
0100
0001
0100
0001
1000
0010
0000
1000
0010
0000
0000
0000
,  // measure 9
0100
0001
0100
0001
0100
0001
0100
0001
1000
0010
0000
1000
0010
0000
0000
0000
,  // measure 10
1000
0000
0100
1000
0000
0010
0000
0100
0000
0010
0100
0000
0001
0000
0000
0000
,  // measure 11
0100
0000
0001
0000
1000
0000
0000
0000
0001
0010
0000
0100
0000
1000
0000
0000
,  // measure 12
0010
0000
0100
0000
0010
0000
1000
0001
1000
0000
0100
0000
1000
0000
0000
0000
,  // measure 13
0001
0000
0010
0000
0011
0000
0000
0000
1000
0010
1000
0000
0010
0000
0100
0000
,  // measure 14
0102
0000
0000
0000
1003
0000
0100
0010
0100
0000
1000
0000
0001
0000
0010
0000
,  // measure 15
0001
0000
0100
0000
0010
0000
1000
0001
1000
0000
0010
0000
0100
0000
0000
0000
,  // measure 16
0010
1000
0010
1000
0010
1000
0010
1000
0001
0100
0000
0001
0100
0000
0000
0000
,  // measure 17
0010
1000
0010
1000
0010
1000
0010
1000
0001
0100
0000
0001
0100
0000
0001
0000
,  // measure 18
1000
0000
0010
0000
0100
0101
0000
1100
,  // measure 19
0001
0000
0000
0000
0010
0000
0000
0000
0001
1000
0001
0000
1000
0000
0010
0100
,  // measure 20
0010
0000
0100
0000
0001
0100
0010
1000
,  // measure 21
1100
0000
0100
0010
0100
0000
0000
0000
0010
0000
0001
0000
1100
0000
0000
0000
,  // measure 22
0101
0000
1000
0010
0100
0000
0001
1000
0100
0000
0010
0000
0001
0000
1000
0000
,  // measure 23
1010
0000
0101
0000
1100
0000
1000
0100
0010
0001
1000
0010
0100
0000
0001
0000
,  // measure 24
1000
0000
0010
0100
0001
0000
0100
0010
1000
0000
0100
0000
1100
0000
0100
0000
,  // measure 25
1000
0010
0100
0001
1000
0000
0010
1000
0001
0000
0010
0000
0001
0000
1000
0000
,  // measure 26
0010
0000
0100
0000
1001
0000
0000
1000
0100
0010
0001
0000
0100
0000
0010
0000
,  // measure 27
0100
0001
0100
0000
0010
0000
1000
0100
1000
0000
0001
0000
0010
0000
0001
0000
,  // measure 28
0100
0000
0000
0000
0000
0000
0010
0000
0000
0100
0000
0000
0010
0000
0000
0000
0000
0000
1000
0000
0000
0000
0000
0000
0001
0000
0000
0000
0100
0000
0000
0000
0010
0000
0000
0000
1000
0000
0000
0000
0000
0000
0001
0000
0000
0000
0000
0000
,  // measure 29
1000
0000
0000
0000
0100
0000
0000
0000
0010
0000
0000
0000
0001
0000
0000
0000
0000
0000
1000
0000
0000
0000
0000
0000
0010
0000
0000
0000
0100
0000
0000
0000
0001
0000
0000
0000
1000
0000
0000
0100
0000
0000
0010
0000
0000
0001
0000
0000
,  // measure 30
1010
0000
0001
0100
0010
0000
1000
0001
0010
0000
0100
0000
1000
0000
0001
0000
,  // measure 31
0101
0000
1010
0000
0011
0000
0001
0010
0100
1000
0001
0100
0010
0000
1000
0000
,  // measure 32
0001
0000
0100
0010
1000
0000
0010
0100
0001
0000
0010
0000
0011
0000
0010
0000
,  // measure 33
0001
0100
0010
1000
0001
0000
0100
0001
1000
0000
0100
0000
1000
0000
0001
0000
,  // measure 34
0100
0000
0010
0000
1001
0000
0000
0001
0010
0100
1000
0000
0010
0000
0100
0000
,  // measure 35
0010
1000
0010
0000
0100
0000
0001
0010
0001
0000
1000
0000
0100
0000
1000
0000
,  // measure 36
0010
0000
0000
0000
0000
0000
0100
0000
0000
0010
0000
0000
0100
0000
0000
0000
0000
0000
0001
0000
0000
0000
0000
0000
1000
0000
0000
0000
0010
0000
0000
0000
0100
0000
0000
0000
0001
0000
0000
0000
0000
0000
1000
0000
0000
0000
0000
0000
,  // measure 37
0001
0000
0000
0000
0010
0000
0000
0000
0100
0000
0000
0000
1000
0000
0000
0000
0000
0000
0001
0000
0000
0000
0000
0000
0100
0000
0000
0000
0010
0000
0000
0000
1000
0000
0000
0000
0001
0000
0000
0010
0000
0000
0100
0000
0000
1000
0000
0000
,  // measure 38
0010
0000
0000
0000
0100
0000
0001
1000
0001
0000
1000
0000
0010
0100
0000
0000
,  // measure 39
0001
0100
0000
0010
1000
0000
0001
1000
0001
0000
1000
0000
0100
0010
0000
0000
,  // measure 40
0002
0000
0000
0000
1003
0100
1000
0100
1000
0000
0010
0000
0100
0001
0000
0000
,  // measure 41
1000
0000
0000
0000
0100
0000
0000
0000
0010
0000
0000
0000
0001
0000
0000
0000
0000
0000
0100
0000
0000
0010
0000
0000
0200
0000
0000
0000
0000
0000
0302
0000
0000
0000
0000
0000
2003
0000
0000
0000
0000
0000
0000
0000
0000
0000
0000
0000
,  // measure 42
3010
0100
0001
1000
0010
0100
1001
0000
,  // measure 43
0001
0010
0100
1000
0010
0100
1001
0000
,  // measure 44
1000
0100
0001
0100
1000
0010
0110
0000
,  // measure 45
0010
0100
0010
0100
0010
1000
0010
1000
0100
1000
0100
1000
0001
0010
0000
0000
,  // measure 46
0001
0000
0000
0000
0100
0000
0000
0000
0010
0000
0000
0000
1000
0000
0000
0000
0100
0000
0000
0000
0010
0000
0000
0000
0001
0000
0000
1000
0000
0000
0001
0000
0000
0000
0000
0000
1000
0000
0000
0010
0000
0000
0100
0000
0000
0001
0000
0000
,  // measure 47
0000
0000
0000
0000
1010
0000
0001
1000
0010
0000
0100
0001
1000
0000
0010
0000
,  // measure 48
1100
0000
1001
0000
0011
0000
1000
0010
0100
0001
0010
0100
1000
0000
0010
0000
,  // measure 49
0100
0000
0001
1000
0001
0000
1000
0100
0010
0000
0001
0000
1000
0000
0010
0000
,  // measure 50
0100
0001
0100
0010
1000
0000
0001
0010
0100
1000
0010
0100
0001
0000
1000
0000
,  // measure 51
0010
0000
0100
0000
0101
0000
0100
0010
1000
0000
0100
0000
1100
0000
0001
0000
,  // measure 52
1000
0000
0100
0010
0001
0000
0100
0010
1000
0000
0001
0000
1000
0000
0010
0000
,  // measure 53
0100
0000
0000
0000
0000
0000
0001
0000
0000
0100
0000
0000
0001
0000
0000
0000
0000
0000
1000
0000
0000
0000
0000
0000
0010
0000
0000
0000
0010
0000
0000
0000
0100
0000
0000
0000
0001
0000
0000
0000
0000
0000
1000
0000
0000
0000
0000
0000
,  // measure 54
0100
0000
0000
0000
0100
0000
0000
0000
0010
0000
0000
0000
0001
0000
0000
0000
0000
0000
1000
0000
0000
0000
0000
0000
0010
0000
0000
0000
0010
0000
0000
0000
0100
0000
0000
0000
0001
0000
0000
0010
0000
0000
0100
0000
0000
1000
0000
0000
,  // measure 55
0010
0000
0000
0000
;

//---------------dance-double - ----------------
#NOTES:
     dance-double:
     :
     Challenge:
     9:
     0.533171,0.534162,0.263612,0.020812,0.471728,497.000000,38.000000,3.000000,0.000000,0.000000,0.000000,0.533171,0.534162,0.263612,0.020812,0.471728,497.000000,38.000000,3.000000,0.000000,0.000000,0.000000:
00000000
00000000
00000000
00000000
,
00000000
00000000
00000000
00000000
,
00001000
00000000
00000010
00000100
00000000
00000010
00000000
00000100
00000000
00000001
00001000
00000000
00001001
00000000
00000000
00000000
,
00000001
00000000
00000100
00000000
00000010
00000000
00001000
00000000
00000001
00000010
00000001
00000000
00001000
00000000
00000010
00000000
,
00000200
00000000
00000000
00000000
00001300
00000000
00000100
00000001
00000100
00000000
00000010
00000000
00001000
00000000
00000000
00000000
,
00000100
00000000
00010000
00000000
00010100
00000000
00000000
00000000
00001000
00000000
00010000
00000000
00000100
00010000
00001000
00000000
,
00010000
00000000
00001000
00000000
00100000
00000000
00010000
01000000
00010000
00000000
01000000
00000000
00100000
00000000
10000000
00000000
,
01000000
00000000
00100000
00000000
00010000
00000000
10000000
01000000
10000000
00000000
00010000
00000000
01000000
00000000
00000000
00000000
,
00010000
10000000
00010000
10000000
00010000
10000000
00010000
10000000
00100000
01000000
00000000
01000000
00100000
00000000
10000000
00000000
,
00010000
10000000
00010000
10000000
00010000
10000000
00010000
10000000
00100000
01000000
00000000
01000000
00100000
00000000
10000000
00000000
,
00010000
00000000
01000000
00100000
00000000
01000000
00000000
00100000
00000000
10000000
00010000
00000000
10010000
00000000
00000000
00000000
,
10000000
00000000
00100000
00000000
01000000
00000000
00010000
00000000
10000000
01000000
10000000
00000000
00010000
00000000
01000000
00000000
,
00200000
00000000
00000000
00000000
00310000
00000000
00100000
10000000
00100000
00000000
01000000
00000000
00010000
00000000
00000000
00000000
,
00100000
00000000
00001000
00000000
00101000
00000000
00000000
00000000
00010000
00000000
00001000
00000000
00100000
00001000
00010000
00000000
,
00001000
00000000
00010000
00000000
00000100
00000000
00001000
00000010
00001000
00000000
00000010
00000000
00000100
00000000
00000001
00000000
,
00000010
00000000
00000100
00000000
00001000
00000000
00000001
00000010
00000001
00000000
00001000
00000000
00000010
00000000
00000000
00000000
,
00001000
00000001
00001000
00000001
00001000
00000001
00001000
00000001
00000100
00000010
00000000
00000010
00000100
00000000
00000001
00000000
,
00001000
00000001
00001000
00000001
00001000
00000001
00001000
00000001
00000100
00000010
00000000
00000010
00000100
00000000
00000001
00000000
,
00001000
00000000
00000010
00000000
00001000
00001100
00000000
00010100
,
00010000
00000000
00000000
00000000
00001000
00000000
00000000
00000000
00000000
00010000
00001000
00000000
00010000
00000000
00001000
00000000
,
00101000
00000000
00100000
00000000
00010000
01000000
00100000
10000000
,
11000000
00000000
00010000
01000000
00010000
00000000
00000000
00000000
10000000
00000000
00000000
00000000
00100000
00000000
00000000
00000000
,
01000000
00000000
00010000
01000000
00100000
00000000
01000000
00100000
10000000
00000000
01000000
00000000
11000000
00000000
00000000
00000000
,
11000000
00000000
01010000
00000000
00011000
00000000
00010000
00001000
00100000
00000000
00001000
00000000
00010000
00000000
00000100
00000000
,
00001000
00000000
00000010
00000100
00000010
00000000
00000100
00000001
00000100
00000000
00000010
00000000
00001000
00000000
00000001
00000000
,
00001000
00000100
00000010
00000001
00000100
00000000
00000010
00000100
00001000
00000100
00000010
00001000
00000100
00000000
00000010
00000000
,
00000001
00000000
00000000
00000000
00010100
00000000
00000000
00000010
00000010
00000000
00001000
00000000
00001100
00000000
00000101
00000000
,
00001001
00000000
00000010
00001000
00000001
00000000
00000010
00000001
00000100
00000000
00000100
00000000
00000010
00000000
00001000
00000000
,
00000100
00000000
00000000
00000000
00000000
00000000
00010000
00000000
00000000
00000100
00000000
00000000
00010000
00000000
00000000
00000000
00000000
00000000
00001000
00000000
00000000
00000000
00000000
00000000
00010000
00000000
00000000
00000000
00001000
00000000
00000000
00000000
00010000
00000000
00000000
00000000
00000100
00000000
00000000
00000000
00000000
00000000
00001000
00000000
00000000
00000000
00000000
00000000
,
00000010
00000000
00000000
00000000
00000100
00000000
00000000
00000000
00000010
00000000
00000000
00000000
00001000
00000000
00000000
00000000
00000000
00000000
00000100
00000000
00000000
00000000
00000000
00000000
00000010
00000000
00000000
00000000
00000001
00000000
00000000
00000000
00001000
00000000
00000000
00000000
00000001
00000000
00000000
00000100
00000000
00000000
00000001
00000000
00000000
00001000
00000000
00000000
,
00000010
00000000
00001000
00000010
00000100
00000000
00000010
00000100
00000001
00000000
00000010
00000000
00000011
00000000
00000000
00000000
,
00000011
00000000
00001010
00000000
00011000
00000000
00001000
00010000
00000100
00000000
00010000
00000000
00001000
00000000
00100000
00000000
,
00010000
00000000
01000000
00100000
01000000
00000000
00100000
10000000
00100000
00000000
01000000
00000000
00010000
00000000
10000000
00000000
,
00010000
00100000
01000000
10000000
00100000
00000000
01000000
00100000
00010000
00100000
01000000
00010000
00100000
00000000
01000000
00000000
,
10000000
00000000
00000000
00000000
00101000
00000000
00000000
01000000
01000000
00000000
00010000
00000000
00110000
00000000
10100000
00000000
,
10010000
00000000
01000000
00010000
10000000
00000000
01000000
10000000
00100000
00000000
00100000
00000000
01000000
00000000
00010000
00000000
,
00100000
00000000
00000000
00000000
00000000
00000000
00001000
00000000
00000000
00100000
00000000
00000000
00001000
00000000
00000000
00000000
00000000
00000000
00010000
00000000
00000000
00000000
00000000
00000000
00001000
00000000
00000000
00000000
00010000
00000000
00000000
00000000
00001000
00000000
00000000
00000000
00100000
00000000
00000000
00000000
00000000
00000000
00010000
00000000
00000000
00000000
00000000
00000000
,
01000000
00000000
00000000
00000000
00100000
00000000
00000000
00000000
01000000
00000000
00000000
00000000
00010000
00000000
00000000
00000000
00000000
00000000
00100000
00000000
00000000
00000000
00000000
00000000
01000000
00000000
00000000
00000000
10000000
00000000
00000000
00000000
00010000
00000000
00000000
00000000
01000000
00000000
00000000
00100000
00000000
00000000
10000000
00000000
00000000
01000000
00000000
00000000
,
00100000
00000000
00000000
00000000
00010000
00000000
10000000
01000000
10000000
00000000
00100000
00000000
01000000
00010000
00000000
00000000
,
01000000
00100000
00000000
01000000
00100000
00000000
01000000
00010000
10000000
00000000
00010000
00000000
10000000
00000000
00000000
00000000
,
00010000
00000000
00000000
00000000
00100000
00010000
00100000
00010000
00100000
00000000
00001000
00000000
00010000
00000100
00000000
00000000
,
00010000
00001000
00000000
00010000
00000100
00000000
00001000
00000100
00001000
00000000
00000010
00000000
00000200
00000000
00000000
00000000
,
00000301
00000100
00000010
00001000
00000100
00000010
00001001
00000000
,
00001000
00000010
00000001
00000010
00000100
00000001
00001010
00000000
,
00000001
00000100
00000101
00000000
00001000
00000100
00001100
00000000
,
00000001
00000010
00000100
00001000
00000001
00000010
00000100
00001000
00000010
00000100
00001000
00010000
00001000
00010000
00000000
00000000
,
00001000
00000000
00000000
00000000
00010000
00000000
00000000
00000000
00100000
00000000
00000000
00000000
10000000
00000000
00000000
00000000
01000000
00000000
00000000
00000000
00100000
00000000
00000000
00000000
00010000
00000000
00000000
01000000
00000000
00000000
00010000
00000000
00000000
00000000
00000000
00000000
10000000
00000000
00000000
01000000
00000000
00000000
00100000
00000000
00000000
00010000
00000000
00000000
,
00000000
00000000
00000000
00000000
10001000
00000000
10000000
00010000
01000000
00000000
00100000
00000000
10000000
00000000
01000000
00000000
,
11000000
00000000
01100000
00000000
00110000
00000000
00100000
00010000
10000000
00100000
01000000
00010000
10000000
01000000
00100000
00010000
,
10000000
00000000
00010000
01000000
00010000
00000000
10000000
01000000
00010000
00000000
00001000
00000000
00011000
00000000
00000000
00000000
,
00010000
00001000
00010000
00001000
00000100
00000000
00000010
00000100
00000010
00000000
00001000
00000000
00001010
00000000
00001100
00000000
,
00000101
00000000
00000010
00000000
00001001
00000000
00001000
00000010
00000100
00000000
00000001
00000000
00000100
00000000
00000010
00000000
,
00000010
00000000
00000100
00000001
00001000
00000000
00000010
00001000
00000100
00000000
00000010
00000000
00000001
00000000
00001000
00000000
,
00001100
00000000
00000000
00000000
00000000
00000000
00000100
00000000
00000000
00010000
00000000
00000000
00001000
00000000
00000000
00000000
00000000
00000000
00010000
00000000
00000000
00000000
00000000
00000000
00001000
00000000
00000000
00000000
00100000
00000000
00000000
00000000
00010000
00000000
00000000
00000000
01000000
00000000
00000000
00000000
00000000
00000000
00100000
00000000
00000000
00000000
00000000
00000000
,
10000000
00000000
00000000
00000000
01000000
00000000
00000000
00000000
00100000
00000000
00000000
00000000
00010000
00000000
00000000
00000000
00000000
00000000
01000000
00000000
00000000
00000000
00000000
00000000
00100000
00000000
00000000
00000000
10000000
00000000
00000000
00000000
00100000
00000000
00000000
00000000
01000000
00000000
00000000
00010000
00000000
00000000
00100000
00000000
00000000
00001000
00000000
00000000
,
00010000
00000000
00000000
00000000
;

//---------------dance-single - ----------------
#NOTES:
     dance-single:
     :
     Medium:
     5:
     0.285415,0.343390,0.166492,0.076309,0.000000,253.000000,24.000000,11.000000,0.000000,0.000000,0.000000,0.285415,0.343390,0.166492,0.076309,0.000000,253.000000,24.000000,11.000000,0.000000,0.000000,0.000000:
0000
0000
0000
0000
,
0000
0000
0000
0000
,
0020
0030
0200
0300
,
0001
0000
1000
0000
0010
0010
1000
0000
,
0001
0010
0100
1000
,
0010
0000
0000
0000
1000
0100
1000
0000
,
0200
0000
1300
0000
0010
0000
0100
0010
,
0200
0301
2000
3000
,
0001
0100
0001
0000
0101
0000
1100
0000
,
1000
0100
1000
0000
1100
0000
0101
0000
,
0020
0030
0002
0003
,
0100
0000
0001
0000
1000
0010
0100
0000
,
0010
1000
0100
0100
,
0010
0000
0000
0000
0001
0010
0100
0000
,
2000
3100
1000
0001
,
2000
3010
1000
0001
,
0100
0001
0100
0000
1010
0000
0011
0000
,
1000
0100
1000
0000
0011
0000
1010
0000
,
2002
0000
3003
0000
0000
0100
0000
0010
,
0000
0000
0000
0000
0000
1000
0001
0000
,
1001
0000
0000
0000
,
1100
0000
0000
0010
,
0101
0000
1000
0000
0010
0010
0010
0000
,
1000
0001
1000
0000
0001
0001
1000
1000
,
0010
0000
0100
0000
0010
0010
0010
0000
,
1000
0001
1000
0000
0001
0010
0100
1000
,
0001
0000
1100
0000
0001
0001
0001
0000
,
0000
0000
1001
0000
1000
1000
1000
0000
,
0010
0000
0010
0000
0100
0010
0100
0000
,
0010
0100
0010
0000
1000
0001
1000
0100
,
1010
0000
0001
0000
0100
0100
0100
0000
,
0001
1000
0001
0000
1000
1000
0001
0001
,
0100
0000
0010
0000
0100
0100
0100
0000
,
0001
1000
0001
0000
1000
0100
0010
0001
,
1000
0000
0011
0000
1000
1000
1000
0000
,
0000
0000
1001
0000
0001
0001
0001
0000
,
0100
0000
0100
0000
0010
0100
0010
0000
,
0100
0010
0100
0000
0001
1000
0001
0010
,
0101
0000
0000
0000
1000
0100
1000
0000
,
0010
0000
0010
0000
0100
0001
0100
0000
,
0001
0000
1000
1000
,
0010
0010
0010
0000
0100
0100
0100
0000
,
0001
0100
1000
0000
,
1000
0010
0001
0000
,
0001
1000
0001
0000
,
1000
0100
1000
0100
1000
0100
0011
0000
,
0001
0100
0001
0100
0001
0100
1010
1000
,
0000
0000
1001
0000
1000
0001
1000
0000
,
0010
0010
0010
0100
0001
0001
1000
1000
,
0010
0000
1000
0000
0001
0010
0001
0000
,
0100
0010
0100
0001
1000
1000
0001
0001
,
0100
0000
1001
0000
1000
0001
0100
0000
,
0000
0000
1001
0000
0001
1000
0100
0000
,
0010
0000
0010
0000
0100
0100
0010
0000
,
0100
0100
0010
0000
0001
0010
0001
0100
,
1010
0000
0000
0000
;

//---------------dance-single - ----------------
#NOTES:
     dance-single:
     :
     Easy:
     3:
     0.175411,0.248004,0.097120,0.076309,0.000000,152.000000,14.000000,11.000000,0.000000,0.000000,0.000000,0.175411,0.248004,0.097120,0.076309,0.000000,152.000000,14.000000,11.000000,0.000000,0.000000,0.000000:
0000
0000
0000
0000
,
0000
0000
0000
0000
,
0100
0000
0001
0000
,
1000
0000
0010
0010
,
1000
0000
0001
0000
,
0010
0000
0001
0001
,
0100
0000
0010
0010
,
1000
0000
1000
0000
,
0001
1000
0010
0010
,
1000
0001
0010
0010
,
1001
0000
1000
0000
,
0100
0000
0010
0010
,
0001
0000
1000
0000
,
0010
0000
1000
1000
,
0001
0000
0010
0001
,
1000
0000
0010
0000
,
0100
0100
0001
1000
,
0010
0010
1000
0001
,
0020
0000
0030
0000
,
0002
0000
0003
0000
,
2000
0000
3000
0000
,
0020
0000
0030
0010
,
1001
1000
0010
0010
,
0100
0100
0100
0000
0100
0000
0000
0000
,
0001
0001
1000
1000
,
0010
0010
1000
0100
,
0010
0110
0000
0001
,
0000
1001
0000
1000
,
0010
0010
0200
0300
,
0002
0003
2000
3000
,
1001
0001
0100
0100
,
0010
0010
0010
0000
0010
0000
0000
0000
,
1000
1000
0001
0001
,
0100
0100
0001
0010
,
0100
0110
0000
1000
,
0000
1001
0000
0001
,
0100
0100
0020
0030
,
2000
3000
0002
0003
,
0200
0000
0300
0000
,
0010
0000
0010
0000
,
1000
0000
0000
0000
,
0001
0000
0001
0000
,
0100
0010
0100
0000
,
0001
0100
0001
0000
,
1000
0100
1000
0000
,
0001
0010
0100
1001
,
1000
0010
0100
1001
,
0000
0110
0110
1001
,
1000
1000
1000
0000
0001
0000
0001
0000
,
0000
0100
0010
0010
,
1000
0000
0001
0000
,
0010
1001
0100
0000
,
0010
1001
0100
0000
,
0001
0001
0100
0000
,
0010
0000
1000
0100
,
0010
0000
0000
0000
;

//---------------dance-single - ----------------
#NOTES:
     dance-single:
     :
     Beginner:
     1:
     0.093156,0.133541,0.062435,0.000000,0.000000,85.000000,9.000000,0.000000,0.000000,0.000000,0.000000,0.093156,0.133541,0.062435,0.000000,0.000000,85.000000,9.000000,0.000000,0.000000,0.000000,0.000000:
0000
0000
0000
0000
,
0000
0000
0000
0000
,
0100
0000
0100
0000
,
0000
0000
0001
0000
,
0001
0000
0001
0000
,
0000
0000
1000
0000
,
1000
0000
1000
0000
,
0000
0000
0000
0000
,
0010
0010
0000
0000
,
0010
0010
0000
0000
,
0100
0000
0100
0000
,
0000
0000
0001
0000
,
0001
0000
0001
0000
,
0000
0000
1000
0000
,
1000
0000
1000
0000
,
0000
0000
0000
0000
,
0010
0000
0010
0010
,
0000
0000
0100
0100
,
0000
0000
0000
0000
,
0001
0000
0000
0000
,
1000
0000
0000
0000
,
0010
0000
0000
0000
,
1001
0000
0000
0000
,
0100
0100
0100
0000
,
0100
0000
0000
0000
,
0001
0001
0001
0000
,
0000
1001
0000
0000
,
0000
1001
0000
0000
,
1000
1000
0000
0000
,
0010
0000
0010
0000
,
1001
0000
0000
0000
,
0010
0010
0010
0000
,
0010
0000
0000
0000
,
1000
1000
1000
0000
,
0000
1001
0000
0000
,
0000
1001
0000
0000
,
0001
0001
0000
0000
,
0100
0000
0100
0000
,
0001
0000
0000
0000
,
1000
0000
0000
0000
,
0010
0000
0000
0000
,
0100
0000
0000
0000
,
0000
0001
0000
0001
,
0000
0001
0000
0000
,
0000
1000
0000
1000
,
0000
1000
0000
0000
,
0010
0000
0010
0010
,
0000
1001
0000
0000
,
0100
0100
0100
0000
,
0100
0000
0000
0000
,
0001
0001
0001
0000
,
0000
1001
0000
0000
,
0000
1001
0000
0000
,
1000
1000
0000
0000
,
0010
0000
0010
0010
,
0010
0000
0000
0000
;
