#TITLE:Blank Space;
#SUBTITLE:;
#ARTIST:Taylor Swift;
#TITLETRANSLIT:;
#SUBTITLETRANSLIT:;
#ARTISTTRANSLIT:;
#GENRE:Death Note;
#CREDIT:;
#BANNER:Blank Space.png;
#BACKGROUND:Blank Space-bg.png;
#LYRICSPATH:;
#CDTITLE:;
#MUSIC:Blank Space.ogg;
#OFFSET:-0.018000;
#SAMPLESTART:44.996128;
#SAMPLELENGTH:15.533999;
#SELECTABLE:YES;
#BPMS:0.000000=96.010002
;
#STOPS:
;
#BGCHANGES:4.000=Blank Space.avi=1.000=0=0=1=====,
99999=-nosongbg-=1.000=0=0=0 // don't automatically add -songbackground-
;
#KEYSOUNDS:;
#ATTACKS:;

//---------------dance-single - ----------------
#NOTES:
     dance-single:
     :
     Hard:
     6:
     0.316767,0.332009,0.088695,0.320666,0.000000,265.000000,13.000000,47.000000,0.000000,0.000000,0.000000,0.316767,0.332009,0.088695,0.320666,0.000000,265.000000,13.000000,47.000000,0.000000,0.000000,0.000000:
0000
0000
0000
0000
,
0000
0000
0000
0000
,
1000
0020
0230
0302
,
1003
0000
0001
0010
0100
0000
1000
0000
,
0010
0200
0302
2003
,
3200
0000
0310
0000
0001
1000
0010
0000
,
0100
0100
0100
0000
0001
0001
0001
0000
,
1000
1000
1000
0000
0010
0010
0010
0000
,
1000
0100
1000
0000
0001
0100
0001
0000
,
1000
0100
0000
1001
,
0001
0200
0320
2030
,
3001
0000
1000
0100
0010
0000
0001
0000
,
0100
0020
2030
3002
,
0023
0000
0130
0000
1000
0001
0100
0000
,
0010
0010
0010
0000
1000
1000
1000
0000
,
0001
0001
0001
0000
0100
0100
0100
0000
,
0001
0010
0001
0000
1000
0010
1000
0000
,
2002
0000
0000
3003
,
0010
1000
0010
1000
0001
0001
0000
0000
,
0010
0001
0010
0001
1000
1000
1000
0000
,
0100
1000
0100
1000
0001
0001
0000
0000
,
0100
0001
0100
0001
1000
1000
1000
0000
,
0020
2030
3200
0320
,
0032
0000
2003
0000
3010
0010
0010
0000
,
0100
0000
0001
0000
1000
0100
1000
0000
,
0001
0011
1100
1001
,
0100
0001
0100
0001
1000
1000
0000
0000
,
0100
1000
0100
1000
0001
0001
0001
0000
,
0010
0001
0010
0001
1000
1000
0000
0000
,
0010
1000
0010
1000
0001
0001
0001
0000
,
0200
0302
0023
0230
,
2300
0000
3002
0000
0103
0100
0100
0000
,
0010
1000
0100
0010
0001
1000
0010
0100
,
0002
1003
0000
0000
,
2000
0100
0000
0100
,
0000
0000
0100
0000
0000
0000
3100
0010
,
0002
0100
0000
0100
,
0000
0000
0100
0000
0000
0000
0103
0010
,
1000
0001
0010
0000
,
0001
1000
0010
0000
,
0200
0000
0000
0000
,
0020
0000
0000
0330
,
1001
1000
0100
1000
0001
0001
0000
0000
,
0002
0000
0203
0000
0310
0010
0010
0000
,
1001
0001
0010
0001
1000
1000
0000
0000
,
2000
0000
3020
0000
0130
0100
0100
0000
,
0002
0000
0103
0000
0001
1000
0001
0000
,
2000
0000
3100
0000
1000
0001
1000
0000
,
0020
0000
0130
0000
0010
0100
0010
0000
,
0100
0110
0101
1010
,
1001
0001
0010
0001
1000
1000
0000
0000
,
2000
0000
3020
0000
0130
0100
0100
0000
,
1001
1000
0100
1000
0001
0001
0000
0000
,
0002
0000
0203
0000
0310
0010
0010
0000
,
2000
0000
3010
0000
1000
0001
1000
0000
,
0002
0000
0013
0000
0001
1000
0001
0000
,
0200
0000
0310
0000
0100
0010
0100
0000
,
0010
1001
0000
0000
;

//---------------dance-single - ----------------
#NOTES:
     dance-single:
     :
     Challenge:
     9:
     0.574080,0.587177,0.600396,0.095517,0.423006,487.000000,88.000000,14.000000,0.000000,0.000000,0.000000,0.574080,0.587177,0.600396,0.095517,0.423006,487.000000,88.000000,14.000000,0.000000,0.000000,0.000000:
0000
0000
0000
0000
,
0000
0000
0000
0000
,
1000
0000
0001
0000
1000
0100
0000
0000
0010
0001
0000
0000
1000
0010
0000
0000
,
0102
0000
0000
0000
1003
0100
0000
1000
0000
0001
0000
0100
0010
0000
1000
0000
,
0001
0000
1000
0000
0001
0010
0000
0000
0100
1000
0000
0000
0001
0100
0000
0000
,
2010
0000
0000
0000
3001
0010
0000
0001
0000
0000
1000
0010
0000
1000
0001
0000
,
0100
0000
0010
0000
0110
0000
0000
0000
0010
1000
0100
0000
1100
0000
0000
0000
,
1000
0000
0001
0000
1001
0000
0000
0000
0001
0100
0010
0000
0110
0000
0000
0000
,
0100
0000
0001
0000
0101
0000
0001
0000
1000
0100
0010
0000
0001
0000
1000
0000
,
0010
0000
0000
1000
0100
0000
1000
0000
0001
0000
0101
0000
1000
0000
0000
0000
,
0001
0000
1000
0000
1001
0000
0000
0000
0010
0100
0000
0000
0001
0010
0000
0000
,
2100
0000
0000
0000
3001
1000
0000
0010
0000
1000
0100
0010
0001
0000
1000
0000
,
1001
0000
0000
0000
1000
0001
0000
0000
0100
0010
0000
0000
1000
0100
0000
0000
,
0012
0000
0000
0000
1003
0001
0000
0100
0000
0010
0000
1000
0000
0001
0100
0000
,
0010
0000
0100
0000
0110
0000
0000
0000
0100
0001
0010
0000
0011
0000
0000
0000
,
0001
0000
1000
0000
1001
0000
0000
0000
1000
0010
0100
0000
0110
0000
0000
0000
,
0010
0000
1000
0000
1010
0000
1000
0000
0001
0010
0100
0000
1000
0000
0001
0000
,
0100
0010
0100
0010
0100
0000
0010
0000
1000
0000
0100
0010
0100
0000
0010
0000
,
1001
0000
1000
0100
0010
0001
0010
0100
2000
0000
0001
3000
0100
0000
0010
0000
,
0110
0000
0100
0010
1000
0100
0010
0000
0011
0000
0110
0000
1100
0000
0000
0000
,
1001
0000
0001
0010
0100
1000
0100
0010
0002
0000
1000
0003
0010
0000
0100
0000
,
0110
0000
0010
0100
0001
0010
0100
0000
1100
0000
0110
0000
0011
0000
0000
0000
,
1000
0000
0100
1000
0100
0000
1000
0000
1100
0000
0110
0000
0011
0000
1001
0000
,
0001
0000
0100
0001
0100
0000
0001
0000
0101
0000
0110
0000
1010
0000
0000
0000
,
1001
0000
1000
0100
1000
0000
0001
0000
0100
0010
0100
0000
0100
0000
0001
0000
,
1000
0100
1100
0001
0101
1000
1010
0011
,
1001
0000
0001
0010
0100
1000
0100
0010
0002
0000
1000
0003
0010
0000
0100
0000
,
0110
0000
0010
0100
0001
0010
0100
0000
1100
0000
0110
0000
0011
0000
0000
0000
,
1001
0000
1000
0100
0010
0001
0010
0100
2000
0000
0001
3000
0100
0000
0010
0000
,
0110
0000
0100
0010
1000
0100
0010
0000
0011
0000
0110
0000
1100
0000
0000
0000
,
0001
0000
0010
0001
0010
0000
0001
0000
0011
0000
0110
0000
1100
0000
1001
0000
,
1000
0000
0010
1000
0010
0000
1000
0000
1010
0000
0110
0000
0101
0000
0000
0000
,
1001
0000
0001
0010
0001
0000
1000
0000
0010
0100
0010
0000
0010
0000
1000
0000
,
0001
0000
0010
0001
1000
0000
0000
0000
0000
0000
0000
0000
0000
0000
0000
0000
,
0101
0000
2000
0000
0000
0000
0000
0000
3100
0010
0000
0000
0002
0000
0000
0000
,
2003
0000
0000
0000
3010
0100
0000
0000
0001
0000
1000
0000
0100
0000
0000
0000
,
1010
0000
0002
0000
0000
0000
0000
0000
0013
0100
0000
0000
1000
0010
0000
0000
,
0100
0001
0000
0000
1000
0100
0000
0000
0010
0000
0001
0000
1000
0000
0000
0000
,
0001
0000
0100
0010
0100
0000
0001
0000
0000
0000
0000
0000
1001
0000
0000
0000
,
1000
0000
0100
0010
0100
0000
1000
0000
0000
0000
0000
0000
1001
0000
0000
0000
,
0010
0000
2000
0000
0000
0000
0000
0000
3001
0100
0000
0000
0010
1000
0000
0000
,
0100
0100
0000
0000
0010
0010
0000
0000
0001
0000
1000
0000
0001
0000
0000
0000
,
1100
0000
0100
1000
0100
1000
0010
0100
0001
1000
0001
0000
1001
0000
0000
0000
,
0101
0000
0100
0001
0100
0001
1000
0000
1001
0000
1100
0000
0110
0000
1001
0000
,
0011
0000
0010
0001
0010
0001
0100
0010
1000
0001
1000
0000
1001
0000
0000
0000
,
1010
0000
0010
1000
0010
1000
0001
0000
1001
0000
0011
0000
0110
0000
1001
0000
,
1000
0000
0100
0010
0001
0000
1000
0000
0010
0100
0010
0000
1000
0001
1000
0000
,
0100
0000
0010
0001
1000
0000
0001
0000
0101
0000
0110
0000
1010
0000
0000
0000
,
0001
0000
0010
0100
1000
0000
0001
0000
0100
0010
0100
0000
0001
1000
0001
0000
,
0010
0000
0100
1000
0001
0000
0100
0001
1000
0000
0100
0000
0110
0000
1001
0000
,
0101
0000
0010
0100
0010
1000
0100
0010
0001
1000
0001
0000
0100
0000
0010
0000
,
0100
0000
0001
0100
0010
1000
0100
0000
1100
0000
0110
0000
0011
0000
1000
0000
,
1010
0000
0100
0010
0100
0001
0010
0100
1000
0001
1000
0000
0010
0000
0100
0000
,
0010
0000
1000
0010
0100
0001
0010
0000
0001
0100
0010
1000
0100
0010
0001
0000
,
0100
0000
0010
1000
0010
0000
0100
0000
0001
1000
0100
0000
1000
0001
0100
0000
,
0001
0000
0010
0100
0010
0000
0001
0000
0011
0000
0110
0000
1100
0000
0000
0000
,
0001
0000
1000
0100
0010
0000
0001
0000
1000
0001
0100
0000
0010
1000
0001
0000
,
1000
0100
0010
0001
2000
0000
3010
0000
0000
0000
0000
0000
0000
0000
0000
0000
;

//---------------dance-single - ----------------
#NOTES:
     dance-single:
     :
     Medium:
     4:
     0.211503,0.253889,0.020468,0.122808,0.000000,196.000000,3.000000,18.000000,0.000000,0.000000,0.000000,0.211503,0.253889,0.020468,0.122808,0.000000,196.000000,3.000000,18.000000,0.000000,0.000000,0.000000:
0000
0000
0000
0000
,
0000
0000
0000
0000
,
0000
1000
0001
0100
,
0100
0000
0010
0010
,
1000
0001
0010
0100
,
0100
0000
1000
1000
,
0010
0100
0001
0000
,
0010
0100
1000
0000
,
0010
1000
0001
0000
,
0100
0001
1000
0000
,
0000
0100
0100
0010
,
0010
0000
0001
1000
,
0001
0100
0100
0010
,
0010
0000
1000
0001
,
1000
0000
0100
0000
,
0010
0001
1000
1000
,
0010
0000
0100
0000
,
2002
0000
0000
3003
,
0010
0000
1000
0000
0100
0100
0000
0000
,
0010
0000
0001
0000
1000
1000
1000
0000
,
0010
0000
0100
0000
0001
0001
0000
0000
,
0010
0000
0001
0000
1000
1000
1000
0000
,
0100
1000
0020
0030
,
0100
0001
2000
3000
,
0100
0010
0002
0003
,
0100
0000
0010
0000
0010
0000
0010
0010
,
1000
0000
0001
0000
0010
0010
0000
0000
,
0001
0000
1000
0000
0100
0100
0100
0000
,
1000
0000
0001
0000
0100
0100
0000
0000
,
0010
0000
0100
0000
0001
0001
0001
0000
,
0010
0100
2000
3000
,
0010
1000
0002
0003
,
0100
0001
0010
0100
,
1000
1000
0001
0000
0000
0000
0000
0000
,
0200
0010
0000
0010
,
0000
0010
0000
0310
,
0020
0100
0000
0100
,
0000
0100
0000
0130
,
0001
0100
0010
0000
,
1000
0100
0010
0000
,
2002
0000
0000
3003
,
0010
0000
0010
0000
,
1001
0000
1000
0000
0100
0100
0000
0000
,
1000
0000
0001
0000
0100
0100
0100
0000
,
0010
0000
0100
0000
0001
0001
0000
0000
,
0010
0000
0001
0000
1000
1000
1000
0000
,
0100
1000
0020
0130
,
0100
0001
0020
0130
,
0100
0000
1000
0000
,
0001
0000
0100
0000
0100
0000
0100
0100
,
0010
0000
1000
0000
0100
0100
0010
0000
,
0001
0000
1000
0000
0010
0010
0010
0000
,
0100
0000
0001
0000
1000
1000
0100
0000
,
0010
0000
0001
0000
1000
1000
1000
0000
,
0002
0203
0310
0000
,
2000
3002
1003
0000
,
2000
0000
3100
0000
0010
0001
1000
0000
,
0010
0010
0010
0000
0000
0000
0000
0000
;

//---------------dance-single - ----------------
#NOTES:
     dance-single:
     :
     Easy:
     2:
     0.131580,0.195299,0.020468,0.013645,0.000000,130.000000,3.000000,2.000000,0.000000,0.000000,0.000000,0.131580,0.195299,0.020468,0.013645,0.000000,130.000000,3.000000,2.000000,0.000000,0.000000,0.000000:
0000
0000
0000
0000
,
0000
0000
0000
0000
,
0000
1000
0000
0001
,
0000
0100
0100
0000
,
0000
0010
0000
1000
,
0000
0001
0001
0000
,
1000
0100
1000
0000
,
0001
0100
0001
0000
,
1000
0010
1000
0000
,
0001
0010
0001
0000
,
0000
0100
0000
0001
,
0000
1000
1000
0000
,
0000
0100
0000
0010
,
0000
0001
0001
0000
,
1000
0100
1000
0000
,
0001
0100
0001
0000
,
1000
0010
1000
0000
,
2002
0000
0000
3003
,
0010
0000
1000
0000
,
0001
0000
0010
0010
,
0100
0000
1000
0000
,
0001
0000
0100
0100
,
0010
0000
1000
0000
,
0001
0001
0001
0000
,
0010
0000
0100
0000
,
1000
1000
1000
0000
,
1001
0000
0100
0000
,
0001
0001
0001
0000
,
0010
0000
0100
0000
,
1000
1000
1000
0000
,
0010
0100
0010
0000
,
1000
0000
0001
0000
,
0010
0100
0010
0000
,
0001
0001
0000
0000
,
0000
0100
0000
0100
,
0000
0100
0000
0100
,
0000
0010
0000
0010
,
0000
0010
0000
0010
,
1000
1000
0000
0000
,
0001
0001
0000
0000
,
0100
0000
0000
0000
,
0000
0000
0000
0000
,
1001
0000
0010
0000
,
1000
0000
0001
0001
,
0010
0000
0001
0000
,
1000
0000
0100
0100
,
0010
0000
0001
0000
,
0100
0000
0010
0010
,
1000
0000
0100
0000
,
0000
1000
0001
1000
,
0010
0000
0100
0000
,
0001
0000
1000
1000
,
0100
0000
1000
0000
,
0001
0000
0100
0100
,
0010
0000
1000
0000
,
0100
0100
0100
0000
,
0010
0000
0010
0000
,
0001
1000
0000
0000
;

//---------------dance-single - ----------------
#NOTES:
     dance-single:
     :
     Beginner:
     1:
     0.087720,0.117179,0.013645,0.000000,0.000000,88.000000,2.000000,0.000000,0.000000,0.000000,0.000000,0.087720,0.117179,0.013645,0.000000,0.000000,88.000000,2.000000,0.000000,0.000000,0.000000,0.000000:
0000
0000
0000
0000
,
0000
0000
0000
0000
,
0000
1000
0000
1000
,
0000
0001
0000
0001
,
0000
0100
0000
0100
,
0000
0010
0000
0010
,
0010
0000
0000
0000
,
1000
0000
0000
0000
,
0001
0000
0000
0000
,
0100
0000
0000
0000
,
0000
0001
0000
0001
,
0000
0010
0000
0010
,
0000
0100
0000
0100
,
0000
1000
0000
1000
,
1000
0000
0000
0000
,
0010
0000
0000
0000
,
0100
0000
0000
0000
,
0001
0000
0000
0000
,
1001
0000
0100
0000
,
1000
0000
0000
0000
,
0010
0000
1000
0000
,
0001
0000
0000
0000
,
0010
0000
0001
0000
,
0100
0000
0000
0000
,
0010
0000
0010
0000
,
0000
1000
1000
1000
,
1000
0000
0100
0000
,
0010
0000
0000
0000
,
0001
0000
1000
0000
,
0010
0000
0000
0000
,
0100
0000
0100
0000
,
0001
0000
0001
0000
,
1000
0000
0010
0000
,
0100
0100
0000
0000
,
0000
0001
0000
0000
,
0000
0001
0000
0000
,
0000
1000
0000
0000
,
0000
1000
0000
0000
,
0000
0010
0000
0010
,
0000
0010
0000
0010
,
0000
0000
0000
0000
,
0000
0000
0000
0000
,
1001
0000
0100
0000
,
0010
0000
0001
0000
,
1000
0000
0001
0000
,
0100
0000
0010
0000
,
1000
0000
0000
0000
,
0001
0000
0000
0000
,
0100
0000
0100
0000
,
0000
0010
0010
0010
,
0010
0000
1000
0000
,
0001
0000
1000
0000
,
0100
0000
0010
0000
,
0001
0000
1000
0000
,
0010
0000
0000
0000
,
0100
0000
0000
0000
,
0001
0000
0000
0000
,
1000
1000
0000
0000
;

//---------------dance-double - ----------------
#NOTES:
     dance-double:
     :
     Challenge:
     8:
     0.513650,0.566368,0.573105,0.109163,0.279730,427.000000,84.000000,16.000000,0.000000,0.000000,0.000000,0.513650,0.566368,0.573105,0.109163,0.279730,427.000000,84.000000,16.000000,0.000000,0.000000,0.000000:
// measure 0
00000000
00000000
00000000
00000000
,  // measure 1
00000000
00000000
00000000
00000000
,  // measure 2
00000000
00000000
00000000
00000000
10000000
01000000
00000000
00000000
00100000
00010000
00000000
00000000
10000000
00100000
00000000
00000000
,  // measure 3
01010000
00000000
10000000
00100000
00010000
00001000
00000010
00000001
,  // measure 4
00001000
00000000
00000000
00000000
00000001
00000010
00000000
00000000
00000100
00001000
00000000
00000000
00000001
00000100
00000000
00000000
,  // measure 5
00001010
00000000
00000001
00000100
00001000
00010000
01000000
10000000
,  // measure 6
00010000
00000000
00110000
00000000
10010000
00000000
00000000
00000000
10000000
00100000
10000000
00000000
00010000
00000000
00000000
00000000
,  // measure 7
10000000
00000000
11000000
00000000
10010000
00000000
00000000
00000000
00010000
01000000
00010000
00000000
10000000
00000000
00000000
00000000
,  // measure 8
10000000
01000000
00100000
00001000
00010000
00100000
00010000
00001000
,  // measure 9
00010000
00001000
00000010
00000001
00000100
00000010
00001000
00000000
,  // measure 10
00000101
00000000
00000000
00000000
00001010
00000000
00000000
00000000
00000001
00000010
00000000
00000000
00000100
00001000
00000000
00000000
,  // measure 11
00000101
00000000
00000000
00000000
00000001
00000000
00000100
00000000
00001000
00000000
00010000
00000000
01000000
10000000
01000000
00000000
,  // measure 12
00100000
00000000
00000000
00000000
00010000
00100000
00000000
00000000
10000000
00100000
00000000
00000000
00010000
01000000
00000000
00000000
,  // measure 13
10010000
00000000
00000000
00000000
10000000
00000000
01000000
00000000
00010000
00000000
00001000
00000000
00000100
00000001
00000100
00000000
,  // measure 14
00000001
00000000
00000101
00000000
00001001
00000000
00000000
00000000
00001000
00000010
00001000
00000000
00001010
00000000
00000000
00000000
,  // measure 15
00000001
00000000
00000011
00000000
00001001
00000000
00000000
00000000
00001000
00000010
00001000
00000000
00000001
00000000
00000000
00000000
,  // measure 16
00000001
00000010
00000100
00010000
00001000
00000100
00001000
00010000
,  // measure 17
00100000
10000000
00100000
10000000
00010000
00000000
10000000
00000000
10010000
00000000
10000000
01000000
00100000
00000000
00010000
00000000
,  // measure 18
11000000
00000000
10000000
01000000
10000000
01000000
10000000
01000000
00200000
00000000
00310000
00000000
10000000
00000000
00000000
00000000
,  // measure 19
00010000
00000000
10000000
00100000
10000000
00100000
01000000
00000000
01010000
00000000
01100000
00000000
10100000
00000000
00010000
00000000
,  // measure 20
00110000
00000000
00100000
00010000
00100000
00010000
00100000
00010000
00200000
00000000
00301000
00000000
00010000
00000000
00020200
00000000
,  // measure 21
00030300
00000000
00001000
00000100
00000010
00000000
00000001
00000000
00000011
00000000
00000110
00000000
00001001
00000000
00000000
00000000
,  // measure 22
00000001
00000000
00000100
00000010
00001000
00000000
00000001
00000000
00000010
00000000
00000010
00000000
00000100
00000000
00000100
00000000
,  // measure 23
00001000
00000000
00000010
00000100
00000001
00000000
00001000
00000000
00001010
00000000
00010000
00000000
00011000
00000000
00000000
00000000
,  // measure 24
00101000
00000000
00000000
00010000
00001000
00000000
00101000
00000000
00000000
00000000
00011000
00000000
00010010
00000000
00001000
00000000
,  // measure 25
00101000
00000000
00100000
00010000
10000000
00000000
00010000
01000000
00100000
00000000
00010000
00001000
00000010
00000000
00000001
00000000
,  // measure 26
00000011
00000000
00000001
00000010
00000001
00000010
00000001
00000010
00000200
00000000
00001300
00000000
00000001
00000000
00000000
00000000
,  // measure 27
00001000
00000000
00000001
00000100
00000001
00000100
00000010
00000000
00001010
00000000
00000110
00000000
00000101
00000000
00001000
00000000
,  // measure 28
00001100
00000000
00000100
00001000
00000100
00001000
00000100
00001000
00000200
00000000
00010300
00000000
00001000
00000000
00202000
00000000
,  // measure 29
00303000
00000000
00010000
00100000
01000000
00000000
10000000
00000000
11000000
00000000
01100000
00000000
10010000
00000000
00000000
00000000
,  // measure 30
10000000
00000000
00100000
01000000
00010000
00000000
10000000
00000000
01000000
00000000
01000000
00000000
00100000
00000000
00100000
00000000
,  // measure 31
00010000
00000000
01000000
00100000
10000000
00000000
00010000
00000000
01010000
00000000
00001000
00000000
00011000
00000000
00000000
00000000
,  // measure 32
00010100
00000000
00000000
00001000
00010000
00000000
00010100
00000000
00000000
00000000
00011000
00000000
01001000
00000000
00010000
00000000
,  // measure 33
00010100
00000100
00001000
00000100
00011000
00000000
00100000
00000000
00000000
00000000
00000000
00000000
00000000
00000000
00000000
00000000
,  // measure 34
00020000
00100000
00000000
00100000
,  // measure 35
00000000
00100000
00000000
00130000
,  // measure 36
20000000
01000000
00000000
01000000
,  // measure 37
00000000
01000000
00000000
31000000
,  // measure 38
00010000
00000000
00000000
00010000
00100000
00000000
00001000
00000000
00000000
00000000
00000000
00000000
00011000
00000000
00000000
00000000
,  // measure 39
00000010
00000000
00000000
00000010
00010000
00000000
00001000
00000000
00000000
00000000
00000000
00000000
00010010
00000000
00000000
00000000
,  // measure 40
00022000
00000000
00000000
00033000
,  // measure 41
00100000
00100000
00000000
00000000
00000010
00000010
00000000
00000000
00010000
00000000
00001000
00000000
00011000
00000000
00000000
00000000
,  // measure 42
00110000
00000000
00010000
00100000
01000000
10000000
00100000
01000000
00020000
00000000
10030000
00000000
10010000
00000000
00000000
00000000
,  // measure 43
10000000
00000000
00100000
10000000
01000000
00100000
00010000
00000000
00110000
00000000
00011000
00000000
00001100
00000000
00000000
00000000
,  // measure 44
00001001
00000000
00001000
00000100
00000010
00000001
00000100
00000010
00002000
00000000
00003001
00000000
00001001
00000000
00000000
00000000
,  // measure 45
00000001
00000000
00000100
00000001
00000010
00000100
00001000
00000000
00001100
00000000
00011000
00000000
00110000
00000000
00000000
00000000
,  // measure 46
00100000
00000000
00010000
10000000
00010000
00000000
01000000
00000000
00100000
00000000
10000000
00000000
01000000
00000000
00100000
00000000
,  // measure 47
00010000
00000000
10000000
01000000
10000000
00000000
00010000
00000000
00100000
00000000
00001000
00000000
00011000
00000000
00000000
00000000
,  // measure 48
00101000
00000000
00001000
00010000
00001000
00000000
00010010
00000000
00001000
00000000
00011000
00000000
00100010
00000000
00011000
00000000
,  // measure 49
00000100
00000000
00001000
00000100
00000010
00000000
00000001
00000100
00000010
00000000
00001000
00000001
00001000
00000000
00000001
00000000
,  // measure 50
00001100
00000000
00001000
00000100
00000010
00000001
00000100
00000010
00002000
00000000
00003001
00000000
00001001
00000000
00000000
00000000
,  // measure 51
00000001
00000000
00000100
00000001
00000010
00000100
00001000
00000000
00001100
00000000
00011000
00000000
00110000
00000000
00000000
00000000
,  // measure 52
10010000
00000000
00010000
00100000
01000000
10000000
00100000
01000000
00020000
00000000
10030000
00000000
10010000
00000000
00000000
00000000
,  // measure 53
10000000
00000000
00100000
10000000
01000000
00100000
00010000
00000000
00110000
00000000
00011000
00000000
00001100
00000000
00000000
00000000
,  // measure 54
00000100
00000000
00001000
00000001
00001000
00000000
00000010
00000000
00000100
00000000
00000001
00000000
00000010
00000000
00000100
00000000
,  // measure 55
00001000
00000000
00000001
00000010
00000001
00000000
00001000
00000000
00000100
00000000
00010000
00000000
00011000
00000000
00000000
00000000
,  // measure 56
00101000
00000000
00000000
00001000
00010000
00000000
00010100
00000000
00000000
00000000
00001000
00000000
00011000
00000000
00010000
00000000
,  // measure 57
00000010
00100000
01000100
00000000
00000000
00000000
00000000
00000000
;
