#TITLE:Bad Blood;
#SUBTITLE:;
#ARTIST:Taylor Swift ft. Kendrick Lamar;
#TITLETRANSLIT:;
#SUBTITLETRANSLIT:;
#ARTISTTRANSLIT:;
#GENRE:Always Relevant;
#CREDIT:;
#BANNER:Bad Blood.png;
#BACKGROUND:Bad Blood-bg.png;
#LYRICSPATH:;
#CDTITLE:;
#MUSIC:Bad Blood.ogg;
#OFFSET:-0.520000;
#SAMPLESTART:93.673958;
#SAMPLELENGTH:13.714000;
#SELECTABLE:YES;
#BPMS:0.000000=85.000000
;
#STOPS:
;
#BGCHANGES:4.000=Bad Blood.avi=1.000=0=0=1=====,
99999=-nosongbg-=1.000=0=0=0 // don't automatically add -songbackground-
;
#KEYSOUNDS:;
#ATTACKS:;

//---------------dance-single - ----------------
#NOTES:
     dance-single:
     :
     Hard:
     8:
     0.470950,0.571496,0.248670,0.234460,0.348137,396.000000,35.000000,33.000000,0.000000,0.000000,0.000000,0.470950,0.571496,0.248670,0.234460,0.348137,396.000000,35.000000,33.000000,0.000000,0.000000,0.000000:
0000
0000
0000
0000
,
0000
0000
0000
0000
0000
0000
0000
0010
,
0000
0000
0000
0010
0000
0000
0000
0000
,
0000
0000
0000
0100
0000
0000
0000
1001
,
0101
0000
1000
0000
0001
0000
1000
0100
1000
0000
0001
0100
0001
0000
0000
0000
,
1000
0000
0001
0000
0010
0100
0010
0000
0001
0000
1000
0100
0010
0000
0000
0000
,
0001
0000
1000
0000
0010
0100
0010
0000
1000
0000
0001
0010
0100
0000
0000
0000
,
1000
0000
0001
0000
1000
0100
0010
0000
0001
0000
1000
0010
1000
0000
0000
0000
,
0001
0001
0101
0100
0010
0010
0110
0010
,
1000
0000
1000
0000
1010
0000
1000
0000
0001
0000
0010
0100
1000
0000
0000
0000
,
0001
0000
1000
0000
0010
0000
1000
0000
0001
0100
0001
0100
0010
1000
0010
0000
,
0100
0000
0001
0000
1000
0100
0010
0000
0001
0000
1000
0000
0010
0000
1001
0000
,
0100
0000
0020
0000
0000
0000
0000
0000
1030
0000
0001
0100
0000
0100
0010
0000
,
1000
0000
0200
0000
0310
0000
0000
0000
0010
0000
0001
1000
0000
1000
0010
0000
,
0100
0002
1003
0000
0100
1000
0010
0100
,
0001
1000
0001
1000
0001
1000
0001
1000
0010
0100
0001
1000
0000
0000
0000
0000
,
0010
1000
0100
0000
0020
0000
0000
0000
0001
0000
0000
0000
0130
0000
0000
0000
,
0010
0001
0200
0000
0010
0000
0000
0000
1000
0000
0000
0000
0301
0000
0000
0000
,
0100
0001
2000
0000
0100
0000
0000
0000
0010
0000
0000
0000
3001
0000
0000
0000
,
1000
0100
0020
0000
0001
0000
0000
0000
0130
0000
0000
0000
1001
0000
0000
0000
,
0100
0001
1000
0000
1010
0000
0001
0000
0101
0000
1000
0000
0001
0010
0100
1000
,
0001
0100
0010
0000
1010
0000
0100
0000
0101
0000
1000
0000
0001
1000
0100
0010
,
0001
1000
0010
0000
1010
0000
0001
0000
0101
0000
1000
0000
0001
0010
0100
0010
,
0001
1000
0010
0000
1010
0000
0001
0000
0101
0000
0100
0000
1001
0000
0000
0000
,
0020
0000
0230
0000
,
0302
0000
2003
0000
,
3200
0000
0320
0000
,
0031
1000
0001
0100
0100
0010
0000
1001
,
0100
0000
0000
1000
0100
0000
1000
0000
0000
0000
0100
0000
1100
0000
0000
0000
,
0001
0000
0000
0100
0001
0000
0100
0000
0000
0000
0001
0000
0101
0000
0000
0000
,
0010
0000
0000
0100
0010
0000
0100
0000
0000
0000
0010
0000
0110
0000
0000
0000
,
1000
0000
0000
0001
1000
0000
0001
0000
0000
0000
1000
0000
1001
0000
0000
0000
,
0100
0100
0100
0000
2200
0000
3300
0000
,
0010
1000
0100
0000
0020
0000
0031
0000
2000
0000
3010
0000
0100
0001
1000
0100
,
0010
0001
1000
0000
0020
0000
0130
0000
0002
0000
1003
0000
0100
1000
0010
0100
,
0001
1000
0100
0000
0020
0000
0031
0000
2000
0000
3010
0000
0100
0001
0100
0010
,
1000
0100
0010
0000
0002
0000
1003
0000
0020
0000
0130
0000
1001
0000
0000
0000
,
0010
1000
0100
0000
2100
0000
3001
0000
0102
0000
1003
0000
0010
1000
0100
0010
,
0001
1000
0010
0000
2010
0000
3001
0000
0012
0000
1003
0000
0100
1000
0010
0100
,
0001
1000
0010
0000
2001
0000
3010
0000
1002
0000
0103
0000
0001
0100
0001
0010
,
0100
1000
0001
0000
2100
0000
3001
0000
0102
0000
1003
0000
0001
0100
0010
0000
,
1000
0100
0010
0000
0001
1000
0010
0000
0100
0001
1000
0000
0100
0010
0001
0000
,
1000
0010
0100
0000
0001
1000
0010
0000
0100
0001
1000
0000
0100
0010
0001
0000
,
1000
0100
1000
0000
0001
0100
0001
0000
1000
0100
0020
0000
0032
0000
1003
0000
,
0010
1000
0100
0000
1100
0000
0010
0000
0101
0000
1000
0000
1001
0000
0000
0000
,
0010
1000
0100
0010
0001
1000
0010
0100
0001
0010
0100
0010
0001
1000
0010
0000
,
1000
0001
1000
0100
0010
0001
1000
0010
0100
0010
1000
0100
0010
0001
1000
0000
,
0001
0100
1000
0100
0001
0010
0100
0010
0001
1000
0010
0100
0001
0010
0100
1000
,
0010
0000
0000
0000
0100
0000
0001
1000
0000
1000
0100
0000
0011
0000
0000
0000
;

//---------------dance-single - ----------------
#NOTES:
     dance-single:
     :
     Medium:
     5:
     0.284194,0.311725,0.127887,0.177621,0.000000,237.000000,18.000000,25.000000,0.000000,0.000000,0.000000,0.284194,0.311725,0.127887,0.177621,0.000000,237.000000,18.000000,25.000000,0.000000,0.000000,0.000000:
0000
0000
0000
0000
,
0000
0000
0000
0000
0000
0000
0000
0001
,
0000
0000
0000
1000
0000
0000
0000
0000
,
0000
0000
0000
1001
0000
0000
0000
0110
,
0000
0001
0000
1000
0000
0010
1000
0000
,
0000
0001
1000
0100
0010
0001
1000
0000
,
0000
0010
0100
0010
1000
0001
0010
0000
,
0000
0001
1000
0100
0010
0001
1000
0000
,
0020
0130
0200
0301
,
0002
0000
1003
0000
1000
0100
0010
0000
,
0002
0000
1003
0000
1000
0010
0100
0100
,
0010
1000
0001
0010
0100
0100
1000
0001
,
0200
0010
0010
0310
,
0200
0001
0001
0301
,
0200
1000
1000
1300
,
0100
0100
0100
0100
0010
1000
0001
0000
,
1000
0100
0020
0000
0031
0000
1000
0000
,
0010
0100
0002
0000
1003
0000
0100
0000
,
0010
0100
2000
0000
3010
0000
0100
0000
,
0001
1000
0020
0000
0130
0000
1001
0000
,
0100
0001
0020
0000
0130
0000
1000
0010
,
0100
0001
2000
0000
3100
0000
0010
0001
,
1000
0010
0200
0000
0301
0000
1000
0100
,
0010
0001
2000
0000
3010
0000
1001
0000
,
0200
0000
0302
0000
,
2003
0000
3200
0000
,
0320
0000
0032
0000
,
1003
0000
0010
0000
0100
0100
0000
0010
,
0010
1000
0001
1001
,
0100
0010
0001
0101
,
0010
1000
0100
1100
,
0010
0001
1000
0010
,
0100
0100
0100
0000
2002
0000
3003
0000
,
0010
1000
0100
0010
0001
0000
1000
0000
,
0010
0100
0010
1000
0001
0000
0010
0000
,
0001
0010
0100
1000
0010
0000
0100
0000
,
0010
1000
0200
0000
0310
0000
0110
0000
,
0010
0001
1000
0010
0100
0000
0001
0000
,
1000
0100
1000
0001
0100
0000
0010
0000
,
1000
0010
0100
0001
1000
0000
0100
0000
,
0010
0001
0200
0000
0310
0000
0110
0000
,
0001
0100
0010
1000
0100
0010
0001
0000
,
1000
0100
1000
0001
0100
0010
1000
0000
,
0010
0100
0010
1000
0100
0010
0001
0000
,
1000
0010
1000
0001
0100
0000
1001
0000
,
0100
0010
0110
0000
1010
0000
0001
1000
,
0010
0100
0101
0000
1001
0000
0100
1000
,
0001
0010
0110
0000
0011
0000
1000
0001
,
0100
0010
1000
0011
;

//---------------dance-single - ----------------
#NOTES:
     dance-single:
     :
     Easy:
     3:
     0.167471,0.242453,0.156307,0.071048,0.000000,133.000000,22.000000,10.000000,0.000000,0.000000,0.000000,0.167471,0.242453,0.156307,0.071048,0.000000,133.000000,22.000000,10.000000,0.000000,0.000000,0.000000:
0000
0000
0000
0000
,
0000
0000
0000
0000
,
0001
0000
1000
0000
,
0100
0000
0100
0000
,
1001
0000
0100
0100
,
0000
0010
1000
0001
,
0000
0010
0001
1000
,
0000
0100
1000
0001
,
0100
0000
0010
0000
,
1000
1000
0001
0001
,
0010
0000
0001
0000
,
1000
0000
0010
0010
,
0100
0000
0001
0001
,
1000
0000
0100
0100
,
0010
0000
0001
0001
,
1000
0010
0100
0000
,
0000
0110
1001
0000
,
0000
0110
1001
0000
,
0000
0110
1001
0000
,
0000
0110
1001
0000
,
0100
0010
0001
0000
,
0100
0010
1000
0000
,
0001
1000
0001
0000
,
1000
0001
1000
0000
,
0200
0300
0020
0030
,
0002
0003
2000
3000
,
0020
0030
0200
0300
,
2002
0000
0000
3003
,
0010
0010
0010
0000
,
1000
1000
1000
0000
,
0001
0001
0001
0000
,
0100
0100
0100
0000
,
0010
0000
2002
3003
,
0100
0110
1001
0000
,
0100
0110
1001
0000
,
0100
0110
1001
0000
,
0100
0110
1001
0000
,
0001
0010
0100
0000
,
1000
0010
0100
0000
,
0001
0010
0100
0000
,
1000
0010
0100
0000
,
0001
0100
0010
0010
,
1000
0100
0010
0010
,
0001
0100
0010
0010
,
1000
1001
1001
0000
,
0010
1000
0100
0100
,
0010
0001
0100
0100
,
0010
1000
0100
0100
,
0010
0000
0000
0011
;

//---------------dance-single - ----------------
#NOTES:
     dance-single:
     :
     Beginner:
     1:
     0.101498,0.121226,0.035524,0.000000,0.000000,95.000000,5.000000,0.000000,0.000000,0.000000,0.000000,0.101498,0.121226,0.035524,0.000000,0.000000,95.000000,5.000000,0.000000,0.000000,0.000000,0.000000:
0000
0000
0000
0000
,
0000
0000
0000
0000
,
0000
0000
0000
0000
,
0000
0000
0000
0000
,
1001
0000
0100
0000
,
1000
0000
0001
0000
,
0100
0000
0100
0000
,
0010
0000
1000
0000
,
0001
0001
0000
0000
,
1000
1000
0000
0000
,
0100
0100
0000
0000
,
0010
0000
0010
0000
,
1001
0000
1000
0000
,
0001
0000
0100
0000
,
0010
0000
1000
0000
,
0100
0100
0100
0000
,
0000
1000
1000
0000
,
0000
0001
0001
0000
,
0000
0100
0100
0000
,
0000
0010
0010
0000
,
0000
1000
1000
0000
,
0000
0100
0100
0000
,
0000
0010
0010
0000
,
0000
0001
0001
0000
,
1001
0000
0000
0000
,
0010
0000
0000
0000
,
1000
0000
0000
0000
,
0100
0000
0000
0000
,
0110
0000
0001
0000
,
1000
0000
0010
0000
,
0100
0000
0100
0000
,
0001
0000
1000
0000
,
0100
0000
0000
0000
,
1000
0000
0010
0000
,
0100
0100
0100
0000
,
0001
0000
1000
0000
,
0100
0100
0100
0000
,
0010
0010
0010
0000
,
0001
0001
0001
0000
,
1000
1000
1000
0000
,
0010
0010
0010
0000
,
0000
1000
1000
0000
,
0100
0100
0100
0000
,
0010
0010
0010
0000
,
0001
0001
0001
0000
,
0000
0010
0010
0000
,
0000
1000
1000
0000
,
0000
0100
0100
0000
,
0010
0000
0000
1001
;

//---------------dance-single - ----------------
#NOTES:
     dance-single:
     :
     Challenge:
     10:
     0.637406,0.813949,0.333928,0.134992,0.820610,562.000000,47.000000,19.000000,0.000000,0.000000,0.000000,0.637406,0.813949,0.333928,0.134992,0.820610,562.000000,47.000000,19.000000,0.000000,0.000000,0.000000:
// measure 0
0000
0000
0000
0000
,  // measure 1
0000
0000
0000
0000
0000
0000
0000
1100
,  // measure 2
0000
0000
0000
0101
0000
0000
0000
0000
,  // measure 3
0000
0000
0000
1001
0000
0000
0000
0110
,  // measure 4
1000
0000
0010
1000
0000
0001
0010
0001
0000
1000
0100
1000
0001
0000
1000
0000
,  // measure 5
0001
0010
0100
1000
0010
0100
0001
1000
0100
0010
0001
1000
0010
0000
0100
0000
,  // measure 6
0001
1000
0001
1000
0010
0100
0010
0100
0001
0010
0100
1000
0001
0000
0100
0000
,  // measure 7
0010
1000
0010
1000
0001
0100
0001
0100
0010
1000
0100
0010
0001
0000
1000
0000
,  // measure 8
0100
1000
0100
0000
1100
0000
1000
0000
0001
0100
0001
0000
0101
0000
0100
0000
,  // measure 9
0010
1000
0010
0000
1010
0000
1000
0000
0001
0010
0001
0000
0011
0000
0010
0000
,  // measure 10
0001
0010
0100
1000
0001
0000
1000
0000
0010
0010
0100
0100
0001
0001
1000
0000
,  // measure 11
0001
0010
0100
0000
1000
0010
0100
0000
0001
1000
0100
0010
0001
0000
1100
0000
,  // measure 12
0102
0000
1000
0000
0010
0000
1003
0000
0001
0010
0001
1000
0010
1000
0001
0000
,  // measure 13
2000
0000
0100
0000
0010
0000
3001
0000
1000
0100
1000
0001
0100
0001
1000
0000
,  // measure 14
0020
0000
0100
0000
1000
0000
0130
0000
0001
0100
0001
1000
0100
1000
0001
0000
,  // measure 15
1000
0000
0100
0000
0010
0000
0001
0000
0100
0000
0010
0000
1000
0000
0001
0000
0100
0010
0100
0010
0100
0010
0100
0010
0100
0000
0000
0000
0000
0000
0000
0000
,  // measure 16
0101
0100
0010
0000
2010
0000
3001
0000
0012
0000
1003
0000
1001
0000
0000
0000
,  // measure 17
1100
0100
0010
0000
0012
0000
1003
0000
2010
0000
3001
0000
1001
0000
0000
0000
,  // measure 18
0110
0010
1000
0000
0110
0010
0001
0000
1000
0001
1000
0000
1001
0000
0000
0000
,  // measure 19
1010
0010
0100
0000
0011
0010
0100
0000
1000
0001
1000
0000
1001
0000
0000
0000
,  // measure 20
0001
0100
0010
0000
2010
0000
3001
0000
0012
0000
1003
0000
0001
0010
0100
1000
,  // measure 21
0010
0100
0001
0000
0102
0000
1003
0000
2010
0000
3001
0000
1000
0100
0010
0001
,  // measure 22
1000
0010
0100
0000
0201
0000
0310
0000
2010
0000
3001
0000
1000
0100
0010
0001
,  // measure 23
1000
0010
0100
0000
0201
0000
0310
0000
0120
0000
1030
0000
1010
0000
0000
0000
,  // measure 24
0002
0100
0010
0103
,  // measure 25
2000
0100
0010
3100
,  // measure 26
0002
0013
2000
3010
,  // measure 27
1000
0000
0100
0000
0010
0000
0001
0000
1000
0001
1000
0001
0000
0000
0101
0000
,  // measure 28
1000
0000
0000
1000
0100
0000
1000
0000
0000
0100
1000
0000
1100
0000
1000
0100
,  // measure 29
0010
0000
0000
0100
0010
0000
0100
0000
0000
0010
0100
0000
0110
0000
0100
0010
,  // measure 30
0001
0000
0000
0010
0001
0000
0010
0000
0000
0010
0001
0000
0011
0000
0001
1000
,  // measure 31
0010
0000
0100
0000
0001
0000
1000
0000
0100
0000
0010
0000
0001
0000
1000
0100
,  // measure 32
1000
0001
1000
0010
1000
0000
0000
0000
1010
0000
0000
1001
0000
0000
0101
0000
,  // measure 33
1000
0100
0010
0000
0001
1000
0010
0010
1000
0100
0100
0000
1100
1000
0010
0100
,  // measure 34
0001
1000
0001
0000
1000
0001
0100
0100
0001
1000
1000
0000
0101
0100
0010
1000
,  // measure 35
0100
0010
0001
0000
1000
0100
1000
1000
0001
0100
0100
0000
1001
1000
0010
0100
,  // measure 36
0001
0010
0100
0000
1100
1000
0010
0100
0001
0010
0100
0000
1100
0000
0001
0000
,  // measure 37
1000
0010
0100
0000
0001
1000
0001
1000
0010
0100
0001
0000
1000
0100
1000
0100
,  // measure 38
0010
0001
1000
0000
0010
0100
0010
0100
0001
1000
0100
0000
1000
0001
1000
0001
,  // measure 39
0100
0010
1000
0000
0001
0100
0001
0100
0010
1000
0100
0000
1000
0001
1000
0001
,  // measure 40
0100
0000
0010
0000
1000
0000
0000
0000
0100
0000
0010
0000
0001
0000
0000
0000
1000
0000
0010
0000
0100
0000
0000
0000
0001
1000
0001
1000
0001
1000
0001
1000
,  // measure 41
0010
0000
0010
0000
0100
0000
0001
0000
1000
0100
1000
0100
0010
0001
0010
0001
0100
0000
0100
0000
0010
0000
1000
0000
0001
0000
1000
0000
0100
0000
0010
0000
,  // measure 42
0001
0000
0001
0000
0100
0000
0001
0000
1000
0010
1000
0010
0100
0001
0100
0001
1000
0000
1000
0000
0010
0000
0100
0000
0001
0000
0010
0000
0100
0000
1000
0000
,  // measure 43
0001
0000
0001
0000
1000
0000
0010
0000
0100
0001
0100
0001
1000
0010
1000
0010
0100
0000
0100
0000
0001
0000
1000
0000
0100
0000
0010
0000
0001
0000
1000
0000
,  // measure 44
0010
0000
0010
0000
0100
0000
0010
0000
1000
0001
1000
0001
0100
0010
0100
0010
1000
0000
1000
0000
0100
0000
0010
0000
0001
0000
1000
0000
0001
0000
0000
0000
,  // measure 45
1000
0100
1000
0000
0010
0000
0100
0000
0001
1000
0001
0000
1000
0000
0010
0000
0100
0001
0100
0000
0010
0000
1000
0000
0001
0100
0001
0100
0001
0100
0001
0100
,  // measure 46
0010
1000
0010
0000
0100
0000
0001
0000
1000
0100
1000
0000
0001
0000
0010
0000
0001
1000
0001
0000
0100
0000
0010
0000
1000
0100
1000
0100
1000
0100
1000
0100
,  // measure 47
0010
0001
0010
0000
0100
0000
1000
0000
0001
0100
0001
0000
1000
0000
0010
0000
0100
0010
0100
0000
0001
0000
1000
0000
0010
0100
0010
0100
0010
0100
0010
0100
,  // measure 48
0001
0000
0000
0000
0101
0000
0010
1000
0000
1000
0100
0000
1001
0000
0000
0000
;

//---------------dance-double - ----------------
#NOTES:
     dance-double:
     :
     Challenge:
     9:
     0.581582,0.744677,0.461815,0.170516,0.603912,484.000000,65.000000,24.000000,0.000000,0.000000,0.000000,0.581582,0.744677,0.461815,0.170516,0.603912,484.000000,65.000000,24.000000,0.000000,0.000000,0.000000:
00000000
00000000
00000000
00000000
,
00000000
00000000
00000000
00000000
00000000
00000000
00000000
11000000
,
00000000
00000000
00000000
01010000
00000000
00000000
00000000
00000000
,
00000000
00000000
00000000
01100000
00000000
00000000
00000000
10010000
,
01000000
00000000
00010000
00100000
00000000
01000000
10000000
00000000
00100000
00000000
01000000
00010000
01000000
00000000
00000000
00000000
,
00010000
00000000
00100000
00000000
00001000
00000000
00010000
00000000
00000100
00000000
00001000
00000010
00001000
00000000
00000000
00000000
,
00000001
00000000
00000100
00000010
00000100
00000000
00000001
00000010
00000000
00000100
00001000
00000000
00000001
00000000
00000000
00000000
,
00000100
00000000
00000010
00001000
00000010
00000000
00001000
00000100
00000010
00000001
00001000
00000000
00000001
00000000
00000000
00000000
,
00000100
00000001
00000100
00000000
00000101
00000000
00000000
00000000
00001000
00000100
00001000
00000000
00001100
00000000
00000000
00000000
,
00010000
00001000
00010000
00000000
00011000
00000000
00100000
00000000
00010000
00100000
00010000
00000000
00110000
00000000
00000000
00000000
,
00100000
00000000
00010000
10000000
00010000
00000000
00000000
00000000
01000000
00000000
01000000
00000000
00100000
00000000
00100000
00000000
,
10000000
00000000
01000000
00000000
00100000
00010000
00100000
00000000
00010000
10000000
00010000
00000000
10000000
00000000
10100000
00000000
,
00020000
00000000
01000000
00000000
01000000
00000000
01030000
00000000
00100000
00000000
00100000
10000000
00000000
10000000
01000000
00000000
,
21000000
00000000
00010000
00000000
00010000
00000000
30010000
00000000
01000000
00000000
01000000
00100000
00000000
00100000
10000000
00000000
,
10020000
00000000
01000000
00000000
01000000
00000000
01030000
00000000
00010000
00100000
00001000
00000000
00010000
00000100
00001000
00000000
,
00000010
00001000
00000010
00001000
00000001
00000010
00000001
00000010
00000100
00001000
00000010
00000100
00000001
00000000
00000000
00000000
,
00001000
00000100
00001000
00000000
00002100
00000000
00003001
00000000
00000102
00000000
00001003
00000000
00001001
00000000
00000000
00000000
,
00000001
00000010
00000001
00000000
00000012
00000000
00001003
00000000
00002010
00000000
00003001
00000000
00001001
00000000
00000000
00000000
,
00001000
00000100
00010000
00000000
00020100
00000000
00031000
00000000
00012000
00000000
01003000
00000000
01010000
00000000
00000000
00000000
,
00010000
00100000
01000000
00000000
10000000
00100000
01000000
00000000
00010000
00100000
01000000
00000000
10010000
00000000
00000000
00000000
,
00110000
00100000
00010000
00000000
00120000
00000000
10030000
00000000
20100000
00000000
30010000
00000000
10010000
10000000
00010000
00010000
,
10000000
01000000
10000000
00000000
21000000
00000000
30010000
00000000
01020000
00000000
10030000
00000000
10010000
00010000
10000000
10000000
,
00010000
00100000
00001000
00000000
00102000
00000000
00013000
00000000
00021000
00000000
00030010
00000000
00001010
00001000
00000010
00000010
,
00001000
00000100
00000010
00000000
00000001
00000100
00000010
00000000
00001000
00000100
00000010
00000000
00001001
00000000
00000000
00000000
,
00000002
00000000
00000103
00000000
,
00002000
00000000
00003100
00000000
,
00000002
00000000
00000013
00000000
,
00000001
00000000
00000100
00000000
00000010
00000000
00001000
00000000
00000100
00010000
00000100
00010000
00000000
00000000
00010100
00000000
,
00001000
00000000
00000000
00010000
00001000
00000000
00010000
00000000
00000000
00001000
00010000
00000000
00011000
00000000
00010000
00001000
,
00100000
00000000
00000000
00010000
00100000
00000000
00010000
00000000
00000000
00100000
00010000
00000000
00110000
00000000
00100000
00010000
,
10000000
00000000
00000000
00100000
10000000
00000000
00100000
00000000
00000000
10000000
00100000
00000000
10100000
00000000
10000000
01000000
,
00100000
00000000
00010000
00000000
01000000
00000000
00100000
00000000
10000000
00000000
00010000
00000000
10000000
00000000
00100000
01000000
,
00100000
00000000
10000000
00000000
00010000
00000000
00000000
00000000
10010000
00000000
00000000
00011000
00000000
00000000
00001001
00000000
,
00001100
00000100
00000010
00000000
00000001
00001000
00000010
00000100
00000001
00001000
00000010
00000000
00001010
00000000
00000001
00000000
,
00000101
00000100
00000010
00000000
00001010
00001000
00000100
00000010
00000001
00001000
00000010
00000000
00001001
00000000
00000010
00000000
,
00000011
00000010
00000100
00000000
00001100
00001000
00000100
00010000
00001000
00100000
00001000
00000000
00101000
00100000
00010000
00010000
,
01000000
00100000
10000000
00000000
01020000
00000000
00130000
00000000
21000000
00000000
30100000
00000000
10010000
00000000
00000000
00000000
,
00110000
00100000
01000000
00000000
10000000
00010000
01000000
00100000
10000000
00010000
01000000
00000000
01010000
00010000
10000000
00000000
,
10100000
00100000
01000000
00000000
01010000
00010000
00100000
01000000
10000000
00010000
01000000
00000000
10010000
10000000
01000000
00000000
,
11000000
01000000
00100000
00000000
00110000
00010000
00100000
00001000
00010000
00000100
00010000
00000000
00010100
00000100
00001000
00001000
,
00000010
00000000
00000100
00000000
00000001
00000000
00000000
00000000
00002010
00000000
00000000
00000000
00003100
00000000
00000000
00000000
00000012
00000000
00000000
00000000
00000103
00000000
00000000
00000000
00001000
00000001
00001000
00000001
00001000
00000001
00001000
00000001
,
00000100
00000000
00000010
00000000
00001000
00000000
00000100
00000000
00000010
00000000
00000001
00000000
00001000
00000000
00001000
00000000
00000010
00000000
00000100
00000000
00000100
00000000
00000001
00000000
00001000
00000000
00000001
00000000
00000100
00000010
00000100
00000010
,
00001000
00000000
00000001
00000000
00001000
00000000
00000100
00000000
00010000
00000000
00001000
00000000
00010000
00000000
00010000
00000000
00001000
00000000
00100000
00000000
00100000
00000000
00010000
00000000
01000000
00000000
00100000
00000000
10000000
01000000
10000000
01000000
,
00100000
00000000
00010000
00000000
01000000
00000000
00100000
00000000
10000000
00000000
00010000
00000000
01000000
00000000
01000000
00000000
00010000
00000000
10000000
00000000
10000000
00000000
01000000
00000000
00100000
00000000
00010000
00000000
10000000
00100000
10000000
00100000
,
01000000
00010000
10000000
00000000
21000000
00000000
30100000
00000000
01020000
00000000
00130000
00000000
10010000
10000000
00010000
00000000
,
01000000
00000000
00100000
00000000
10000000
00000000
01000000
00000000
00100000
00010000
00100000
00010000
00100000
00010000
00100000
00010000
00100000
00000000
01000000
00000000
10000000
00000000
00100000
00000000
01000000
00000000
00010000
00000000
00100000
00000000
00001000
00000000
,
00010000
00000000
00000100
00000000
00001000
00000000
00000010
00000000
00000100
00000001
00000100
00000001
00000100
00000001
00000100
00000001
00000100
00000000
00000010
00000000
00001000
00000000
00000100
00000000
00000010
00000000
00000001
00000000
00001000
00000000
00000010
00000000
,
00000100
00000000
00000010
00000000
00001000
00000000
00000100
00000000
00010000
00001000
00010000
00001000
00010000
00001000
00010000
00001000
00010000
00000000
00000100
00000000
00001000
00000000
00000010
00000000
00000100
00000000
00000010
00000000
00001000
00000100
00001000
00000100
,
00010000
00000000
00000000
00000000
00101000
00000000
00010000
00001000
00000000
00010000
00001000
00000000
01000100
00000000
00000000
00000000
;
