#TITLE:wound;
#SUBTITLE:;
#ARTIST:KEENO;
#TITLETRANSLIT:;
#SUBTITLETRANSLIT:;
#ARTISTTRANSLIT:;
#GENRE:;
#CREDIT:;
#BANNER:wound.png;
#BACKGROUND:wound-bg.png;
#LYRICSPATH:wound.lrc;
#CDTITLE:;
#MUSIC:wound.ogg;
#OFFSET:-0.002000;
#SAMPLESTART:61.250038;
#SAMPLELENGTH:12.000000;
#SELECTABLE:YES;
#BPMS:0.000000=185.000000
;
#STOPS:
;
#BGCHANGES:0.000=wound.mp4=1.000=0=0=0=StretchNoLoop====,
99999=-nosongbg-=1.000=0=0=0 // don't automatically add -songbackground-
;
#KEYSOUNDS:;
#ATTACKS:;

//---------------dance-single - ----------------
#NOTES:
     dance-single:
     :
     Hard:
     12:
     0.609676,0.629842,0.393945,0.525259,0.773820,455.000000,413.000000,42.000000,56.000000,0.000000,0.000000,0.609676,0.629842,0.393945,0.525259,0.773820,455.000000,413.000000,42.000000,56.000000,0.000000,0.000000:
0000
0000
0000
0000
,
0000
0000
0000
0000
,
0000
0000
0000
0000
,
0000
0000
0000
0000
,
0000
0000
0000
0000
,
0000
0000
0000
0000
,
0000
0000
0000
0000
,
0001
0000
0101
0000
0000
0000
1000
0000
1100
0000
0000
0000
,
0001
0000
0100
0010
0000
0000
1000
0000
0100
1000
0000
0002
,
0000
0000
0103
0010
0000
0010
1000
0000
1000
0001
0000
0000
,
1000
0000
0010
0100
0000
0000
0001
0000
0010
0001
0000
2000
,
0000
0000
3010
0100
0000
0010
0100
0000
0001
0010
0000
0100
,
1000
0000
0000
0101
0000
1000
0001
0000
0100
0001
0000
1000
,
0001
0000
0100
0010
0000
0000
1000
0000
0100
0010
0000
0001
,
1000
0000
0010
1000
0000
0001
1300
0000
0010
0100
0000
0010
,
0000
0000
1010
0000
0000
0110
0000
0000
0101
0000
0000
1000
,
0001
0000
0001
0010
0000
0010
0100
0000
1000
0001
0000
0200
,
0000
0000
0310
1000
3003
0001
0000
0000
0001
0100
0000
0010
,
1000
0000
1000
0100
0000
0100
0010
0000
0001
1000
0000
0020
,
0000
0000
0130
0001
3003
2000
0000
0000
3200
0000
0000
0310
,
0001
0000
0000
1010
0000
0010
1000
0000
0001
1000
0000
0100
,
1000
0000
1000
0010
0000
0010
0100
0000
0100
0001
0000
1000
,
0200
0000
0000
0310
0000
0010
0001
0000
0001
1000
0000
0010
,
0000
0000
0110
0000
0000
2002
0000
0000
0000
3003
0000
0000
,
2000
0000
0000
3200
0000
0000
0310
0000
0100
0010
0000
0001
,
1000
0000
0000
1010
0000
0000
0010
0000
1000
0001
0000
0000
,
2000
0000
0000
0100
0000
0000
0001
0000
0000
3010
0000
0100
,
0001
0000
0000
0101
0000
0000
1000
0000
0100
0010
0000
0010
,
0002
0000
0000
0203
0000
0000
0310
0000
0100
0010
0000
1000
,
0001
0000
0000
0101
0000
0100
0010
0000
0000
1000
0000
0000
,
0002
0000
0000
0010
0000
0000
1000
0000
0000
0103
0000
0010
,
1000
0000
0000
0001
0000
1000
0100
0000
0010
0001
0000
0000
,
1020
0000
0000
0032
0000
0000
0013
0000
0100
0010
0000
1000
,
0100
0000
0000
1100
0000
0000
0001
0000
1000
0010
0000
0100
,
0020
0000
0000
0001
0000
0000
0100
0000
0000
1030
0000
0100
,
0020
0000
0000
0031
0000
0000
1000
0000
0001
0100
0000
0000
,
0201
0000
0000
2300
0000
0000
3100
0000
0010
0100
0000
0001
,
0010
0000
0000
0011
0000
0000
1000
0000
0001
0100
0000
0010
,
0200
0000
0000
1000
0000
0000
0010
0000
0000
0301
0000
0010
,
0200
0000
0000
1300
0000
0001
0100
0000
0100
0010
0000
0000
,
2010
0000
0002
0000
0000
0000
3003
0000
0000
0110
0000
0000
,
1000
0000
0100
0000
0000
1100
0000
0000
0001
0100
0000
0100
,
0020
0000
0000
1030
0000
0000
3101
0000
0000
1000
0000
0100
,
0010
0000
0000
0011
0000
0000
1100
0000
0000
0001
0000
1000
,
0010
0000
0000
0010
0000
0000
0110
0000
0000
1000
0000
0100
,
0010
0000
0000
0001
0000
0000
0011
0000
0000
1000
0000
0001
,
0100
0000
0000
0100
0000
0000
0010
0000
0010
0000
0000
0110
,
0000
0000
1000
0000
0001
0000
1001
0000
0000
0000
0000
0000
,
1100
0000
0100
0010
0000
0010
0001
0000
1000
0001
0000
1000
,
0020
0001
0100
1030
,
0001
0000
0001
0010
0000
0010
0100
0000
1000
0001
0000
1000
,
0020
0001
0100
1030
,
0001
0000
0103
0010
0000
0000
1000
0000
0100
0010
0000
0000
,
0001
0000
1000
0010
0000
0000
2000
0000
0000
3200
0000
0000
,
0302
0000
0000
0103
0000
0010
0100
0000
1000
0010
0000
0100
,
0001
0000
0000
0101
0000
0000
1000
0001
1000
0001
0000
0000
,
1010
0000
0010
0100
0000
0100
0001
0000
0001
0010
0000
0010
,
0200
0000
0000
1300
0000
0000
0001
0000
1000
0010
0000
0100
,
0002
0000
0000
0013
0000
1000
0020
0000
0000
0031
0000
0100
,
0020
1030
1010
1001
,
0101
0000
0100
0010
0000
0010
1000
0000
1000
0100
0000
0100
,
0020
0000
0000
0031
0000
0000
1000
0000
0001
0100
0000
0010
,
2000
3200
0320
0032
,
1003
0000
0001
0100
0000
0000
0001
1000
0001
1000
0000
0000
,
0201
1000
0010
0001
,
0310
0000
1000
0100
0000
0000
0010
0000
0001
0100
0000
0100
,
0020
0000
0000
0001
0000
0000
0100
0000
0000
1030
0000
0100
,
0020
0000
0000
0230
0000
0000
0310
0000
0001
1000
0000
0000
,
0001
0000
0001
0100
0000
0000
0001
0000
1000
0100
0000
0100
,
0010
0000
0011
0000
0000
1100
0000
0000
0001
1000
0000
0000
,
0001
0000
0201
0000
0000
0301
1000
0000
0000
0001
0000
0021
,
0000
0000
0130
1000
0000
0000
0001
0100
0001
0100
0000
0010
,
1000
0000
1020
0000
0000
1030
0001
0000
0000
1000
0000
1200
,
0000
0000
0310
0001
0000
0000
1000
0010
1000
0010
0000
1000
,
0002
0000
0100
0000
0000
2003
0100
0000
0000
3002
0000
0100
,
0000
0000
1003
0100
0000
0000
1100
0000
0000
0011
0000
0000
,
2000
0000
0010
0000
0000
3002
0010
0000
0000
2003
0000
0010
,
0000
0000
3001
0010
0000
0000
0001
1000
0001
1000
0000
0000
,
2002
0000
0000
0000
,
3003
0000
0000
0000
;

//---------------dance-single - ----------------
#NOTES:
     dance-single:
     :
     Medium:
     9:
     0.450222,0.555743,0.337667,0.318907,0.286079,336.000000,300.000000,36.000000,34.000000,0.000000,0.000000,0.450222,0.555743,0.337667,0.318907,0.286079,336.000000,300.000000,36.000000,34.000000,0.000000,0.000000:
0000
0000
0000
0000
,
0000
0000
0000
0000
,
0000
0000
0000
0000
,
0000
0000
0000
0000
,
0000
0000
0000
0000
,
0000
0000
0000
0000
,
0000
0000
0000
0000
,
1000
0000
1000
0000
0000
0000
0001
0000
0001
0000
0000
0000
,
1000
0010
0100
0001
,
1000
0000
0100
1000
0000
0000
0001
0000
0000
0101
0000
0000
,
1000
0100
0010
0001
,
1000
0000
0010
1000
0000
0000
0001
0000
0000
0011
0000
0000
,
1000
0100
0010
0001
,
0100
0000
0010
0100
0000
0000
0010
0000
0000
0110
0000
0000
,
1000
0000
0000
0100
0000
0000
0010
0000
0000
0001
0000
0100
,
0000
0000
0100
0000
0000
0010
0000
0000
0020
0000
0000
0000
,
1030
0000
0000
0001
0000
0000
1000
0000
0100
1000
0000
0000
,
0001
0000
0000
1000
0000
0000
0001
0000
0100
0001
0000
0000
,
1000
1000
0100
0100
,
0010
0011
1000
1010
,
0001
0000
0100
0001
0000
0000
1000
0000
0000
0001
0000
0000
,
1000
0000
0100
1000
0000
0000
0001
0000
0000
0001
0000
0000
,
1000
1010
0010
0110
,
0001
0000
2000
0000
0000
0002
0000
0000
0000
3003
0000
0000
,
1000
0000
0000
0010
0000
0000
1000
0000
0100
1000
0000
0000
,
0002
0000
0000
0003
0000
0000
1000
0000
0001
0100
0000
0000
,
0020
0000
0000
0100
0000
0000
0100
0000
0000
0130
0000
0001
,
0020
0000
0000
0100
0000
0000
0130
0030
0000
0000
0000
0000
,
0001
0000
0000
1000
0000
0000
0001
0000
0010
0001
0000
0000
,
2000
0000
0000
3000
0000
0000
0001
0000
1000
0010
0000
0000
,
0200
0000
0000
0010
0000
0000
0010
0000
0000
0310
0000
1000
,
0200
0000
0000
0010
0000
0000
0310
0300
0000
0000
0000
0000
,
0002
0000
0000
2003
0000
0000
3010
0000
0100
0010
0000
0000
,
1000
1100
0001
0101
,
2000
0000
0000
0000
0000
0000
3100
0000
0010
0100
0000
0000
,
0020
0000
0000
0000
0000
0000
0031
0000
1000
0001
0000
0000
,
2000
0000
0000
3002
0000
0000
0103
0000
0010
0100
0000
0000
,
0001
0011
1000
1010
,
0002
0000
0000
0000
0000
0000
0013
0000
0100
0010
0000
0000
,
0200
0000
0000
0000
0000
0000
1300
0000
0001
2000
0000
0000
,
3010
0000
0020
0000
0000
0000
0000
0000
0000
0130
0000
0000
,
0001
1000
0100
0000
,
1000
0100
0010
0001
,
1000
0010
0100
0000
,
0001
0001
0100
0010
,
1000
1000
0001
0000
,
1000
0100
0010
0001
,
0000
0000
1000
0000
0001
0000
1000
0000
0000
0000
0000
0000
,
1010
0000
0000
1010
0000
0000
1001
0000
0000
1000
0000
0100
,
0010
0001
1000
0000
,
0011
0000
0000
0011
0000
0000
1001
0000
0000
0001
0000
1000
,
0010
0100
0001
0000
,
0101
0101
0220
0330
,
1100
1100
0220
0330
,
0001
0000
0000
0010
0000
0000
0100
0000
1000
0100
0000
0000
,
1000
0000
0010
1000
0000
0000
0010
0000
0100
0001
0000
0000
,
0101
0000
0000
0101
0000
0000
1001
0000
0000
0001
0000
0010
,
0100
1000
0001
0000
,
1100
0000
0000
1100
0000
0000
1001
0000
0000
1000
0000
0001
,
0100
0010
1000
0000
,
1010
1010
0220
0330
,
0011
0011
0220
0330
,
1000
0000
0000
0100
0000
0000
0010
0000
0001
0010
0000
0000
,
0001
0000
0100
0001
0000
0000
0100
0000
0010
1000
0000
0000
,
0002
0000
0100
0100
,
0103
0000
0000
0010
0000
0000
1000
0000
0001
1000
0000
0000
,
2000
0000
0100
0100
,
3002
2003
3002
0000
,
0103
0000
0000
0010
0000
0000
1000
0000
0010
1000
0000
0000
,
0010
0000
0000
0100
0000
0000
0001
0000
0010
0001
0000
0000
,
1000
0000
1000
0000
0000
0001
0100
0000
0000
0001
0000
0001
,
0000
0000
1000
0100
0000
0000
0010
0000
0000
0010
0000
0000
,
0001
0000
0001
0000
0000
1000
0010
0000
0000
1000
0000
1000
,
0000
0000
0001
0010
0000
0000
0100
0000
0000
0100
0000
0000
,
1000
0000
0010
0000
0000
1000
0001
0000
0000
1000
0000
0010
,
0000
0000
1000
0001
0000
0000
1000
0000
0000
1000
0000
0000
,
0001
0000
0010
0000
0000
0001
1000
0000
0000
0001
0000
0010
,
0000
0000
0001
1000
0000
0000
0001
0000
0000
0001
0000
0000
,
2002
0000
0000
0000
,
3003
0000
0000
0000
;

//---------------dance-single - ----------------
#NOTES:
     dance-single:
     :
     Easy:
     6:
     0.265310,0.333446,0.065657,0.356426,0.000000,198.000000,191.000000,7.000000,38.000000,0.000000,0.000000,0.265310,0.333446,0.065657,0.356426,0.000000,198.000000,191.000000,7.000000,38.000000,0.000000,0.000000:
0000
0000
0000
0000
,
0000
0000
0000
0000
,
0000
0000
0000
0000
,
0000
0000
0000
0000
,
0000
0000
0000
0000
,
0000
0000
0000
0000
,
0000
0000
0000
0000
,
1000
0000
0001
0000
,
1000
0010
0100
0000
,
0010
0010
0100
0000
,
0001
0010
0100
0000
,
0010
0010
0100
0000
,
1000
0100
0010
0000
,
0001
0100
0010
0000
,
1000
0001
1000
0000
,
0010
0000
0010
0000
,
1000
1000
0100
0000
,
0100
0010
0001
0000
,
0001
0001
0100
0000
,
0100
0010
1000
0000
,
0001
0001
0010
0000
,
0001
1000
0001
0000
,
1000
1000
0010
0000
,
1000
0000
0001
0000
,
2000
3000
0200
0300
,
0020
0030
0001
1000
,
0002
0003
0100
0010
,
2000
3000
0100
0010
,
0002
0003
2000
3000
,
0020
0030
0100
0100
,
0020
0030
1000
0100
,
0020
0030
0001
0000
,
1000
0100
1000
0100
,
0010
0000
0001
0000
,
2000
0000
3000
0010
,
0200
0000
0300
0001
,
0001
0010
0001
0010
,
0100
0000
1000
0000
,
0002
0000
0003
0100
,
0020
0000
0030
0000
,
2002
0000
3003
0000
,
1000
0100
0010
0000
,
0001
0001
1000
1000
,
0010
0000
1000
0000
,
0001
0100
0010
0000
,
1000
0100
0010
0000
,
0001
1000
0010
0100
,
0020
0000
0000
0030
,
1001
0001
0010
0100
,
2000
3000
0001
0000
,
1000
0010
0100
0001
,
0020
0030
0100
0000
,
0010
0001
1000
0010
,
0200
0300
0010
0000
,
2000
3000
0200
0300
,
0020
0030
0001
1000
,
1001
0001
0100
0010
,
2000
3000
0010
0100
,
0001
1000
0100
0010
,
0002
0003
1000
0001
,
0200
0300
0010
0010
,
0020
0030
1000
1000
,
0002
0003
2000
3000
,
0200
0300
0010
0010
,
2002
0000
0000
3003
,
0001
0000
0100
0000
,
2002
0000
0000
3003
,
1000
0000
0100
0000
,
2002
0000
0000
3003
,
1000
0001
0100
0000
,
0010
0000
0010
0000
,
0010
0010
0100
0100
,
0001
0000
0001
0000
,
0001
0001
0010
0010
,
0100
0000
0100
0000
,
0100
0100
1000
1000
,
0010
0000
0010
0000
,
0010
0010
1000
0000
,
2002
0000
0000
0000
,
3003
0000
0000
0000
;

//---------------dance-single - ----------------
#NOTES:
     dance-single:
     :
     Beginner:
     2:
     0.112556,0.182903,0.028139,0.000000,0.000000,84.000000,81.000000,3.000000,0.000000,0.000000,0.000000,0.112556,0.182903,0.028139,0.000000,0.000000,84.000000,81.000000,3.000000,0.000000,0.000000,0.000000:
0000
0000
0000
0000
,
0000
0000
0000
0000
,
0000
0000
0000
0000
,
0000
0000
0000
0000
,
0000
0000
0000
0000
,
0000
0000
0000
0000
,
0000
0000
0000
0000
,
0000
0000
0000
0000
,
0001
0000
0000
0000
,
0100
0000
0000
0000
,
0010
0000
0000
0000
,
0010
0000
0000
0000
,
1000
0000
0000
0000
,
0100
0000
0000
0000
,
0010
0000
0000
0000
,
0010
0000
0000
0000
,
0001
0000
0000
0000
,
1000
0000
0000
0000
,
0010
0000
0000
0000
,
0100
0000
0000
0000
,
0001
0000
0000
0000
,
0010
0000
0000
0000
,
0100
0000
0000
0000
,
1000
0000
0000
0000
,
0001
0000
0001
0000
,
0001
0000
0000
0000
,
0100
0000
0000
0000
,
0100
0000
0000
0000
,
0010
0000
0010
0000
,
0010
0000
0000
0000
,
1000
0000
0000
0000
,
1000
0000
0000
0000
,
0100
0000
0100
0000
,
0100
0000
0000
0000
,
0010
0000
0000
0000
,
0010
0000
0000
0000
,
0001
0000
0001
0000
,
0001
0000
0000
0000
,
1000
0000
0000
0000
,
1000
0000
0000
0000
,
1001
0000
0000
0000
,
1000
0000
0000
0000
,
0010
0000
0000
0000
,
0100
0000
0000
0000
,
0001
0000
0000
0000
,
0010
0000
0000
0000
,
0100
0000
0100
0000
,
0100
0000
0000
0000
,
1001
0000
0000
0000
,
1000
0000
1000
0000
,
1000
0000
0000
0000
,
0010
0000
0010
0000
,
0010
0000
0000
0000
,
0100
0000
0000
0000
,
0001
0000
0001
0000
,
0001
0000
0000
0000
,
0010
0000
0000
0000
,
0100
0000
0000
0000
,
1000
0000
1000
0000
,
1000
0000
0000
0000
,
0001
0000
0000
0000
,
0100
0000
0000
0000
,
0010
0000
0010
0000
,
0010
0000
0000
0000
,
1000
0000
0000
0000
,
0000
0000
0100
0000
,
0100
0000
0000
0000
,
0010
0000
0000
0000
,
0001
0000
0000
0000
,
1000
0000
0000
0000
,
0010
0000
0000
0010
,
0000
0000
0000
0000
,
0100
0000
0000
0100
,
0000
0000
0000
0000
,
0001
0000
0000
0001
,
0000
0000
0000
0000
,
1000
0000
0000
1000
,
0000
0000
0000
0000
,
1001
0000
0000
0000
;

//---------------dance-double - ----------------
#NOTES:
     dance-double:
     :
     Hard:
     12:
     0.574837,0.592793,0.318907,0.675333,0.708162,429.000000,395.000000,34.000000,72.000000,0.000000,0.000000,0.574837,0.592793,0.318907,0.675333,0.708162,429.000000,395.000000,34.000000,72.000000,0.000000,0.000000:
00000000
00000000
00000000
00000000
,
00000000
00000000
00000000
00000000
,
00000000
00000000
00000000
00000000
,
00000000
00000000
00000000
00000000
,
00000000
00000000
00000000
00000000
,
00000000
00000000
00000000
00000000
,
00000000
00000000
00000000
00000000
,
00010000
00000000
00101000
00000000
00000000
00000000
00001000
00000000
00010010
00000000
00000000
00000000
,
00010000
00000000
00001000
00010000
00000000
00001000
01000000
00000000
01000000
00100000
00000000
20000000
,
00000000
00000000
00000000
31000000
00000000
01000000
00100000
00000000
00100000
00001000
00000000
00000000
,
00010000
00000000
00010000
00001000
00000000
00010000
00000010
00000000
00000010
00000100
00000000
00000002
,
00000000
00000000
00000013
00000103
00000000
00000020
00000000
00000000
00001030
00010000
00000000
00000000
,
00001000
00000000
01000000
00010000
00000000
00010000
00100000
00000000
00100000
01000000
00000000
10000000
,
00100000
00000000
00100000
01000000
00000000
00020000
00000000
00000000
00130000
00001000
00000000
00000000
,
00010000
00000000
00010000
00001000
00000000
00001000
00000100
00000000
00000100
00000010
00000000
00001000
,
00000000
00000000
00000000
00000000
00001010
00000000
00000000
00000000
00000000
00000000
00000110
00000000
00000000
00000000
00000000
00000000
00000202
00000000
00000000
00000000
00000000
00000303
00000303
00000000
,
00000001
00000000
00001000
00000001
00000000
00000200
00000000
00000000
00002300
00000000
00000000
00023000
,
00000000
00000000
00130000
01000000
00000000
00200000
00000000
00000000
10300000
01000000
00000000
00100000
,
00001000
00000000
00001000
00010000
00000000
00010000
00001000
00000000
00001000
01000000
00000000
00200000
,
00000000
00000000
10300000
00010000
00000000
30100000
00000000
00030000
01000000
20000000
00000000
00000000
,
30020000
00000000
00000000
01030000
00000000
00001000
01000000
00000000
00010000
01000000
00000000
00001000
,
00010000
00000000
00000100
00010000
00000000
00001000
00010000
00000000
00000010
00010000
00000000
00000010
,
00000200
00000000
00000000
00000301
00000000
00000001
00000010
00000000
00000001
00000100
00000000
00000010
,
00000000
00000000
00001010
00000000
00000000
00002002
00000000
00000000
00000000
00003003
00000000
00000000
,
00002000
00000000
00000000
00003200
00000000
00000000
00010300
00000000
00001000
00010000
00000000
00001000
,
01000000
00000000
00000000
01010000
00000000
00000000
10000000
00000000
01000000
00100000
00000000
00001000
,
00020000
00000000
00000000
00100000
00000000
00000000
00031000
00000000
00000000
00001000
00000000
00010000
,
00002000
00000000
00000000
00000010
00000000
00000000
00013000
00000000
00000000
00001000
00000000
01000000
,
00020000
00000000
00000000
00230000
00000000
00000000
00301000
00000000
00010000
00001000
00000000
00010000
,
00000010
00000000
00000000
00001010
00000000
00000000
00000001
00000000
00000010
00000100
00000000
00010000
,
00002000
00000000
00000000
00000100
00000000
00000000
00013000
00000000
00000000
00010000
00000000
00001000
,
00020000
00000000
00000000
01000000
00000000
00000000
00031000
00000000
00000000
00010000
00000000
00000010
,
00000100
00000000
00000000
00000101
00000000
00000000
00001000
00000000
00000100
00010000
00000000
00001000
,
00200000
00000000
00000000
01300000
00000000
00000000
10000000
00000000
00100000
01000000
00000000
00000000
,
01020000
00000000
00000000
00100000
00000000
00000000
00001000
00000000
00000000
00130000
00000000
00010000
,
02000000
00000000
00000000
13000000
00000000
00000000
01000000
00000000
00100000
01000000
00000000
00000000
,
00100000
00000000
00000000
10100000
00000000
00000000
00010000
00000000
00100000
00001000
00000000
00010000
,
00000200
00000000
00000000
00000310
00000000
00000000
00000001
00000000
00000100
00000010
00000000
00000000
,
00002010
00000000
00000000
00000100
00000000
00000000
00010000
00000000
00000000
00003100
00000000
00001000
,
00000020
00000000
00000000
00000130
00000000
00000100
00000001
00000000
00001000
00000010
00000000
00000000
,
00002000
00000000
00000200
00000000
00000000
00000000
00003300
00000000
00000000
00011000
00000000
00000000
,
01000000
00000000
01010000
00000000
00000000
10010000
00000000
00000000
10000000
01000000
00000000
00100000
,
00020000
00003000
00000000
02030000
00000000
00000000
03002000
00000000
00000000
00013000
00000000
00000100
,
00001000
00000000
00000000
00001100
00000000
00000000
00000101
00000000
00000000
00001000
00000000
00000010
,
00000200
00000000
00000000
00002300
00000000
00000000
00023000
00000000
00000000
00130000
00000000
01000000
,
00020000
00000000
00000000
00230000
00000000
00000000
02300000
00000000
00000000
13000000
00000000
00010000
,
02000000
00000000
00000000
03100000
00000000
00000000
01000000
00000000
02000000
00000000
00000000
03001000
,
00000000
00000000
00100000
00000000
00001000
00000000
00011000
00000000
00000000
00000000
00000000
00000000
,
00010010
00000000
00000010
00000100
00000000
00000100
00000001
00000000
00000001
00000010
00000000
00000010
,
00000200
00010000
00001000
00010300
,
00010000
00000000
00010000
00001000
00000000
00001000
01000000
00000000
01000000
00100000
00000000
10000000
,
00020000
00100000
10000000
30130000
,
00010000
00000000
10000000
00100000
00000000
00000000
10000000
00000000
01000000
00100000
00000000
00000000
,
00001000
00000000
00010000
00001000
00000000
00000000
00010000
00000000
00000010
00000100
00000000
00000000
,
00000002
00000000
00000000
00000023
00000000
00000000
00002030
00000000
00000000
00003010
00000000
00000100
,
00000010
00000000
00000000
00000001
00000000
00000100
00000010
00000000
00000010
00001000
00000000
00000000
,
00020100
00000000
00000000
00000010
00000000
00000000
00031000
00000000
00100000
00010000
00000000
00100000
,
00020000
00000000
00000000
10030000
00000000
00000000
00010000
00000000
01000000
10000000
00000000
01000000
,
00020000
00000000
00000000
00130000
00000000
00001000
00020000
00000000
00000000
00030010
00000000
00000100
,
00000020
00000000
00000000
00002030
00000000
00000000
00003100
00000000
00010000
00001000
00000000
00000000
,
00102000
00000000
00000000
01000000
00000000
00000000
00013000
00000000
00000100
00001000
00000000
00000100
,
00002000
00000000
00000000
00003001
00000000
00000000
00001000
00000000
00000010
00000100
00000000
00000100
,
00000002
00000023
00002030
00023000
,
00031000
00000000
01000000
00100000
00000000
00000000
10100000
00000000
00000000
01010000
00000000
00000000
,
20000000
00100000
00010000
31000000
,
10000000
00000000
01000000
00010000
00000000
00000000
00001000
00000000
00000010
00000001
00000000
00000000
,
00002000
00000010
00000001
00003100
,
00010000
00000000
00000100
00010000
00000000
00010000
00001000
00000000
00001000
01000000
00000000
00000000
,
00010000
00000000
00010000
10000000
00000000
00000000
10000000
00000000
01000000
00100000
00000000
00001000
,
00010000
00000000
00001000
00000000
00000000
00100000
00000000
00000000
00001000
00010000
00000000
00000000
,
00010000
00000000
00010010
00000000
00000000
00010000
00001000
00000000
00000000
00010000
00000000
00010010
,
00000000
00000000
00000010
00010000
00000000
00000000
00011000
00000000
00000000
00101000
00000000
00000000
,
00001000
00000000
01001000
00000000
00000000
00001000
00010000
00000000
00000000
00001000
00000000
01001000
,
00000000
00000000
01000000
00001000
00000000
00000000
00011000
00000000
00000000
00010100
00000000
00000000
,
00020000
00000000
00000010
00000000
00000000
00032000
00100000
00000000
00000000
00023000
00000000
00000010
,
00000000
00000000
00032000
00100000
00000000
00000000
00013000
00000000
00000000
00011000
00000000
00000000
,
00002000
00000000
01000000
00000000
00000000
00023000
00000100
00000000
00000000
00032000
00000000
01000000
,
00000000
00000000
00023000
00000100
00000000
00000000
00031000
00010000
00001000
00010000
00000000
00000000
,
00022000
00000000
00000000
00000000
,
00033000
00000000
00000000
00000000
;

//---------------dance-double - ----------------
#NOTES:
     dance-double:
     :
     Medium:
     9:
     0.432803,0.518694,0.234491,0.468982,0.318907,323.000000,298.000000,25.000000,50.000000,0.000000,0.000000,0.432803,0.518694,0.234491,0.468982,0.318907,323.000000,298.000000,25.000000,50.000000,0.000000,0.000000:
// measure 0
00000000
00000000
00000000
00000000
,  // measure 1
00000000
00000000
00000000
00000000
,  // measure 2
00000000
00000000
00000000
00000000
,  // measure 3
00000000
00000000
00000000
00000000
,  // measure 4
00000000
00000000
00000000
00000000
,  // measure 5
00000000
00000000
00000000
00000000
,  // measure 6
00000000
00000000
00000000
00000000
,  // measure 7
00010000
00000000
00010000
00000000
00000000
00000000
00001000
00000000
00001000
00000000
00000000
00000000
,  // measure 8
00100000
00000000
00000000
00010000
00000000
00000000
10000000
00000000
00100000
10000000
00000000
00000000
,  // measure 9
00010000
01000000
00001000
00000000
,  // measure 10
00010000
00000000
00000000
00000010
00000000
00000000
00001000
00000000
00000100
00001000
00000000
00000000
,  // measure 11
00000001
00000100
00000010
00000000
,  // measure 12
00001000
00000000
00000000
00000100
00000000
00000000
00010000
00000000
00001000
00010000
00000000
00000000
,  // measure 13
00001000
00100000
00010000
00000000
,  // measure 14
01000000
00000000
00000000
01000000
00000000
00000000
00001000
00000000
00010000
00001000
00000000
00000000
,  // measure 15
00010000
00010000
00000100
00000000
,  // measure 16
00001000
00000000
00000000
00000001
00000000
00000000
00000100
00000000
00000010
00000100
00000000
00000000
,  // measure 17
00000010
00001000
00000100
00010000
,  // measure 18
00001000
00000000
00000000
00100000
00000000
00000000
00010000
00000000
10000000
00010000
00000000
00000000
,  // measure 19
01000000
01000000
00100000
00000000
,  // measure 20
10000000
00000000
00000000
00100000
00000000
00000000
01000000
00000000
00100000
01000000
00000000
00000000
,  // measure 21
00010000
00000000
01000000
00010000
00000000
00000000
00100000
00000000
00001000
00100000
00000000
00000000
,  // measure 22
00001000
00000000
00000000
00001000
00000000
00000000
00010000
00000000
00000000
00010000
00000000
00000010
,  // measure 23
00000000
00000000
00000100
00000000
00000000
00000220
00000000
00000000
00000000
00000330
00000000
00000000
,  // measure 24
00001002
00000000
00000000
00000103
00000000
00000000
00000010
00000000
00001000
00000010
00000000
00000000
,  // measure 25
00002000
00000000
00000000
00003100
00000000
00000000
00010000
00000000
00001000
00010000
00000000
00000000
,  // measure 26
00002000
00000000
00000000
01000000
00000000
00000000
00000000
00000000
00000000
01003000
00000000
00100000
,  // measure 27
20000000
00010000
00000000
30010000
,  // measure 28
20010000
00000000
00000000
30100000
00000000
00000000
01000000
00000000
00010000
01000000
00000000
00000000
,  // measure 29
00020000
00000000
00000000
00130000
00000000
00000000
00001000
00000000
00010000
00001000
00000000
00000000
,  // measure 30
00020000
00000000
00000000
00000010
00000000
00000000
00000000
00000000
00000000
00030010
00000000
00000100
,  // measure 31
00000002
00001000
00000000
00001003
,  // measure 32
00002100
00000000
00000000
00003100
00000000
00000000
00010000
00000000
00001000
00010000
00000000
00001000
,  // measure 33
00100000
00110000
00000000
10100000
,  // measure 34
00020000
01000000
00000000
01000000
,  // measure 35
20030000
01000000
00000000
31000000
,  // measure 36
10020000
00003000
00000000
00130000
00000000
00000000
00001000
00000000
00010000
00001000
00000000
00010000
,  // measure 37
00000100
00001100
00000000
00000101
,  // measure 38
00002000
00000010
00000000
00000010
,  // measure 39
00003002
00000010
00000000
00000013
,  // measure 40
00000002
00000000
00002000
00000000
00000000
00000000
00003003
00000000
00000000
00000110
00000000
00000000
,  // measure 41
00001000
00000000
00000100
00000000
00000000
00020000
00000000
00000000
00000000
00031000
00000000
01000000
,  // measure 42
00010000
00000000
00000000
00010000
00000000
00000000
01010000
00000000
00000000
10000000
00000000
01000000
,  // measure 43
10000000
00010000
00110000
00100000
,  // measure 44
00001000
00000000
00000000
00001000
00000000
00000000
00011000
00000000
00000000
00010000
00000000
00000010
,  // measure 45
00000100
00000000
00000000
00000001
00000000
00000000
00000101
00000000
00000000
00000100
00000000
00000010
,  // measure 46
00002100
00000000
00003100
00010000
,  // measure 47
00031000
00000000
00010000
00000000
00001000
00000000
00011000
00000000
00000000
00000000
00000000
00000000
,  // measure 48
02002000
00000000
00000000
03003000
00000000
00000000
01000000
00000000
00010000
01000000
00000000
00000000
,  // measure 49
00100000
00000000
00000000
00100000
00000000
00000000
10000000
00000000
01000000
00100000
00000000
00000000
,  // measure 50
00020000
00000000
00000000
00030000
00000000
00000000
00100000
00000000
00001000
00100000
00000000
00000000
,  // measure 51
00001000
00001000
00010000
00000010
,  // measure 52
00020020
00000000
00000000
00030030
00000000
00000000
00000010
00000000
00001000
00000010
00000000
00000000
,  // measure 53
00000100
00000000
00000000
00000100
00000000
00000000
00000001
00000000
00000010
00000100
00000000
00000000
,  // measure 54
00002000
00003002
00000203
00000320
,  // measure 55
00010030
00000000
00001000
00010000
00000000
00000000
00001000
00000000
00000000
00100000
00000000
00000000
,  // measure 56
20020000
00000000
00000000
30030000
00000000
00000000
10000000
00000000
00010000
01000000
00000000
00000000
,  // measure 57
00001000
00001000
00010000
00000100
,  // measure 58
00000010
00000010
00000100
00000100
,  // measure 59
00000220
00000000
00000000
00000330
00000000
00000000
00001000
00000000
00000001
00000100
00000000
00000000
,  // measure 60
00002002
00000000
00000000
00003003
00000000
00000000
00000001
00000000
00001000
00000010
00000000
00000000
,  // measure 61
00000100
00000100
00001000
00010000
,  // measure 62
00002000
00000000
00000000
00203000
00030000
00000000
02300000
00300000
00000000
23000000
00000000
00000000
,  // measure 63
30010000
00000000
01000000
00010000
00000000
00000000
10000000
00000000
01000000
10000000
00000000
00000000
,  // measure 64
20020000
00000000
00000000
30030000
,  // measure 65
00010000
00000000
00100000
00001000
00000000
00000000
00010000
00000000
00000010
00001000
00000000
00000000
,  // measure 66
00002002
00000000
00000000
00003003
,  // measure 67
00001000
00000000
00000100
00010000
00000000
00000000
00001000
00000000
01000000
00010000
00000000
00000000
,  // measure 68
10000000
00000000
00000000
01000000
00000000
00000000
00100000
00000000
01000000
00100000
00000000
00000000
,  // measure 69
00010000
01000000
00001000
00000000
,  // measure 70
00010000
00000000
00010000
00000000
00000000
00001000
00100000
00000000
00000000
00001000
00000000
00001000
,  // measure 71
00000000
00000000
00010000
00000010
00000000
00000000
00020000
00000000
00000000
00030000
00000000
00000000
,  // measure 72
00001000
00000000
00001000
00000000
00000000
00010000
00000010
00000000
00000000
00010000
00000000
00010000
,  // measure 73
00000000
00000000
00001000
00100000
00000000
00000000
00002000
00000000
00000000
00003000
00000000
00000000
,  // measure 74
00010000
00000000
00010000
00000000
00000000
00001000
01000000
00000000
00000000
00001000
00000000
00001000
,  // measure 75
00000000
00000000
00010000
00000010
00000000
00000000
00022000
00000000
00000000
00033000
00000000
00000000
,  // measure 76
00001000
00000000
00001000
00000000
00000000
00010000
00000010
00000000
00000000
00010000
00000000
00010000
,  // measure 77
00000000
00000000
00001000
01000000
00000000
00000000
00002000
00000000
00000000
00013000
00000000
00000000
,  // measure 78
00022000
00000000
00000000
00000000
,  // measure 79
00033000
00000000
00000000
00000000
;

//---------------dance-double - ----------------
#NOTES:
     dance-double:
     :
     Easy:
     6:
     0.278709,0.333446,0.150074,0.347046,0.000000,208.000000,192.000000,16.000000,37.000000,0.000000,0.000000,0.278709,0.333446,0.150074,0.347046,0.000000,208.000000,192.000000,16.000000,37.000000,0.000000,0.000000:
// measure 0
00000000
00000000
00000000
00000000
,  // measure 1
00000000
00000000
00000000
00000000
,  // measure 2
00000000
00000000
00000000
00000000
,  // measure 3
00000000
00000000
00000000
00000000
,  // measure 4
00000000
00000000
00000000
00000000
,  // measure 5
00000000
00000000
00000000
00000000
,  // measure 6
00000000
00000000
00000000
00000000
,  // measure 7
00000000
00000000
00000000
00000000
,  // measure 8
00001000
00010000
00001000
00000000
,  // measure 9
00100000
00100000
00010000
00000000
,  // measure 10
10000000
00100000
10000000
00000000
,  // measure 11
00010000
00010000
01000000
00000000
,  // measure 12
00001000
00010000
00001000
00000000
,  // measure 13
00010000
00010000
00000100
00000000
,  // measure 14
00010000
00000100
00000010
00000001
,  // measure 15
00000100
00000010
00001000
00000000
,  // measure 16
00000020
00000030
00001000
00001000
,  // measure 17
00000100
00000100
00010000
00000000
,  // measure 18
00002000
00003000
00100000
00100000
,  // measure 19
00010000
00010000
10000000
00000000
,  // measure 20
00010000
01000000
00010000
01000000
,  // measure 21
00001000
00010000
00001000
00010000
,  // measure 22
00000200
00000000
00000000
00000300
,  // measure 23
00001000
00000001
00000100
00000000
,  // measure 24
00000002
00000003
00000200
00000300
,  // measure 25
00000020
00000030
00000000
00001000
,  // measure 26
00000200
00000000
00000300
00010000
,  // measure 27
00020000
00030000
00001000
01003000
,  // measure 28
00020000
00030000
20000000
30000000
,  // measure 29
02000000
03000000
00100000
00001000
,  // measure 30
00020000
00000000
00030000
00000010
,  // measure 31
00000200
00000300
00000001
00000000
,  // measure 32
00001000
00000100
00001000
00000100
,  // measure 33
00010000
00000000
00001000
00000000
,  // measure 34
00100000
00010000
00100000
00010000
,  // measure 35
10000000
00000000
00100000
00000000
,  // measure 36
01000000
00010000
01000000
00010000
,  // measure 37
00100000
00000000
00001000
00000000
,  // measure 38
00010000
00000010
00010000
00000010
,  // measure 39
00001000
00000000
00000100
00000000
,  // measure 40
00002002
00000000
00000000
00003003
,  // measure 41
00000001
00000100
00000010
00000000
,  // measure 42
00001000
00001000
00000100
00000100
,  // measure 43
00010000
00000000
00001000
00000000
,  // measure 44
00100000
00010000
01000000
00000000
,  // measure 45
00010000
10000000
00100000
00000000
,  // measure 46
01000000
01000000
00001000
00001000
,  // measure 47
00020000
00000000
00030000
00000000
,  // measure 48
00011000
00011000
00010000
00000100
,  // measure 49
00000020
00000030
00000020
00000030
,  // measure 50
00000001
00000001
00000100
00000010
,  // measure 51
00020000
00030000
00020000
00030000
,  // measure 52
00011000
00011000
00001000
00100000
,  // measure 53
00020000
00030000
20000000
30000000
,  // measure 54
00010000
01000000
00100000
10000000
,  // measure 55
02000000
03000000
00200000
00300000
,  // measure 56
00011000
00011000
00010000
00000010
,  // measure 57
00000200
00000300
00000002
00000003
,  // measure 58
00001000
00000100
00001000
00000100
,  // measure 59
00020000
00030000
00020000
00030000
,  // measure 60
00011000
00011000
00001000
00100000
,  // measure 61
00020000
00030000
02000000
03000000
,  // measure 62
00010000
10000000
00010000
01000000
,  // measure 63
00001000
00000000
00010000
00000000
,  // measure 64
00022000
00000000
00000000
00000000
,  // measure 65
00033000
00000000
00010000
00000100
,  // measure 66
00000020
00000000
00000000
00000030
,  // measure 67
00000220
00000000
00000000
00000330
,  // measure 68
00000001
00001000
00000010
00000000
,  // measure 69
00001000
00000100
00010000
00000000
,  // measure 70
00011000
00000000
00001000
00000000
,  // measure 71
00100000
00010000
01000000
00000000
,  // measure 72
00011000
00000000
00010000
00000000
,  // measure 73
00000010
00001000
00000100
00000000
,  // measure 74
00011000
00000000
00001000
00000000
,  // measure 75
01000000
00001000
00010000
00000000
,  // measure 76
00011000
00000000
00010000
00000000
,  // measure 77
00000100
00010000
00001000
00000000
,  // measure 78
00022000
00000000
00000000
00000000
,  // measure 79
00033000
00000000
00000000
00000000
;
