#TITLE:Winning Eleven9 Theme (IIDX Edition);
#SUBTITLE:;
#ARTIST:Sota Fujimori;
#TITLETRANSLIT:;
#SUBTITLETRANSLIT:;
#ARTISTTRANSLIT:;
#GENRE:;
#CREDIT:;
#BANNER:Winning Eleven9 Theme (IIDX Edition).png;
#BACKGROUND:Winning Eleven9 Theme (IIDX Edition)-bg.png;
#LYRICSPATH:;
#CDTITLE:;
#MUSIC:Winning Eleven9 Theme (IIDX Edition).ogg;
#OFFSET:0.000000;
#SAMPLESTART:85.713997;
#SAMPLELENGTH:15.000000;
#SELECTABLE:YES;
#BPMS:0.000000=140.000000
;
#STOPS:
;
#BGCHANGES:4.000=Winning Eleven9 Theme (IIDX Edition).mp4=1.000=0=0=1=====,
99999=-nosongbg-=1.000=0=0=0 // don't automatically add -songbackground-
;
#KEYSOUNDS:;
#ATTACKS:;

//---------------dance-single - ----------------
#NOTES:
     dance-single:
     :
     Hard:
     11:
     0.486350,0.474391,0.191351,0.287026,0.215270,427.000000,403.000000,24.000000,36.000000,0.000000,0.000000,0.486350,0.474391,0.191351,0.287026,0.215270,427.000000,403.000000,24.000000,36.000000,0.000000,0.000000:
0000
0000
0000
0000
,
0000
0000
0000
0000
,
0000
0000
0000
0000
,
0000
0000
0000
0000
,
0000
0000
0000
0000
,
2010
0000
3010
0100
3002
0000
1003
0000
,
0001
0000
0000
0001
0010
0000
0100
0000
2000
0000
0000
0000
3010
0000
0000
0000
,
0102
0000
0013
0100
2003
0000
3001
0000
,
1000
0000
0100
0000
0001
0000
0100
0000
1000
0000
0000
0001
0000
0000
0100
0000
,
0010
1000
0100
0000
0010
0001
0100
0000
,
0001
0100
0010
1000
0100
0010
0001
0000
,
1000
0010
0100
0000
0001
0010
0100
0000
,
1000
0010
0100
0001
0011
0000
1010
0000
,
1001
0000
1000
0000
0010
0000
0000
0010
0000
0000
0100
0000
0001
0000
0000
0000
,
1000
0000
0100
0000
0010
0000
0000
0010
0000
0000
0001
0000
1000
0000
0000
0000
,
0001
0100
0010
1000
0100
0100
0100
0000
,
1000
0100
0010
0001
0100
0100
0100
0000
,
2001
0000
0000
0000
3010
0100
0010
0000
0100
0000
0000
0000
0100
0000
0000
0000
,
0001
0000
0000
1000
0100
0000
0010
0000
0002
0000
0000
0000
1003
0000
0000
0000
,
0002
0000
0000
0000
0103
0010
0100
0000
0010
0000
0000
0000
0010
0000
0000
0000
,
1000
0000
0000
0001
0010
0000
0100
0000
2200
0000
0000
0000
3300
0000
0000
0000
,
1002
0000
0000
0000
1003
0010
1000
0000
0020
0000
0000
0000
0130
0000
0001
0000
,
1000
0000
0000
0001
0010
0000
0100
0000
2100
0000
0000
0000
3001
0000
0000
0000
,
2000
0000
0000
0000
3001
0100
0001
0000
0200
0000
0000
0000
0310
0000
1000
0000
,
0001
0000
0000
1000
0100
0000
0010
0000
0012
0000
0000
0000
1033
0000
0001
0000
,
1000
0010
0100
0000
0100
0010
1000
0000
,
0001
0010
0100
0000
0100
0010
0001
0000
,
1000
0010
0001
0010
1000
0001
1000
0000
,
0001
0010
1000
0010
0001
1000
0001
0000
,
1000
0000
0100
0000
0000
0100
0000
0000
0010
0000
0001
0000
0000
0001
0000
0000
,
1000
0000
0010
0000
0000
0010
0000
0000
0100
0000
0001
0000
0000
0001
0000
0000
,
1000
0000
0100
0000
0000
0010
0000
0000
0001
0000
0100
0000
0000
0010
0000
0000
,
1000
0000
0100
0000
0000
0010
0000
0000
0001
0000
0100
0000
0010
0000
1000
0000
,
2002
0000
0000
3003
0001
0100
1000
0100
,
0001
0010
0000
0000
0001
0000
0000
0000
1000
0010
0000
0000
1000
0000
0000
0000
,
0001
0100
0010
1000
0200
0000
0310
0001
,
1000
0010
0000
0000
1000
0000
0000
0000
0001
0010
0000
0000
0001
0000
0000
0000
,
1000
0100
0010
0001
0200
0000
0310
0000
,
1000
0010
0000
0000
0201
0000
0000
0000
0301
0010
0000
0000
1200
0000
0000
0000
,
1300
0001
0100
0010
2000
0000
3001
0000
,
0001
0100
0000
0000
1020
0000
0000
3000
1030
0100
0000
0000
0021
0000
0000
0000
,
0031
0100
0010
1000
0100
0010
0001
0000
,
1000
2010
0000
0001
0000
3200
0000
0310
,
0020
0000
0030
0001
0100
0010
1000
0000
,
0001
0102
0000
1000
0000
0023
0000
0130
,
0200
0000
0000
0000
0300
0000
1000
0000
0010
0000
0100
0000
0001
1000
0000
0000
,
0001
0101
0000
0110
0000
1010
0000
1000
,
0002
0000
0013
1000
0010
0001
1000
0000
,
1000
1010
0000
0110
0000
0101
0000
0001
,
1000
0000
0100
0000
0010
0000
0001
0000
0100
0010
0100
0000
0010
0000
0000
0000
,
1000
0000
0000
1000
0000
0000
0010
0000
0000
0010
0000
0000
0200
0000
0000
0000
,
0301
0000
0000
0001
0000
0000
0010
0000
0000
0010
0000
0000
0200
0000
0000
0000
,
1300
0000
0000
0001
0000
0000
1000
0000
0000
0100
0000
0000
0200
0000
0000
0000
,
0310
0000
0000
0001
0000
0000
1000
0000
0000
0010
0000
0000
0020
0000
0000
0000
,
0130
0000
0000
0001
0000
0000
1000
0000
0000
0001
0000
0000
0010
0000
0100
0000
,
1000
0000
0000
0010
0000
0000
0100
0000
0000
0010
0000
0000
1000
0000
0100
0000
,
0010
0000
0000
0001
0000
0000
1000
0000
0000
0001
0000
0000
0010
0000
0001
0000
,
0100
0000
0000
0100
0000
0000
0010
0000
1000
0000
0001
0000
1000
0000
0000
0000
,
0001
0010
0100
0010
0001
1000
0010
0100
,
0001
0010
0100
1000
0010
0100
0010
0000
,
1000
0010
0100
0001
1000
0100
0010
0100
,
1000
0010
0100
0001
1000
0100
0010
0000
,
0001
0000
0100
0000
0010
0000
1000
0000
0000
1000
0000
0000
1000
0000
0010
0000
,
0100
0000
0001
0000
1000
0000
0100
0000
0000
0100
0000
0000
0100
0000
0010
0000
,
0001
0000
1000
0000
0010
0000
0100
0000
0000
0100
0000
0000
0100
0000
0001
0000
,
1000
0100
0010
0001
1000
0010
0100
0000
,
0001
0000
0100
0000
0000
0100
0000
0000
0010
0000
1000
0000
0000
1000
0000
0000
,
0001
0000
0010
0000
0000
0010
0000
0000
0100
0000
1000
0000
0000
1000
0000
0000
,
0001
0000
0100
0000
0000
0010
0000
0000
1000
0000
0100
0000
0000
0010
0000
0000
,
0001
1000
0010
0100
0001
0010
0100
0000
,
1001
0000
0000
0000
;

//---------------dance-single - ----------------
#NOTES:
     dance-single:
     :
     Challenge:
     14:
     0.645809,0.669728,0.310945,0.271080,0.629864,567.000000,528.000000,39.000000,34.000000,0.000000,0.000000,0.645809,0.669728,0.310945,0.271080,0.629864,567.000000,528.000000,39.000000,34.000000,0.000000,0.000000:
0000
0000
0000
0000
,
0000
0000
0000
0000
,
0000
0000
0000
0000
,
0000
0000
0000
0000
,
0000
0000
0000
0000
,
2010
0000
0000
0000
3100
0010
0100
0000
3200
0000
0000
0000
0320
0000
0000
0000
,
0031
0000
0000
0001
0100
0000
0010
0000
2000
0000
0000
0000
3001
0000
0000
0000
,
0102
0000
0000
0000
0013
0100
0010
0000
0023
0000
0000
0000
0230
0000
0000
0000
,
1300
0000
0010
0100
0010
0000
1000
0000
1010
0000
0000
0110
0000
0000
0101
0000
,
1000
0000
0100
0000
0100
0000
0000
1000
0000
0000
0010
0000
0100
0000
0001
0000
,
1000
0000
0001
0000
0001
0000
0000
0010
0000
0000
0001
0000
0100
0000
0010
0030
,
1000
0000
0100
0000
0100
0000
0000
0010
0000
0000
0100
0000
1000
0001
1000
0000
,
0010
0100
0001
0010
0011
0000
1100
0000
,
1001
0000
0001
0000
0100
0000
0010
1000
0000
0000
0010
0000
0100
0000
0010
0000
,
1000
0000
0100
0000
0010
0000
0001
0100
0000
0000
0001
0000
1000
0000
0010
0000
,
0100
0000
0001
0000
1000
0000
0100
0010
0000
0000
0100
0000
1000
0000
0010
0000
,
0100
0000
0001
0000
0010
0000
1000
0000
0010
0000
0001
0000
0100
0010
0100
0000
,
1020
0000
0000
0000
0130
0001
1000
0000
0100
0000
0000
0000
0100
0000
0000
0000
,
1000
0000
0000
0001
0100
0000
0010
0000
1000
0100
0010
0001
1000
0000
0000
0000
,
2000
0000
0000
0000
3001
0100
0010
0000
0100
0000
0000
0000
0100
0000
0000
0000
,
1010
0000
0000
1000
0100
0000
0010
0000
0002
0000
0100
0000
0103
0000
0000
0000
,
0201
0000
0000
0000
0310
1000
0001
0000
0010
0000
0000
0000
0010
0000
0000
0000
,
0001
0000
0000
1000
0010
0000
0100
0000
0001
0010
0100
1000
0001
0000
0000
0000
,
1002
0000
0000
0000
1003
0010
0100
0000
0010
0000
0000
0000
0010
0000
0000
0000
,
1000
0000
0000
0001
0010
0000
0100
0000
1000
0000
0010
0000
1000
0001
1000
0001
,
0100
0000
0010
0000
0000
1000
0000
0000
0100
0000
0010
0000
0000
0001
0000
0000
,
1000
0000
0010
0000
0000
0001
0000
0000
0010
0000
1000
0000
0000
0100
0000
0000
,
0010
0000
0010
0000
0000
0001
0000
0000
0100
0000
0100
0000
0000
1000
0000
0000
,
0100
0000
0100
0000
0000
0010
0000
0000
1000
0000
0100
0000
0010
0000
0000
0000
,
0001
0000
0010
0000
0001
0010
0000
0010
0100
0000
1000
0000
0100
1000
0000
1000
,
0001
0000
0100
0000
0001
0100
0000
0100
0010
0000
1000
0000
0010
1000
0000
1000
,
0001
0000
0010
0000
0100
1000
0000
0100
1000
0000
0010
0000
0100
0001
0000
0100
,
0001
0000
1000
0000
0100
0010
0000
0001
1000
0000
0010
0000
1000
0001
1000
0002
,
2000
0000
0000
0000
0000
0000
3003
0000
0001
0100
0010
0000
1000
0100
0010
0000
,
0001
0010
0000
0000
0012
0000
0000
0000
1003
0010
0000
0000
2010
0000
0000
0000
,
3001
0100
0010
0100
0001
0000
0010
0000
0200
0000
1000
0000
1300
0000
0001
0000
,
1000
0100
0000
0000
2100
0000
0000
0000
3001
0100
0000
0000
0102
0000
0000
0000
,
1003
0010
0100
0010
1000
0000
0100
0000
0020
0000
0000
0000
0031
0100
0001
0000
,
1000
0100
0010
0000
0012
0000
0000
0000
0103
0010
1000
0000
2010
0000
0000
0000
,
3010
0100
0001
1000
0001
0000
0010
0000
0210
0000
0000
0000
1300
0000
0000
0000
,
0001
0100
0010
0000
2010
0000
0000
0000
3100
0010
0001
0000
0012
0000
0000
0000
,
0013
0100
1000
0001
1000
0000
0010
0000
0210
0000
0000
0000
0331
1000
0000
0001
,
1000
0100
0001
0201
0000
0010
0000
1300
,
0010
0000
0100
0000
0001
0000
1000
0010
0000
0000
0001
0000
0010
0000
1000
0000
,
0001
0010
1000
1020
0000
0100
0000
0031
,
0100
0000
0010
0000
1000
0000
0001
0100
0000
0000
0010
0000
1000
0100
1000
0000
,
0001
0000
0100
0000
0010
0000
1000
0200
0000
0000
0302
0300
0000
0000
0103
0000
,
0010
0000
0001
0000
0100
0000
0010
0000
1000
0100
0010
0000
0001
0000
0000
0000
,
1000
0000
0010
0000
0100
0000
0001
0020
0000
0000
2030
0030
0000
0000
3010
0000
,
0100
0000
1000
0000
0010
0000
0100
0000
0001
0100
0010
1000
0100
0010
0001
1000
,
0001
0000
0000
0011
0000
0000
0110
0000
0000
1100
0000
0000
1001
0000
1000
0000
,
0010
0000
0000
1010
0000
0000
0110
0000
0000
0101
0000
0000
1002
0000
0000
0000
,
0013
0000
0000
0011
0000
0000
1100
0000
0000
0101
0000
0000
1001
0000
1000
0000
,
0010
0000
0000
1010
0000
0000
0101
0000
0000
1100
0000
0000
1000
0001
0000
0000
,
1000
0000
0001
0100
0000
0010
0100
0000
0001
0100
0000
0010
0100
0000
0001
0000
,
1000
0000
0001
0010
0000
0100
0010
0000
0001
0010
0000
0100
0010
0000
0100
0000
,
1000
0000
0010
0100
0000
0010
1000
0000
0010
0100
0000
0010
1000
0000
0100
0000
,
0010
0000
0001
1000
0000
0001
0010
0000
0001
1000
0000
0001
0100
0010
0100
0010
,
1000
0000
0001
0010
0000
0010
0100
0000
0100
1000
0000
1000
0001
0000
1000
0000
,
0001
0000
0001
0100
0000
0100
0010
0000
0010
1000
0000
1000
0001
0000
1000
0000
,
0001
0000
0010
0100
0000
0010
1000
0000
0010
0100
0000
0010
0001
0000
1000
0000
,
0001
0000
0100
0010
0000
0100
1000
0000
0100
0010
0000
0100
0001
0000
1000
0000
,
0001
0000
0001
0100
0000
0100
0010
0000
0010
1000
0000
1000
0001
0000
1000
0000
,
0100
0000
0100
1000
0000
1000
0010
0000
0010
0100
0000
0100
0001
0000
1000
0000
,
0001
0000
0010
1000
0000
0010
0001
0000
0010
1000
0000
0010
0001
0000
1000
0000
,
0001
0000
0100
1000
0000
0100
0001
0000
0100
1000
0000
0100
0001
0000
1000
0000
,
0100
0000
0100
0010
0000
0010
0000
0000
0001
0000
0100
0010
0000
0010
0000
0000
,
1000
0000
1000
0010
0000
0010
0000
0000
0100
0000
0001
1000
0000
1000
0000
0000
,
0001
0000
0001
0010
0000
0010
0000
0000
0001
0000
1000
0010
0000
0010
0000
0000
,
1000
0000
0100
0000
0010
0000
0001
0000
1000
0010
0100
0001
0010
0100
2000
0000
,
3001
0000
0000
0000
;

//---------------dance-single - ----------------
#NOTES:
     dance-single:
     :
     Medium:
     9:
     0.339420,0.362769,0.159459,0.470404,0.000000,298.000000,278.000000,20.000000,59.000000,0.000000,0.000000,0.339420,0.362769,0.159459,0.470404,0.000000,298.000000,278.000000,20.000000,59.000000,0.000000,0.000000:
0000
0000
0000
0000
,
0000
0000
0000
0000
,
0000
0000
0000
0000
,
0000
0000
0000
0000
,
0000
0000
0000
0000
,
2000
0000
3001
0100
0010
0000
0010
0000
,
2000
0000
3100
0010
0002
0000
1003
0000
,
0002
0000
1003
0010
0100
0000
0100
0000
,
0002
0000
0013
0100
2000
0000
3001
0000
,
1000
0100
0010
0000
0000
0100
0010
0000
,
0001
0100
0010
0000
0000
0100
0010
0000
,
1000
0010
0100
0000
0000
0010
0100
0000
,
0001
1000
1001
0110
,
1002
0000
0103
0000
0000
0001
0100
0000
,
0020
0000
1030
0000
0000
0010
1000
0000
,
0002
0000
0013
0000
0000
0001
0010
0000
,
0010
0100
1000
0000
0010
0100
0001
0000
,
2000
0000
3100
0010
0100
0000
0100
0000
,
0020
0000
0031
1000
0020
0000
0130
0000
,
0002
0000
0013
0100
0010
0000
0010
0000
,
0200
0000
1300
0001
0200
0000
0300
0000
,
0002
0003
1000
0010
1000
0000
1000
0000
,
0002
0000
1003
0100
0020
0000
0031
0000
,
2000
0000
3001
0010
0001
0000
0001
0000
,
2000
0000
3001
0100
0020
0000
0030
0000
,
1000
0010
0100
0000
0010
0000
0010
0000
,
1000
1000
0001
0001
,
1000
0100
0010
0000
0001
0000
0001
0000
,
1000
0010
0100
0000
,
0001
0100
0010
0000
0100
0000
0100
0000
,
0010
0010
1000
1000
,
0001
0010
0100
0000
0010
0000
0010
0000
,
0100
1000
0002
0003
,
2002
0000
0000
3003
,
0010
0102
0013
2100
,
3010
0000
1000
0001
0200
0000
0300
0000
,
0001
2010
3100
0012
,
0103
0000
0010
1000
0002
0000
0003
0000
,
1000
0012
1003
0102
,
1003
0000
0001
0010
0200
0000
1300
0000
,
0001
2010
3001
2100
,
3002
0000
1003
0010
0200
0000
0300
0000
,
1001
0000
0000
0001
0000
0100
0000
0010
,
0010
0000
0000
0000
1000
0001
1000
0000
,
1000
0000
0000
0100
0000
0100
0000
0010
,
0010
0000
0000
0000
0001
1000
0001
0000
,
2000
3100
0000
1100
,
0002
0000
0103
0000
0010
1000
0001
0000
,
0002
0013
0000
0011
,
2000
0000
3002
0000
0103
0010
0100
0000
,
1001
0001
0010
0010
,
0100
0000
1000
0000
0010
0100
0010
0000
,
1000
1000
0001
1000
,
0010
0000
0100
0000
0001
0100
0001
0000
,
2000
0100
0100
3100
,
0020
0001
0001
0031
,
0002
0100
0100
0103
,
0020
1000
1000
1030
,
0001
0000
1000
0000
0001
0010
0100
0000
,
2000
0000
3000
0000
0100
0010
0100
0000
,
2000
0000
3010
0000
1000
0010
0100
0000
,
0002
0000
0003
0000
0100
0010
0100
0000
,
0002
0010
0023
0100
,
0230
1000
2300
0010
,
3020
0000
0000
0230
0000
0000
0301
0000
,
1000
0100
0010
0000
0001
0100
0010
0000
,
2000
3000
0020
0030
,
0100
0110
0010
0110
,
0002
0003
0020
0030
,
0100
0000
0110
0000
1000
0100
0010
0000
,
1001
0000
0000
0000
;

//---------------dance-single - ----------------
#NOTES:
     dance-single:
     :
     Easy:
     5:
     0.214131,0.279053,0.047838,0.199324,0.000000,188.000000,182.000000,6.000000,25.000000,0.000000,0.000000,0.214131,0.279053,0.047838,0.199324,0.000000,188.000000,182.000000,6.000000,25.000000,0.000000,0.000000:
0000
0000
0000
0000
,
0000
0000
0000
0000
,
0000
0000
0000
0000
,
0000
0000
0000
0000
,
0000
0000
0000
0000
,
2000
0000
0000
3000
,
0020
0000
0000
0030
,
0200
0000
0000
0300
,
0001
1000
1001
0000
,
0001
0100
0000
0100
,
0000
0010
0000
0010
,
0000
1000
0000
1000
,
0000
0100
1001
1001
,
1000
0010
0000
0010
,
0100
0001
0000
0001
,
0010
0100
0000
0100
,
1000
0010
0100
0000
,
0001
0001
0100
0100
,
0010
1000
0200
0300
,
1000
1000
0010
0010
,
0100
0001
2000
3000
,
0001
0001
0010
0010
,
0100
1000
0002
0003
,
1000
1000
0010
0010
,
0100
0001
2000
3000
,
0001
0000
0100
0000
,
0001
1000
0010
0000
,
1000
0000
0100
0000
,
1000
0001
0010
0000
,
0001
0001
0100
0000
,
0010
0010
1000
0000
,
0001
0010
0100
0000
,
1000
0010
0100
0000
,
2002
0000
0000
3003
,
1000
0100
1000
0100
,
1000
0001
0002
0003
,
0001
0100
0001
0100
,
0001
1000
2000
3000
,
1000
0010
1000
0010
,
1000
0001
0002
0003
,
0001
0010
0001
0010
,
0001
1000
2000
3000
,
0001
0000
0100
0000
,
0010
0010
0010
0000
,
1000
0000
0100
0000
,
0010
0010
0010
0000
,
0001
0010
0100
1000
,
0001
0000
0100
0100
,
0001
0010
0100
1000
,
0010
0000
0100
0000
,
0001
0001
0001
0100
,
0010
0010
0010
0000
,
1000
1000
1000
0100
,
0010
0010
0010
0000
,
0002
0003
2000
3000
,
0020
0030
0200
0300
,
0002
0000
0000
2000
0000
0000
0000
0000
,
0000
0000
0000
3003
,
0001
0010
0100
1000
,
0010
0100
0001
0000
,
1000
0100
0010
0001
,
0100
0010
1000
0000
,
0002
0003
2000
3000
,
0200
0300
0020
0030
,
0002
0000
0000
2000
0000
0000
0000
0000
,
0000
0000
0000
3003
,
0001
0000
0100
0000
,
0010
0010
0010
0000
,
1000
0000
0100
0000
,
0010
0010
0100
0110
,
1001
0000
0000
0000
;

//---------------dance-single - ----------------
#NOTES:
     dance-single:
     :
     Beginner:
     2:
     0.112760,0.139527,0.015946,0.000000,0.000000,99.000000,97.000000,2.000000,0.000000,0.000000,0.000000,0.112760,0.139527,0.015946,0.000000,0.000000,99.000000,97.000000,2.000000,0.000000,0.000000,0.000000:
0000
0000
0000
0000
,
0000
0000
0000
0000
,
0000
0000
0000
0000
,
0000
0000
0000
0000
,
0000
0000
0000
0000
,
0001
0000
0000
0000
,
0100
0000
0000
0000
,
0010
0000
0000
0000
,
1000
0000
0000
0000
,
0001
0001
0000
0000
,
0001
0000
0000
0000
,
0010
0010
0000
0000
,
0010
0000
0000
0000
,
0100
0100
0000
0000
,
0100
0000
0000
0000
,
1000
1000
0000
0000
,
1000
0000
0000
0000
,
0010
0010
0010
0000
,
0010
0000
0000
0000
,
0100
0100
0100
0000
,
0100
0000
0000
0000
,
0001
0001
0001
0000
,
0001
0000
0000
0000
,
1000
1000
1000
0000
,
1000
0000
0000
0000
,
0010
0000
0000
0000
,
0100
0000
0000
0000
,
0001
0000
0000
0000
,
0010
0000
0000
0000
,
0100
0000
0000
0000
,
1000
0000
0000
0000
,
0010
0000
0000
0000
,
0100
0000
0000
0000
,
1001
0000
0000
0000
,
0001
0001
0000
0000
,
0001
0001
0000
0000
,
1000
1000
0000
0000
,
1000
1000
0000
0000
,
0010
0010
0000
0000
,
0010
0010
0000
0000
,
0100
0100
0000
0000
,
0100
0100
0000
0000
,
0001
0000
0000
0000
,
0010
0000
0010
0000
,
0010
0000
0000
0000
,
0100
0000
0100
0000
,
0100
0000
0000
0000
,
1000
0000
1000
0000
,
1000
0000
0000
0000
,
0001
0000
0000
0000
,
0100
0000
0100
0000
,
0100
0000
0000
0000
,
0010
0000
0010
0000
,
0010
0000
0000
0000
,
1000
0000
1000
0000
,
1000
0000
1000
0000
,
1000
0000
0000
0000
,
0001
0000
0000
0000
,
0010
0000
0010
0000
,
0010
0000
0000
0000
,
0001
0000
0001
0000
,
0001
0000
0000
0000
,
0100
0000
0100
0000
,
0100
0000
0100
0000
,
0100
0000
0000
0000
,
0010
0000
0000
0000
,
1000
0000
0000
0000
,
0001
0000
0000
0000
,
0010
0000
0000
0000
,
0100
0000
0000
0000
,
1001
0000
0000
0000
;

//---------------dance-double - ----------------
#NOTES:
     dance-double:
     :
     Challenge:
     14:
     0.629863,0.641823,0.462431,0.191351,0.510269,553.000000,495.000000,58.000000,24.000000,0.000000,0.000000,0.629863,0.641823,0.462431,0.191351,0.510269,553.000000,495.000000,58.000000,24.000000,0.000000,0.000000:
00000000
00000000
00000000
00000000
,
00000000
00000000
00000000
00000000
,
00000000
00000000
00000000
00000000
,
00000000
00000000
00000000
00000000
,
00000000
00000000
00000000
00000000
,
00012000
00000000
00000000
00000000
00103000
00010000
00100000
00000000
01000000
00000000
00000000
00000000
01000000
00000000
00000000
00000000
,
10000000
00000000
00000000
00100000
01000000
00000000
00001000
00000000
00100000
00001000
00100000
00001000
00010000
00000000
00000000
00000000
,
00020000
00000000
00000000
00000000
00030010
00001000
00000010
00000000
00000100
00000000
00000000
00000000
00000100
00000000
00000000
00000000
,
00000001
00000000
00000010
00000000
00000100
00000000
00001000
00000000
00000010
00000000
00000000
00000100
00000000
00000000
00001000
00000000
,
00010000
00000000
00100000
00000000
00100000
00000000
00000000
01000000
00000000
00000000
00010000
00000000
10000000
00000000
01000000
00000000
,
00100000
00000000
00010000
00000000
00010000
00000000
00000000
01000000
00000000
00000000
00001000
00000000
00010000
00000000
00000100
00000000
,
00001000
00000000
00000010
00000000
00000010
00000000
00000000
00000100
00000000
00000000
00000001
00000000
00000010
00000000
00000100
00000000
,
00001000
00000010
00000100
00000001
00000101
00000000
00001010
00000000
,
00001001
00000000
00000001
00000000
00000100
00000000
00000010
00000100
00000000
00000000
00000010
00000000
00001000
00000000
00000100
00000000
,
00010000
00000000
00001000
00000000
00100000
00000000
00010000
00100000
00000000
00000000
00010000
00000000
01000000
00000000
00100000
00000000
,
10000000
00000000
01000000
00000000
00100000
00000000
00001000
00100000
00000000
00000000
00001000
00000000
01000000
00000000
00100000
00000000
,
10000000
01000000
00010000
00001000
00000010
00000001
00001000
00000000
,
00001002
00000000
00000000
00000000
00000103
00000010
00000100
00000000
00001000
00000000
00000000
00000000
00001000
00000000
00000000
00000000
,
00010000
00000000
00000000
00100000
01000000
00000000
00100000
00000000
10000000
00010000
01000000
00010000
10000000
00000000
00000000
00000000
,
20010000
00000000
00000000
00000000
31000000
00100000
01000000
00000000
00010000
00000000
00000000
00000000
00010000
00000000
00000000
00000000
,
00001100
00000000
00000000
00001000
00000010
00000000
00000100
00000000
00000002
00000000
00001000
00000000
00001003
00000000
00000000
00000000
,
00000102
00000000
00000000
00000000
00000103
00001000
00010000
00000000
00011000
00000000
00000000
00000000
00011000
00000000
00000000
00000000
,
00101000
00000000
00000000
00100000
00010000
00000000
00100000
00000000
01000000
10000000
00010000
10000000
00100000
00000000
00000000
00000000
,
20100000
00000000
00000000
00000000
30100000
00010000
00001000
00000000
00011000
00000000
00000000
00000000
00011000
00000000
00000000
00000000
,
00010100
00000000
00000000
00000100
00001000
00000000
00000100
00000000
00000010
00000000
00000001
00000000
00001000
00000001
00001000
00000001
,
00000100
00000000
00000010
00000000
00000000
00000010
00000000
00000000
00001000
00000000
00000100
00000000
00000000
00000100
00000000
00000000
,
00010000
00000000
00001000
00000000
00000000
00001000
00000000
00000000
00100000
00000000
01000000
00000000
00000000
01000000
00000000
00000000
,
10000000
00000000
00100000
00000000
00000000
00100000
00000000
00000000
01000000
00000000
00001000
00000000
00000000
00001000
00000000
00000000
,
00010000
00000000
00000010
00000000
00000000
00000010
00000000
00000000
00001000
00000000
00000100
00000000
00000000
00000100
00000000
00000000
,
00000010
00000000
00000001
00000000
00000010
00000001
00000000
00000000
00001000
00000000
00000010
00000000
00001000
00000010
00000000
00000000
,
00010000
00000000
00001000
00000000
00010000
00001000
00000000
00000000
00100000
00000000
00010000
00000000
00100000
00010000
00000000
00000000
,
10000000
00000000
00100000
00000000
01000000
00010000
00000000
01000000
00010000
00000000
00100000
00000000
00001000
00010000
00000000
00001000
,
00010000
00000000
00000010
00000000
00001000
00000100
00000000
00001000
00000100
00000000
00000010
00000000
00000001
00000000
00000000
00000000
,
00002002
00000000
00000000
00000000
00000000
00000000
00003003
00000000
00000001
00000100
00000010
00000000
00001000
00000100
00000010
00000000
,
00000001
00000100
00000000
00000000
00000201
00000000
00000000
00000000
00001300
00010000
00000000
00000000
00021000
00000000
00000000
00000000
,
01030000
00100000
01000000
00100000
00010000
00000000
10000000
00000000
00100000
00000000
01000000
00000000
01010000
00000000
00000000
00000000
,
10000000
00100000
00000000
00000000
10200000
00000000
00000000
00000000
00310000
00001000
00000000
00000000
00012000
00000000
00000000
00000000
,
00003010
00000100
00000010
00000100
00001000
00000000
00000001
00000000
00000100
00000000
00000010
00000000
00001000
00000001
00001000
00000000
,
00000001
00000100
00000010
00000000
00002010
00000000
00000000
00000000
00003100
00010000
00001000
00000000
00201000
00000000
00000000
00000000
,
00310000
01000000
00010000
10000000
00010000
00000000
10000000
00000000
00100000
00000000
01000000
00000000
00010000
10000000
00010000
00000000
,
10000000
00100000
01000000
00000000
01020000
00000000
00000000
00000000
00130000
00001000
00010000
00000000
00010200
00000000
00000000
00000000
,
00001300
00000010
00001000
00000001
00001000
00000000
00000001
00000000
00000100
00000000
00000010
00000000
00001000
00000100
00000010
00000001
,
00002000
00000000
00000000
00000000
00000000
00000000
00010000
00000000
00000000
00000000
00000100
00000000
00000000
00000000
00010000
00003000
,
00020000
00000000
00130000
01000000
10000000
00010000
10010000
00000000
,
00020000
00000000
00000000
00000000
00000000
00000000
00001000
00000000
00000000
00000000
00100000
00000000
00000000
00000000
00001000
00030000
,
00002000
00000000
00000000
00000000
00003100
00000000
00000010
00000000
00000001
00000000
00001000
00000000
00000001
00000100
00000000
00000000
,
00000001
00000010
00000100
00001100
00000000
00011000
00000000
00110000
,
00020000
00000000
00000000
00000000
10030000
00000000
00100000
01000000
00000000
00000000
00010000
00000000
00100000
00000000
01000000
00000000
,
10000000
00100000
01000000
01010000
00000000
00011000
00000000
00001010
,
00002000
00000000
00000000
00000000
00003001
00000000
00000010
00000000
00001000
00000000
00000010
00000000
00000001
00000010
00000100
00001000
,
00000010
00000000
00000000
00001010
00000000
00000000
00001100
00000000
00000000
00010100
00000000
00000000
00011000
00000000
00010000
00000000
,
00001000
00000000
00000000
01001000
00000000
00000000
01010000
00000000
00000000
01100000
00000000
00000000
20100000
00000000
00000000
00000000
,
31000000
00000000
00000000
11000000
00000000
00000000
01100000
00000000
00000000
00110000
00000000
00000000
00101000
00000000
00001000
00000000
,
00010000
00000000
00000000
00010010
00000000
00000000
00001010
00000000
00000000
00000110
00000000
00000000
00000001
00001000
00000000
00000000
,
00000101
00000000
00000000
00001010
00000000
00000000
01010000
00000000
00000000
10100000
00000000
00000000
10010000
00000000
10000000
00000000
,
11000000
00000000
00000000
00110000
00000000
00000000
00001100
00000000
00000000
00000011
00000000
00000000
00001001
00000000
00001000
00000000
,
00000010
00000100
00000000
00000010
00000100
00000000
00001000
00010000
00000000
00001000
00010000
00000000
00100000
00000000
01000000
00000000
,
00010000
00100000
00000000
00010000
00100000
00000000
01000000
10000000
00000000
01000000
10000000
00000000
00010000
00000000
00000000
00000000
,
10000000
00000000
01000000
00100000
00000000
00100000
00010000
00000000
00010000
01000000
00000000
01000000
00001000
00000000
00010000
00000000
,
00000100
00000000
00000100
00001000
00000000
00001000
00000010
00000000
00000010
00000100
00000000
00000100
00000001
00000000
00001000
00000000
,
00000001
00000000
00000001
00000010
00000000
00000010
00000100
00000000
00000100
00001000
00000000
00001000
00000010
00000000
00010000
00000000
,
00001000
00000000
00001000
00100000
00000000
00100000
00010000
00000000
00010000
10000000
00000000
10000000
00100000
00000000
01000000
00000000
,
00010000
00000000
00100000
10000000
00000000
00100000
00010000
00000000
00100000
10000000
00000000
00100000
00010000
00000000
01000000
00000000
,
00001000
00000000
00010000
00100000
00000000
00010000
00001000
00000000
00010000
00100000
00000000
00010000
00001000
00000000
00010000
00000000
,
00000100
00000000
00001000
00000100
00000000
00000001
00000100
00000000
00001000
00000100
00000000
00000001
00000100
00000000
00001000
00000000
,
00000010
00000000
00001000
00000100
00000000
00010000
00001000
00000000
00100000
00010000
00000000
10000000
00100000
00000000
01000000
00000000
,
00010000
00100000
01000000
00000000
10000000
00100000
01000000
00000000
,
00010000
10000000
01000000
00010000
00001000
00000010
00000001
00000000
,
00001000
00000010
00000100
00000000
00000001
00000010
00000100
00000000
,
00001000
00000000
00000001
00000000
00000100
00000000
00001000
00000000
00010000
00100000
00010000
00100000
10000000
00010000
10000000
00000000
,
10010000
00000000
00000000
00000000
;

//---------------dance-double - ----------------
#NOTES:
     dance-double:
     :
     Hard:
     11:
     0.461292,0.474391,0.159459,0.287026,0.147500,405.000000,385.000000,20.000000,36.000000,0.000000,0.000000,0.461292,0.474391,0.159459,0.287026,0.147500,405.000000,385.000000,20.000000,36.000000,0.000000,0.000000:
// measure 0
00000000
00000000
00000000
00000000
,  // measure 1
00000000
00000000
00000000
00000000
,  // measure 2
00000000
00000000
00000000
00000000
,  // measure 3
00000000
00000000
00000000
00000000
,  // measure 4
00000000
00000000
00000000
00000000
,  // measure 5
00012000
00000000
00103000
01000000
00200000
00000000
00320000
00000000
,  // measure 6
20030000
00000000
30100000
01000000
00002000
00000000
00013000
00000000
,  // measure 7
00021000
00000000
00030100
00000010
00000200
00000000
00002300
00000000
,  // measure 8
00003001
00000100
00000010
00001000
00000100
00000000
00001100
00000000
,  // measure 9
00000001
00000100
00000010
00000000
00001000
00000100
00000010
00000000
,  // measure 10
00000100
00010000
00001000
00100000
00010000
01000000
00100000
00000000
,  // measure 11
10000000
00100000
01000000
00000000
00010000
00100000
01000000
00000000
,  // measure 12
00100000
00001000
00010000
00000000
00011000
00000000
00011000
00000000
,  // measure 13
00001002
00000000
00000103
00000000
00000001
00000100
00000010
00000000
,  // measure 14
00001000
00000100
00010000
00000000
00001000
00100000
00010000
00000000
,  // measure 15
20010000
00000000
30100000
00000000
10000000
00100000
01000000
00000000
,  // measure 16
00010000
01000000
00001000
00000000
00010000
00001000
00010000
00000000
,  // measure 17
00102000
00000000
00013000
00000010
00000100
00000000
00000100
00000000
,  // measure 18
00000001
00000000
00000000
00000001
00000010
00000000
00000100
00000000
00010000
00000000
00001000
00000000
00100000
00000000
00000000
00000000
,  // measure 19
00020100
00000000
00031000
01000000
00100000
00000000
00100000
00000000
,  // measure 20
10000000
00000000
00000000
10000000
01000000
00000000
00100000
00000000
00002000
00000000
00000000
00000000
00013000
00000000
00000000
00000000
,  // measure 21
00010020
00000000
00000000
00000000
00001030
00000001
00001000
00000000
00000001
00000000
00000000
00000000
00000001
00000000
00000000
00000000
,  // measure 22
00000010
00000000
00000000
00000010
00000100
00000000
00010000
00000000
00001000
00000000
00100000
00003000
00001000
00000000
00000000
00000000
,  // measure 23
02001000
00000000
00000000
00000000
03010000
10000000
00010000
00000000
10000000
00000000
00000000
00000000
10000000
00000000
00000000
00000000
,  // measure 24
01000000
00000000
00000000
01000000
00100000
00000000
00001000
00000000
00020000
00000000
00000000
00000000
00031000
00000000
00000000
00000000
,  // measure 25
00010000
00001000
00000010
00000000
00001000
00000010
00000001
00000000
,  // measure 26
00000010
00000001
00000100
00000000
00000001
00000100
00001000
00000000
,  // measure 27
00000100
00001000
00010000
00000000
00001000
00010000
00100000
00000000
,  // measure 28
00010000
00100000
10000000
00000000
00100000
10000000
01000000
00000000
,  // measure 29
10000000
01000000
00010000
01000000
00100000
00001000
00010000
00000000
,  // measure 30
00001000
00010000
00001000
00000100
00000010
00001000
00000001
00000000
,  // measure 31
00001000
00000100
00000001
00000100
00001000
00000001
00000100
00000000
,  // measure 32
00000001
00000100
00000010
00001000
00000100
00010000
00001000
01000000
,  // measure 33
02200000
00000000
00000000
03300000
,  // measure 34
10000000
01000000
00000000
00000000
00000000
00000000
10000000
01000000
00000000
00000000
00000000
00000000
00100000
00000000
00000000
00000000
,  // measure 35
00010000
01000000
00000000
00000000
00000000
00000000
00010000
01000000
00000000
00000000
00000000
00000000
00001000
00000000
00000000
00000000
,  // measure 36
00010000
00000100
00000000
00000000
00000000
00000000
00010000
00000100
00000000
00000000
00000000
00000000
00001000
00000000
00000000
00000000
,  // measure 37
00000001
00000100
00000000
00000000
00000001
00000000
00001000
00000000
00000020
00000000
00000000
00000000
00000130
00000000
00000000
00000000
,  // measure 38
00000001
00000010
00000000
00000000
00000020
00000000
00000000
00000000
00000130
00001000
00000000
00000000
00002000
00000000
00000000
00000000
,  // measure 39
00003100
00010000
00000000
00000000
00010000
00000000
00001000
00000000
01000000
00000000
00000000
00000000
01010000
00000000
00000000
00000000
,  // measure 40
10000000
01000000
00000000
00000000
02000000
00000000
00000000
00000000
03100000
00001000
00000000
00000000
00002000
00000000
00000000
00000000
,  // measure 41
00013000
00000010
00000100
00000001
00001000
00000100
00010000
00000000
,  // measure 42
00102000
00000000
00000000
00000000
00000000
00000000
00010000
00000000
00000000
00000000
01000000
00000000
00000000
00000000
00100000
00003000
,  // measure 43
00200000
00000000
00000000
10300000
00100000
00001000
00010000
00000000
,  // measure 44
00020010
00000000
00000000
00000000
00000000
00000000
00001000
00000000
00000000
00000000
00000100
00000000
00000000
00000000
00000010
00030000
,  // measure 45
00000020
00000000
00000000
00000331
00000010
00010000
00001000
00000000
,  // measure 46
00010000
00001000
00100000
00110000
00000000
00110000
00000000
10000000
,  // measure 47
00200000
00000000
01300000
00010000
01000000
00001000
00010000
00000000
,  // measure 48
00001000
00010000
00000010
00001010
00000000
00001010
00000000
00000001
,  // measure 49
00000010
00000100
00001000
00010000
00100000
01000000
10000000
00000000
,  // measure 50
00010000
00000000
00000000
00010000
00000000
00000000
01000000
00000000
00000000
01000000
00000000
00000000
00100000
00000000
10000000
00000000
,  // measure 51
01000000
00000000
00000000
01000000
00000000
00000000
00100000
00000000
00000000
00100000
00000000
00000000
00002000
00000000
00000000
00000000
,  // measure 52
00013000
00000000
00000000
00010000
00000000
00000000
00000010
00000000
00000000
00000010
00000000
00000000
00000100
00000000
00000001
00000000
,  // measure 53
00001000
00000000
00000000
00001000
00000000
00000000
00000100
00000000
00000000
00000100
00000000
00000000
00000020
00000000
00000000
00000000
,  // measure 54
00000031
00000000
00000000
00000100
00000000
00000000
00000010
00000000
00000000
00000100
00000000
00000000
00000001
00000000
00000010
00000000
,  // measure 55
00000100
00000000
00000000
00001000
00000000
00000000
00000010
00000000
00000000
00001000
00000000
00000000
00000100
00000000
00010000
00000000
,  // measure 56
00002000
00000000
00000000
00000000
00000000
00000000
00203000
00003000
00000000
00000000
00000000
00000000
01000000
00000000
00000000
00000000
,  // measure 57
00010000
10000000
00010000
01300000
,  // measure 58
10000000
01000000
00100000
00010000
01000000
00100000
01000000
00010000
,  // measure 59
00100000
00001000
00010000
00000100
00000010
00000001
00001000
00000000
,  // measure 60
00000001
00000100
00000010
00001000
00000100
00000010
00000100
00001000
,  // measure 61
00000010
00010000
00001000
01000000
00100000
10000000
00010000
00000000
,  // measure 62
10000000
00000000
01000000
00000000
00100000
00000000
00010000
00000000
00000000
00010000
00000000
00000000
00010000
00000000
00100000
00000000
,  // measure 63
00001000
00000000
00010000
00000000
00000010
00000000
00000100
00000000
00000000
00000100
00000000
00000000
00000100
00000000
00000001
00000000
,  // measure 64
00000010
00000000
00000100
00000000
00010000
00000000
00001000
00000000
00000000
00001000
00000000
00000000
00001000
00000000
00100000
00000000
,  // measure 65
00010000
01000000
00100000
10000000
01000000
00010000
00001000
00000000
,  // measure 66
00100000
00001000
00020000
00000000
00030010
00010000
00002000
00000000
,  // measure 67
01003000
00001000
00020000
00000000
00030100
00010000
00002000
00000000
,  // measure 68
00103000
00010000
10000000
00100000
10000000
00010000
00100000
00001000
,  // measure 69
00010000
00000010
00001000
00000001
00000010
00000010
00000100
00000000
,  // measure 70
00001001
00000000
00000000
00000000
;

//---------------dance-double - ----------------
#NOTES:
     dance-double:
     :
     Medium:
     9:
     0.334864,0.362769,0.111621,0.518242,0.000000,294.000000,280.000000,14.000000,65.000000,0.000000,0.000000,0.334864,0.362769,0.111621,0.518242,0.000000,294.000000,280.000000,14.000000,65.000000,0.000000,0.000000:
00000000
00000000
00000000
00000000
,
00000000
00000000
00000000
00000000
,
00000000
00000000
00000000
00000000
,
00000000
00000000
00000000
00000000
,
00000000
00000000
00000000
00000000
,
00002000
00023000
00030010
00000010
,
00002000
00000000
00003001
00000010
00000200
00000000
00020300
00000000
,
00032000
02003000
03100000
00100000
,
20000000
00000000
31000000
00100000
00020000
00000000
00030000
00000000
,
10000000
01000000
20000000
00000000
30000000
00010000
02000000
00000000
,
03000000
00001000
00020000
00000000
00030000
00000100
00002000
00000000
,
00003000
00000001
00000200
00000000
00000300
00000010
00002000
00000000
,
00003000
00000100
00010000
00000000
00011000
00000000
00011000
00000000
,
00001000
01000000
00200000
00000000
00300000
10000000
02000000
00000000
,
03100000
00010000
02000000
00000000
03000000
00001000
00020000
00000000
,
00030100
00001000
00000020
00000000
00000030
00000100
00000002
00000000
,
00001003
00000100
00020000
00000000
00032000
00000000
00103000
00000000
,
00200000
00000000
00310000
10000000
00100000
00000000
00100000
00000000
,
01000000
00001000
00010000
00000100
,
00000020
00000000
00000031
00000100
00000010
00000000
00000010
00000000
,
00002000
00000000
00003100
00010000
00001000
00000000
00000000
00000000
,
00021000
00000000
00030010
00000100
00000010
00000000
00000010
00000000
,
00001000
00000100
00020000
00031000
,
00012000
00000000
00103000
01000000
00100000
00000000
00100000
00000000
,
00010000
00000000
10000000
00100000
02000000
00000000
03000000
00000000
,
00010000
10000000
01000000
00100000
,
00001000
00010000
00000010
00000100
,
00000001
00000010
00000100
00010000
,
00001000
00100000
00010000
01000000
,
00100000
10000000
01000000
00000000
00100000
00000000
00001000
00000000
,
00010000
00000010
00001000
00000000
00000001
00000000
00000010
00000000
,
00000100
00000010
00000001
00000000
00000100
00000000
00000010
00000000
,
00001000
00000100
00010000
00000000
00001000
00010000
00001000
00000000
,
00022000
00000000
00000000
00033000
,
00002000
00100000
00023000
00000010
,
00032000
00000000
01003000
00100000
20000000
00000000
30020000
00000000
,
00230000
00001000
00320000
10000000
,
00230000
00000000
00301000
00010000
00002000
00000000
00003000
00000000
,
00020000
00000100
00032000
01000000
,
00023000
00000000
00030010
00000100
00000002
00000000
00002003
00000000
,
00003200
00010000
00002300
00000001
,
00003200
00000000
00010300
00001000
00020000
00000000
00030000
00000000
,
00131000
00000000
00000000
00100000
00000000
00010000
00000000
10000000
,
00200000
00000000
00300000
00000000
10000000
00010000
10000000
00000000
,
00020000
00000000
00030000
00100000
00000000
00001000
00000000
00010000
,
00000200
00000000
00000300
00000000
00001000
00000010
00000100
00000000
,
00000002
00000000
00000003
00000010
00000000
00000010
00000000
00000100
,
00020000
00000000
00030000
00000000
00001000
01000000
00010000
00000000
,
20000000
00000000
30000000
00100000
00000000
00100000
00000000
01000000
,
00002000
00023000
00030200
00000310
,
00000001
00000011
00001000
00000001
,
00001000
00000000
00001100
00000000
00000100
00010000
00001000
00000000
,
00100000
00110000
00010000
10000000
,
00100000
00000000
10100000
00000000
10000000
00100000
01000000
00000000
,
00010000
00100000
00010000
00000000
10000000
00100000
10000000
00000000
,
00100000
01000000
00010000
00100000
,
00002000
00000000
00000000
00020000
00000000
00000000
00033000
00000000
,
00010000
00000100
00001000
00000000
00000010
00000000
00000110
00000000
,
00001001
00000000
00000100
00000000
00000010
00001000
00000100
00000000
,
00010000
00000000
00001000
00000000
00100000
00010000
01000000
00000000
,
00100000
00000000
00100000
00000000
10000000
01000000
00100000
00000000
,
00010000
00000000
01000000
00000000
00001000
00010000
00001000
00000000
,
00100000
00100000
00001000
00010000
,
00000010
00000000
00000010
00000000
00001000
00000100
00010000
00000000
,
00002000
00000000
00000000
00020000
00000000
00000000
00033000
00000000
,
00001000
01000000
00100000
00000000
10000000
01000000
00100000
00000000
,
00110000
00000000
10000000
00100000
,
02000000
03000000
00010000
00100000
,
00001000
00000000
00010000
00000010
,
00000200
00000000
00000300
00000000
00000001
00000100
00001000
00000000
,
00011000
00000000
00000000
00000000
;

//---------------dance-double - ----------------
#NOTES:
     dance-double:
     :
     Easy:
     5:
     0.231216,0.279053,0.063784,0.294999,0.000000,203.000000,195.000000,8.000000,37.000000,0.000000,0.000000,0.231216,0.279053,0.063784,0.294999,0.000000,203.000000,195.000000,8.000000,37.000000,0.000000,0.000000:
00000000
00000000
00000000
00000000
,
00000000
00000000
00000000
00000000
,
00000000
00000000
00000000
00000000
,
00000000
00000000
00000000
00000000
,
00000000
00000000
00000000
00000000
,
00020000
00000000
00000000
00030000
,
00002000
00000000
00000000
00003000
,
02000000
00000000
00000000
03000000
,
00200000
00300000
01000000
01000000
,
00100000
10000000
00000000
10000000
,
00000000
00010000
00000000
00010000
,
00000000
00100000
00000000
00100000
,
00000000
00001000
00011000
00011000
,
00010000
00000100
00000000
00000100
,
00000000
00000010
00000000
00000010
,
00000000
00000001
00000000
00000001
,
00000000
00000100
00000010
00001000
,
00000100
00000100
00010000
00010000
,
00001000
01000000
00020000
00030000
,
10000000
10000000
00010000
00010000
,
00100000
00001000
00020000
00030000
,
00000010
00000010
00001000
00001000
,
00000100
00010000
00002000
00003000
,
00100000
00100000
00010000
00010000
,
01000000
00001000
00020000
00030000
,
00022000
00033000
00001000
00000000
,
00100000
00100000
00010000
00000000
,
10000000
10000000
00100000
00000000
,
01000000
01000000
00010000
00000000
,
10000000
01000000
00010000
00000000
,
00001000
00000010
00000001
00000000
,
00000001
00000100
00001000
00000000
,
00010000
00100000
10000000
00000000
,
20020000
00000000
00000000
30030000
,
00020000
00030000
00200000
00300000
,
00001000
00010000
00002000
00003000
,
00020000
00030000
00000020
00000030
,
00001000
00000001
00002000
00003000
,
00000002
00000003
00000020
00000030
,
00000100
00010000
00000200
00000300
,
00020000
00030000
00002000
00003000
,
01000000
00010000
02000000
03000000
,
00100000
00100000
01000000
01000000
,
00200000
00300000
10000000
00010000
,
00100000
00100000
00001000
00001000
,
00200000
00300000
00001000
00010000
,
00000010
00000010
00000100
00000100
,
00000020
00000030
00001000
00000001
,
00000010
00000010
00000100
00000100
,
00000020
00000030
00000100
00010000
,
00011000
00001000
00100000
00010000
,
01000000
00100000
10000000
00000000
,
10000000
01000000
00100000
00010000
,
01000000
00001000
00010000
00000000
,
00000100
00000100
00001000
00000010
,
00000100
00000001
00000010
00000100
,
00020000
00030000
00002000
00003000
,
00100000
00001000
00010000
00000000
,
00011000
00010000
00000010
00000100
,
00000001
00000010
00000100
00010000
,
00010000
00001000
00100000
00010000
,
01000000
00100000
10000000
00010000
,
00010000
00100000
00001000
00010000
,
00000010
00000100
00000010
00010000
,
00020000
00030000
00002000
00003000
,
00100000
00001000
00010000
00000000
,
00022000
00033000
00020000
00030000
,
00000100
00000100
00000020
00000030
,
00000001
00000001
00000200
00000300
,
00000010
00000010
00010000
00001000
,
00011000
00000000
00000000
00000000
;
